<?xml version="1.0" standalone="no"?>
<!DOCTYPE svg PUBLIC "-//W3C//DTD SVG 1.1//EN" "http://www.w3.org/Graphics/SVG/1.1/DTD/svg11.dtd" >
<svg xmlns="http://www.w3.org/2000/svg" xmlns:xlink="http://www.w3.org/1999/xlink" version="1.1">
<metadata>
Created by FontForge 20170731 at Mon Jul  6 17:04:28 2015
 By nod
Copyright (c) 2015, Cadson Demak (info@cadsondemak.com)
</metadata>
<defs>
<font id="Chonburi-Regular" horiz-adv-x="0" >
  <font-face 
    font-family="Chonburi"
    font-weight="400"
    font-stretch="normal"
    units-per-em="1000"
    panose-1="0 0 5 0 0 0 0 0 0 0"
    ascent="750"
    descent="-250"
    x-height="486"
    cap-height="700"
    bbox="-816 -401 1356 1072"
    underline-thickness="50"
    underline-position="-100"
    unicode-range="U+000D-FB02"
  />
<missing-glyph horiz-adv-x="600" 
d="M505 714v-714h-411v714h411zM454 51v612h-309v-612h309z" />
    <glyph glyph-name="fi" unicode="fi" horiz-adv-x="774" 
d="M430 18l35 8q15 3 19.5 7t4.5 15v412h-206v-411q0 -11 4.5 -15t19.5 -7l37 -9v-18h-318v18l35 8q15 3 19.5 7t4.5 15v412h-65v26h65v23q0 112 83 166.5t237 54.5q65 0 129.5 -10t109.5 -26l-40 -148h-31q-27 77 -66 118.5t-106 41.5q-51 0 -76.5 -24t-33.5 -68t-8 -120
v-8h406v-438q0 -11 4.5 -15t19.5 -7l35 -8v-18h-318v18z" />
    <glyph glyph-name="fl" unicode="fl" horiz-adv-x="782" 
d="M440 18l35 8q15 3 19.5 7t4.5 15v632q-40 26 -98 26q-51 0 -76.5 -24t-33.5 -68t-8 -120v-8h116v-26h-116v-411q0 -11 4.5 -15t19.5 -7l37 -9v-18h-318v18l35 8q15 3 19.5 7t4.5 15v412h-65v26h65v23q0 111 81 166t226 55q77 0 164 -20l124 20h19v-682q0 -11 4.5 -15
t19.5 -7l35 -8v-18h-318v18z" />
    <glyph glyph-name="ru_lakkhangyaothai" unicode="&#xe24;&#xe45;" horiz-adv-x="1188" 
d="M484 480q-9 26 -32 37t-66 11q-54 0 -99 -10v-382q0 -57 6 -79t32 -22q15 0 30 9.5t32 29.5l19 -17q-24 -33 -58 -50t-88 -17q-95 0 -139.5 51.5t-44.5 160.5q0 96 26.5 150t80.5 76v13l-129 24v16q164 77 355 77q169 0 236 -58q116 58 241 58q111 0 164 -44.5t53 -137.5
v-556q0 -11 4.5 -15t19.5 -7l33 -6v-20h-206q-53 0 -53 57v567q0 65 -24 89t-77 24q-41 0 -72.5 -7t-62.5 -22q30 -39 30 -102v-558q0 -11 4.5 -15t19.5 -7l33 -6v-20h-206q-53 0 -53 57v578q0 47 -9 73z" />
    <glyph glyph-name="lu_lakkhangyaothai" unicode="&#xe26;&#xe45;" horiz-adv-x="1178" 
d="M891 -171v567q0 65 -24 89t-77 24q-64 0 -119 -22q34 -43 34 -109v-558q0 -11 4.5 -15t19.5 -7l33 -6v-20h-206q-53 0 -53 57v578q0 47 -8 73t-28.5 37t-58.5 11q-42 0 -87 -9v-388q0 -72 -38.5 -106.5t-124.5 -34.5q-58 0 -91 15t-56 46l18 18q14 -18 27 -26.5t29 -8.5
q18 0 26 11.5t8 47.5v219q0 43 26 73.5t72 42.5v13l-138 24v16q165 77 352 77q152 0 218 -51q106 51 227 51q111 0 164 -44.5t53 -137.5v-556q0 -11 4.5 -15t19.5 -7l33 -6v-20h-206q-53 0 -53 57z" />
    <glyph glyph-name=".notdef" horiz-adv-x="600" 
d="M505 714v-714h-411v714h411zM454 51v612h-309v-612h309z" />
    <glyph glyph-name="nonmarkingreturn" unicode="&#xd;" horiz-adv-x="260" 
 />
    <glyph glyph-name="space" unicode=" " horiz-adv-x="290" 
 />
    <glyph glyph-name=".null" horiz-adv-x="500" 
 />
    <glyph glyph-name=".null" horiz-adv-x="500" 
 />
    <glyph glyph-name="exclam" unicode="!" horiz-adv-x="284" 
d="M48 675q11 17 35.5 26t58.5 9t58.5 -9t35.5 -26l-78 -454h-32zM82.5 16q-24.5 24 -24.5 58t24.5 58t59.5 24t59.5 -24t24.5 -58t-24.5 -58t-59.5 -24t-59.5 24z" />
    <glyph glyph-name="quotedbl" unicode="&#x22;" horiz-adv-x="460" 
d="M52 699q30 11 73 11t73 -11l-61 -268h-24zM262 699q30 11 73 11t73 -11l-61 -268h-24z" />
    <glyph glyph-name="numbersign" unicode="#" horiz-adv-x="648" 
d="M218 482l31 218h32l-32 -218l205 3l31 215h32l-31 -215l134 2v-38l-139 1l-29 -201l134 2v-38l-139 1l-30 -214h-32l30 215l-203 2l-31 -217h-32l31 218l-152 2v24l156 2l30 208l-152 2v24zM420 249l29 202l-204 2l-29 -207z" />
    <glyph glyph-name="dollar" unicode="$" horiz-adv-x="680" 
d="M177 2.5q-74 13.5 -115 33.5l17 176h28q15 -78 43 -121t68 -59.5t97 -16.5v246l-30 14q-87 38 -131.5 65t-71 69.5t-26.5 109.5q0 92 62 140t197 52v89h30v-88q64 -1 124.5 -14t101.5 -32l-14 -153h-29q-21 59 -42 94t-54.5 55.5t-86.5 22.5v-232l45 -21
q97 -47 140 -73.5t68.5 -67t25.5 -105.5q0 -94 -67.5 -143.5t-211.5 -53.5v-89h-30v88q-64 1 -138 14.5zM223 528.5q25 -26.5 92 -60.5v216q-117 -5 -117 -85q0 -44 25 -70.5zM429 187q-25 30 -84 60v-231q51 5 80 30t29 66q0 45 -25 75z" />
    <glyph glyph-name="percent" unicode="%" horiz-adv-x="818" 
d="M331.5 663q44.5 -45 44.5 -121t-44.5 -121t-123.5 -45t-123.5 45t-44.5 121t44.5 121t123.5 45t123.5 -45zM624 700l-400 -700h-30l400 700h30zM251.5 429.5q11.5 35.5 11.5 112.5t-11.5 112.5t-43.5 35.5t-43.5 -35.5t-11.5 -112.5t11.5 -112.5t43.5 -35.5t43.5 35.5z
M733.5 279q44.5 -45 44.5 -121t-44.5 -121t-123.5 -45t-123.5 45t-44.5 121t44.5 121t123.5 45t123.5 -45zM653.5 45.5q11.5 35.5 11.5 112.5t-11.5 112.5t-43.5 35.5t-43.5 -35.5t-11.5 -112.5t11.5 -112.5t43.5 -35.5t43.5 35.5z" />
    <glyph glyph-name="ampersand" unicode="&#x26;" horiz-adv-x="834" 
d="M325 612q0 -34 22 -76.5t55 -81.5l193 -230l109 152h-49v22h147v-20l-39 -3q-15 -1 -23 -5.5t-17 -16.5l-111 -149l131 -156q10 -11 18.5 -17t19.5 -7l37 -4v-20h-280l-49 58q-46 -41 -90.5 -55.5t-106.5 -14.5q-117 0 -179.5 47t-62.5 144q0 146 166 208q-45 65 -45 125
q0 87 61 143.5t179 56.5q115 0 187 -40l-25 -137h-29q-22 71 -33 96.5t-32.5 39.5t-65.5 14q-88 0 -88 -73zM416 45.5q31 10.5 57 31.5l-234 280l-7 8q-15 -21 -22 -52.5t-7 -79.5q0 -98 39.5 -148t102.5 -50q40 0 71 10.5z" />
    <glyph glyph-name="quotesingle" unicode="'" horiz-adv-x="250" 
d="M52 699q30 11 73 11t73 -11l-61 -268h-24z" />
    <glyph glyph-name="parenleft" unicode="(" horiz-adv-x="390" 
d="M134.5 604.5q68.5 106.5 208.5 189.5l15 -15q-63 -42 -96.5 -98.5t-46 -136t-12.5 -204.5t12.5 -204.5t46 -136t96.5 -98.5l-15 -15q-140 83 -208.5 189.5t-68.5 264.5t68.5 264.5z" />
    <glyph glyph-name="parenright" unicode=")" horiz-adv-x="390" 
d="M255.5 75.5q-68.5 -106.5 -208.5 -189.5l-15 15q63 42 96.5 98.5t46 136t12.5 204.5t-12.5 204.5t-46 136t-96.5 98.5l15 15q140 -83 208.5 -189.5t68.5 -264.5t-68.5 -264.5z" />
    <glyph glyph-name="asterisk" unicode="*" horiz-adv-x="552" 
d="M480 608q16 -27 16 -64q0 -7 -2 -21h-205l153 -136q-8 -17 -27 -32.5t-38 -21.5l-101 177l-101 -177q-19 6 -38 21.5t-27 32.5l152 136h-204q-2 14 -2 21q0 37 16 64l195 -68l-34 203q17 7 43 7t43 -7l-35 -203z" />
    <glyph glyph-name="plus" unicode="+" horiz-adv-x="570" 
d="M300 314v-197h-30v197h-196v28h196v197h30v-197h196v-28h-196z" />
    <glyph glyph-name="comma" unicode="," horiz-adv-x="268" 
d="M125 1q-38 0 -57.5 21.5t-19.5 53.5q0 34 22.5 57t61.5 23q40 0 64 -22.5t24 -65.5q0 -58 -35 -117.5t-86 -99.5l-20 21q65 69 65 130q-7 -1 -19 -1z" />
    <glyph glyph-name="hyphen" unicode="-" horiz-adv-x="312" 
d="M40 264v28h232v-28h-232z" />
    <glyph glyph-name="period" unicode="." horiz-adv-x="268" 
d="M74.5 16q-24.5 24 -24.5 58t24.5 58t59.5 24t59.5 -24t24.5 -58t-24.5 -58t-59.5 -24t-59.5 24z" />
    <glyph glyph-name="slash" unicode="/" horiz-adv-x="300" 
d="M60 -12h-30l210 724h30z" />
    <glyph glyph-name="zero" unicode="0" horiz-adv-x="778" 
d="M561.5 671q76.5 -41 120.5 -122.5t44 -198.5t-44 -198.5t-120.5 -122.5t-172.5 -41t-172.5 41t-120.5 122.5t-44 198.5t44 198.5t120.5 122.5t172.5 41t172.5 -41zM480 99.5q25 82.5 25 250.5t-25 250.5t-91 82.5t-91 -82.5t-25 -250.5t25 -250.5t91 -82.5t91 82.5z" />
    <glyph glyph-name="one" unicode="1" horiz-adv-x="514" 
d="M63 617v22q152 18 284 73l20 -10v-650q0 -11 4.5 -15.5t18.5 -6.5l70 -10v-20h-400v20l79 10q15 3 19.5 7t4.5 16v564h-100z" />
    <glyph glyph-name="two" unicode="2" horiz-adv-x="660" 
d="M485.5 307q-96.5 -89 -234.5 -161h301q11 0 15 4.5t7 19.5l8 37h20v-207h-561l-9 20q182 124 261 254t79 247q0 67 -28.5 104t-85.5 37q-54 0 -100 -17t-98 -51l-12 19q137 99 302 99q123 0 177.5 -52t54.5 -146q0 -118 -96.5 -207z" />
    <glyph glyph-name="three" unicode="3" horiz-adv-x="630" 
d="M344 58q32 40 32 129q0 78 -36 123.5t-108 45.5h-41v30h42q63 0 92 35t29 107q0 70 -33 103t-100 33q-88 0 -176 -52l-12 19q59 39 127 60t157 21q109 0 175 -44.5t66 -126.5q0 -59 -44.5 -104t-122.5 -65q91 -13 142 -60t51 -121q0 -110 -80 -155.5t-241 -45.5
q-70 0 -132.5 11t-98.5 30l14 166h23q17 -57 36 -94t52.5 -61t87.5 -24q67 0 99 40z" />
    <glyph glyph-name="four" unicode="4" horiz-adv-x="678" 
d="M26 159l-6 23l464 518h73v-513h93v-28h-93v-107q0 -11 4.5 -15.5t18.5 -6.5l70 -10v-20h-400v20l79 10q15 3 19.5 7t4.5 16v106h-327zM353 187v322l-289 -322h289z" />
    <glyph glyph-name="five" unicode="5" horiz-adv-x="634" 
d="M129.5 1q-61.5 11 -97.5 30l14 166h23q17 -57 35.5 -94t51.5 -61t85 -24q69 0 103 49.5t34 136.5q0 91 -35.5 141.5t-126.5 50.5q-59 0 -117 -16h-28l24 320h433v-146h-412l-11 -146q42 11 76 15t81 4q177 0 250.5 -56.5t73.5 -157.5q0 -118 -83 -170.5t-242 -52.5
q-70 0 -131.5 11z" />
    <glyph glyph-name="six" unicode="6" horiz-adv-x="702" 
d="M365 599q-58 -65 -77 -180q58 24 126 24q79 0 135.5 -27t85.5 -75.5t29 -110.5q0 -75 -36 -129.5t-102 -83.5t-155 -29q-97 0 -168 37.5t-109 104t-38 152.5q0 109 50 200t156.5 152.5t268.5 78.5l8 -23q-116 -26 -174 -91zM283 386q-7 -60 -7 -145q0 -104 19.5 -165.5
t78.5 -61.5q53 0 79 50.5t26 144.5t-25 144.5t-91 50.5q-42 0 -80 -18z" />
    <glyph glyph-name="seven" unicode="7" horiz-adv-x="600" 
d="M413 360.5q-56 -168.5 -85 -360.5h-204q23 132 119 279.5t213 274.5h-370q-11 0 -15 -4.5t-7 -19.5l-8 -37h-20v207h523l11 -15q-101 -156 -157 -324.5z" />
    <glyph glyph-name="eight" unicode="8" horiz-adv-x="682" 
d="M91 257.5q43 45.5 120 64.5q-73 38 -104.5 87t-31.5 108q0 94 70.5 144.5t189.5 50.5q112 0 184.5 -41t72.5 -118q0 -58 -47 -93t-123 -52l41 -19q92 -43 131.5 -90t39.5 -113q0 -99 -87.5 -148.5t-218.5 -49.5q-129 0 -204.5 41t-75.5 123q0 60 43 105.5zM236 525.5
q15 -26.5 40 -43t71 -38.5l51 -25q64 54 64 147q0 60 -33 90t-90 30q-118 0 -118 -93q0 -41 15 -67.5zM200 167q0 -72 36 -112.5t106 -40.5q62 0 96 27.5t34 80.5q0 44 -29.5 72t-100.5 63l-94 46q-48 -42 -48 -136z" />
    <glyph glyph-name="nine" unicode="9" horiz-adv-x="702" 
d="M341 101q58 65 77 180q-58 -24 -126 -24q-79 0 -135.5 27t-85.5 75.5t-29 110.5q0 75 36 129.5t102 83.5t155 29q97 0 168 -37.5t109 -104t38 -152.5q0 -109 -50 -200t-156.5 -152.5t-268.5 -78.5l-8 23q116 26 174 91zM423 314q7 60 7 145q0 104 -19.5 165.5t-78.5 61.5
q-53 0 -79 -50.5t-26 -144.5t25 -144.5t91 -50.5q42 0 80 18z" />
    <glyph glyph-name="colon" unicode=":" horiz-adv-x="292" 
d="M86.5 358q-24.5 24 -24.5 58t24.5 58t59.5 24t59.5 -24t24.5 -58t-24.5 -58t-59.5 -24t-59.5 24zM86.5 16q-24.5 24 -24.5 58t24.5 58t59.5 24t59.5 -24t24.5 -58t-24.5 -58t-59.5 -24t-59.5 24z" />
    <glyph glyph-name="semicolon" unicode=";" horiz-adv-x="292" 
d="M86.5 358q-24.5 24 -24.5 58t24.5 58t59.5 24t59.5 -24t24.5 -58t-24.5 -58t-59.5 -24t-59.5 24zM137 1q-38 0 -57.5 21.5t-19.5 53.5q0 34 22.5 57t61.5 23q40 0 64 -22.5t24 -65.5q0 -58 -35 -117.5t-86 -99.5l-20 21q65 69 65 130q-7 -1 -19 -1z" />
    <glyph glyph-name="less" unicode="&#x3c;" horiz-adv-x="570" 
d="M454 510l16 -27l-347 -205l347 -205l-16 -27l-368 222v20z" />
    <glyph glyph-name="equal" unicode="=" horiz-adv-x="572" 
d="M74 404v28h422v-28h-422zM74 224v28h422v-28h-422z" />
    <glyph glyph-name="greater" unicode="&#x3e;" horiz-adv-x="570" 
d="M116 46l-16 27l347 205l-347 205l16 27l368 -222v-20z" />
    <glyph glyph-name="question" unicode="?" horiz-adv-x="566" 
d="M334 546q0 116 -114 116q-55 0 -93.5 -14t-84.5 -46l-12 19q61 44 124 67.5t158 23.5q103 0 157.5 -39.5t54.5 -117.5q0 -93 -64.5 -139.5t-165.5 -63.5l-13 -131h-28l-11 131q92 73 92 194zM207.5 16q-24.5 24 -24.5 58t24.5 58t59.5 24t59.5 -24t24.5 -58t-24.5 -58
t-59.5 -24t-59.5 24z" />
    <glyph glyph-name="at" unicode="@" horiz-adv-x="1049" 
d="M807.5 85.5q7.5 -10.5 27.5 -10.5q28 0 57 27.5t48 79.5t19 122q0 107 -45 175.5t-119 99.5t-163 31q-125 0 -219.5 -49.5t-146.5 -139t-52 -205.5q0 -173 98.5 -254.5t275.5 -81.5q71 0 141 23.5t123 65.5l16 -25q-61 -49 -142.5 -75.5t-178.5 -26.5q-129 0 -240 40
t-180 126.5t-69 219.5t67.5 233.5t185.5 155.5t266 55q193 0 303.5 -91t110.5 -269q0 -88 -27.5 -154.5t-78.5 -103t-121 -36.5t-101 16t-41 49q-67 -65 -167 -65q-58 0 -90.5 26.5t-32.5 80.5q0 55 32 86.5t94 44.5t164 16v65q0 50 -18.5 70.5t-67.5 20.5q-40 0 -74 -11
t-71 -33l-12 18q42 30 101 48t134 18q100 0 143 -39.5t43 -113.5v-180q0 -39 7.5 -49.5zM588 84q15 9 34 28v136q-50 -4 -74.5 -16.5t-32.5 -34t-8 -60.5q0 -34 10.5 -48t36.5 -14q19 0 34 9z" />
    <glyph glyph-name="A" unicode="A" horiz-adv-x="768" 
d="M420 20l43 4q14 2 14 11q0 5 -3 12l-66 146h-232l-60 -146q-3 -7 -3 -12q0 -9 14 -11l43 -4v-20h-152v20l37 4q12 1 17 6t11 18l277 663h32l293 -663q6 -13 11 -18t17 -6l37 -4v-20h-330v20zM395 223l-108 239l-99 -239h207z" />
    <glyph glyph-name="B" unicode="B" horiz-adv-x="740" 
d="M524.5 684q70.5 -16 102 -51t31.5 -95q0 -80 -48 -118t-153 -49q86 -7 138 -27t76.5 -58.5t24.5 -101.5q0 -70 -38 -110t-117.5 -57t-213.5 -17h-301v20l37 8q15 3 19.5 7t4.5 15v600q0 11 -4.5 15t-19.5 7l-37 8v20h307q121 0 191.5 -16zM340 384q62 0 92 38t30 116
q0 67 -29.5 99.5t-92.5 32.5h-49v-286h49zM291 30h45q154 0 154 154q0 90 -32 130t-114 40h-53v-324z" />
    <glyph glyph-name="C" unicode="C" horiz-adv-x="754" 
d="M605.5 56q44.5 18 84.5 50l20 -22q-44 -41 -114.5 -68.5t-155.5 -27.5q-168 0 -276 88.5t-108 283.5q0 181 107.5 266.5t281.5 85.5q70 0 138 -13t107 -32l-14 -172h-28q-28 85 -75.5 136.5t-126.5 51.5q-91 0 -130.5 -74.5t-39.5 -222.5q0 -175 51 -261.5t179 -86.5
q55 0 99.5 18z" />
    <glyph glyph-name="D" unicode="D" horiz-adv-x="818" 
d="M63 28q15 3 19.5 7t4.5 15v600q0 11 -4.5 15t-19.5 7l-37 8v20h306q210 0 320 -79t110 -271t-110 -271t-320 -79h-306v20zM291 30h41q83 0 128 29.5t63 97.5t18 193t-18 193t-63 97.5t-128 29.5h-41v-640z" />
    <glyph glyph-name="E" unicode="E" horiz-adv-x="720" 
d="M63 28q15 3 19.5 7t4.5 15v600q0 11 -4.5 15t-19.5 7l-37 8v20h616v-195h-25q-21 65 -39.5 98t-51.5 50t-93 17h-142v-297h258v-30h-258v-313h152q59 0 93 18t53.5 52t40.5 99h26v-199h-630v20z" />
    <glyph glyph-name="F" unicode="F" horiz-adv-x="674" 
d="M605 505q-21 65 -39.5 98t-51.5 50t-93 17h-130v-297h250v-30h-250v-292q0 -11 4.5 -15t19.5 -7l43 -9v-20h-332v20l37 8q15 3 19.5 7t4.5 15v600q0 11 -4.5 15t-19.5 7l-37 8v20h604v-195h-25z" />
    <glyph glyph-name="G" unicode="G" horiz-adv-x="790" 
d="M299 180.5q23 -77.5 75.5 -113.5t141.5 -36h32v246h-99v30h273v-263q-22 -4 -52.5 -11.5t-46.5 -11.5q-66 -17 -105.5 -25t-73.5 -8q-107 0 -194 36.5t-140.5 119.5t-53.5 216q0 181 109 266.5t287 85.5q74 0 143.5 -13t108.5 -32l-14 -172h-28q-28 85 -76.5 136.5
t-132.5 51.5q-95 0 -136 -74.5t-41 -222.5q0 -128 23 -205.5z" />
    <glyph glyph-name="H" unicode="H" horiz-adv-x="844" 
d="M291 49q0 -11 4.5 -14.5t18.5 -6.5l36 -8v-20h-324v20l37 8q15 3 19.5 7t4.5 15v600q0 11 -4.5 15t-19.5 7l-37 8v20h324v-20l-36 -8q-14 -2 -18.5 -6t-4.5 -15v-278h262v278q0 11 -4.5 15t-18.5 6l-36 8v20h324v-20l-37 -8q-15 -3 -19.5 -7t-4.5 -15v-600q0 -11 4.5 -15
t19.5 -7l37 -8v-20h-324v20l36 8q14 3 18.5 6.5t4.5 14.5v294h-262v-294z" />
    <glyph glyph-name="I" unicode="I" horiz-adv-x="386" 
d="M86.5 665q-4.5 4 -19.5 7l-37 8v20h326v-20l-37 -8q-15 -3 -19.5 -7t-4.5 -15v-600q0 -11 4.5 -15t19.5 -7l37 -8v-20h-326v20l37 8q15 3 19.5 7t4.5 15v600q0 11 -4.5 15z" />
    <glyph glyph-name="J" unicode="J" horiz-adv-x="622" 
d="M294 31q21 16 31 57.5t10 117.5v443q0 11 -4.5 15t-19.5 7l-43 9v20h332v-20l-37 -8q-15 -3 -19.5 -7t-4.5 -15v-424q0 -126 -80.5 -182t-213.5 -56q-42 0 -96.5 11.5t-96.5 30.5l23 176h26q13 -78 31.5 -119.5t43 -56.5t61.5 -15q36 0 57 16z" />
    <glyph glyph-name="K" unicode="K" horiz-adv-x="788" 
d="M456.5 430q12.5 -12 26.5 -32l219 -349q8 -12 14 -16.5t17 -5.5l43 -7v-20h-211q-27 0 -42 8.5t-26 25.5l-187 314l-19 -17v-282q0 -11 4.5 -14.5t18.5 -6.5l36 -8v-20h-324v20l37 8q15 3 19.5 7t4.5 15v600q0 11 -4.5 15t-19.5 7l-37 8v20h324v-20l-36 -8
q-14 -2 -18.5 -6t-4.5 -15v-284l330 286q8 7 8 15q0 7 -11 9l-43 4v19h179v-20l-42 -3q-17 -1 -26.5 -6.5t-24.5 -18.5l-234 -203q17 -7 29.5 -19z" />
    <glyph glyph-name="L" unicode="L" horiz-adv-x="668" 
d="M82.5 665q-4.5 4 -19.5 7l-37 8v20h332v-20l-43 -9q-15 -3 -19.5 -7t-4.5 -15v-619h126q59 0 92 18t51.5 51t41.5 100h28v-199h-604v20l37 8q15 3 19.5 7t4.5 15v600q0 11 -4.5 15z" />
    <glyph glyph-name="M" unicode="M" horiz-adv-x="962" 
d="M119 49q0 -11 4.5 -14.5t18.5 -6.5l36 -8v-20h-152v20l37 8q15 3 19.5 7t4.5 15v600q0 11 -4.5 15t-19.5 7l-37 8v20h256l206 -445l184 445h264v-20l-37 -8q-15 -3 -19.5 -7t-4.5 -15v-600q0 -11 4.5 -15t19.5 -7l37 -8v-20h-324v20l36 8q14 3 18.5 6.5t4.5 14.5v566
l-254 -615h-30l-268 589v-540z" />
    <glyph glyph-name="N" unicode="N" horiz-adv-x="744" 
d="M82.5 665q-4.5 4 -19.5 7l-37 8v20h277l322 -406v357q0 11 -4.5 14.5t-18.5 6.5l-36 8v20h152v-20l-37 -8q-15 -3 -19.5 -7t-4.5 -15v-650h-36l-502 635v-586q0 -11 4.5 -14.5t18.5 -6.5l36 -8v-20h-152v20l37 8q15 3 19.5 7t4.5 15v600q0 11 -4.5 15z" />
    <glyph glyph-name="O" unicode="O" horiz-adv-x="854" 
d="M697 626.5q101 -85.5 101 -276.5t-101 -276.5t-270 -85.5t-270 85.5t-101 276.5q0 190 101.5 276t269.5 86q169 0 270 -85.5zM520.5 50q32.5 33 44.5 104t12 196t-12 196t-44.5 104t-93.5 33t-93.5 -33t-44.5 -104t-12 -196t12 -196t44.5 -104t93.5 -33t93.5 33z" />
    <glyph glyph-name="P" unicode="P" horiz-adv-x="740" 
d="M653.5 362.5q-38.5 -45.5 -119.5 -65t-217 -19.5h-26v-227q0 -11 4.5 -15t19.5 -7l43 -9v-20h-332v20l37 8q15 3 19.5 7t4.5 15v600q0 11 -4.5 15t-19.5 7l-37 8v20h291q136 0 217 -19.5t119.5 -65t38.5 -126.5t-38.5 -126.5zM291 308h35q59 0 92.5 18t48.5 57t15 106
t-15 106t-48.5 57t-92.5 18h-35v-362z" />
    <glyph glyph-name="Q" unicode="Q" horiz-adv-x="856" 
d="M697 628q101 -84 101 -274t-101 -274t-270 -84t-270 84t-101 274t101 274t270 84t270 -84zM520.5 57.5q32.5 32.5 44.5 102t12 194.5t-12 194.5t-44.5 102t-93.5 32.5t-93.5 -32.5t-44.5 -102t-12 -194.5t12 -194.5t44.5 -102t93.5 -32.5t93.5 32.5zM511.5 -212
q-31.5 13 -79.5 40q-57 33 -103 50.5t-107 19.5v12q37 50 97 50q27 0 57.5 -6.5t83.5 -21.5t91.5 -23.5t74.5 -8.5q17 0 27.5 7.5t22.5 23.5l8 11l22 -5q-21 -82 -49.5 -122t-75.5 -40q-38 0 -69.5 13z" />
    <glyph glyph-name="R" unicode="R" horiz-adv-x="796" 
d="M429.5 299.5q-10.5 19.5 -33.5 26t-76 6.5h-29v-281q0 -11 4.5 -15t19.5 -7l43 -9v-20h-332v20l37 8q15 3 19.5 7t4.5 15v600q0 11 -4.5 15t-19.5 7l-37 8v20h294q134 0 213 -17.5t115 -57.5t36 -109q0 -77 -46 -118.5t-149 -56.5q59 -4 94.5 -19t55.5 -47.5t31 -89.5
l11 -60q8 -43 11.5 -58t10 -23t20.5 -8q25 0 42 37l21 -18q-14 -29 -42.5 -47t-92.5 -18t-101 14t-58 49.5t-32 102.5l-12 75q-8 49 -18.5 68.5zM291 362h38q58 0 89.5 16t43.5 49t12 89t-12 89t-43.5 49t-89.5 16h-38v-308z" />
    <glyph glyph-name="S" unicode="S" horiz-adv-x="678" 
d="M416 40q36 25 36 72q0 38 -16.5 63t-50.5 46t-100 50q-84 37 -130 65.5t-72.5 72t-26.5 110.5q0 96 68 144.5t216 48.5q66 0 127.5 -13t103.5 -33l-24 -153h-27q-19 61 -39.5 97t-55.5 55.5t-93 19.5q-132 0 -132 -86q0 -35 16 -58t48 -41.5t106 -54.5l20 -9
q93 -45 137.5 -73t70.5 -69.5t26 -107.5q0 -98 -73.5 -148t-230.5 -50q-63 0 -139.5 14t-118.5 34l27 176h26q13 -78 39 -121t65 -59.5t96 -16.5q65 0 101 25z" />
    <glyph glyph-name="T" unicode="T" horiz-adv-x="724" 
d="M468.5 35q4.5 -4 19.5 -7l37 -8v-20h-326v20l37 8q15 3 19.5 7t4.5 15v622h-23q-61 0 -94.5 -20t-51 -52t-43.5 -102h-22v202h672v-202h-22q-26 70 -43.5 102t-51 52t-94.5 20h-23v-622q0 -11 4.5 -15z" />
    <glyph glyph-name="U" unicode="U" horiz-adv-x="754" 
d="M607 61q-66 -73 -213 -73q-160 0 -236.5 65t-76.5 211v386q0 11 -4.5 15t-19.5 7l-37 8v20h324v-20l-36 -8q-14 -3 -18.5 -6.5t-4.5 -14.5v-405q0 -85 12 -132t46.5 -69.5t101.5 -22.5q96 0 147 63t51 167v398q0 11 -4.5 15t-19.5 7l-37 8v20h152v-20l-36 -8
q-14 -3 -18.5 -6.5t-4.5 -14.5v-391q-2 -126 -68 -199z" />
    <glyph glyph-name="V" unicode="V" horiz-adv-x="762" 
d="M348 680l-41 -4q-15 -2 -15 -15q0 -6 3 -12l182 -410l169 414q3 8 3 12q0 9 -14 11l-43 4v20h152v-20l-37 -4q-12 -1 -17 -6t-11 -18l-274 -663h-32l-290 663q-6 13 -11 18t-17 6l-37 4v20h330v-20z" />
    <glyph glyph-name="W" unicode="W" horiz-adv-x="1146" 
d="M783 -11l-208 517l-190 -517h-32l-266 663q-5 13 -10.5 17.5t-17.5 6.5l-37 4v20h328v-20l-39 -4q-14 -2 -14 -16q0 -3 2 -11l152 -396l107 296l-41 103q-5 13 -10.5 17.5t-17.5 6.5l-35 4v20h328v-20l-41 -4q-14 -2 -14 -16q0 -3 2 -11l152 -396l145 400q3 8 3 11
q0 11 -15 12l-42 4v20h152v-20l-37 -4q-12 -1 -17 -6t-11 -18l-244 -663h-32z" />
    <glyph glyph-name="X" unicode="X" horiz-adv-x="818" 
d="M620 653q5 7 5 11q0 5 -4 8.5t-11 4.5l-44 4v19h176v-20l-38 -3q-17 -1 -24.5 -6t-19.5 -19l-186 -230l252 -374q9 -13 15 -18t17 -6l40 -4v-20h-347v20l40 4q13 1 13 10q0 8 -6 15l-160 237l-187 -239q-5 -7 -5 -11q0 -5 4 -8.5t11 -4.5l44 -4v-19h-176v20l38 3
q17 1 25.5 7t18.5 18l210 264l-229 340q-9 13 -15 18t-17 6l-40 4v20h347v-20l-40 -4q-13 -1 -13 -10q0 -7 6 -15l136 -203z" />
    <glyph glyph-name="Y" unicode="Y" horiz-adv-x="720" 
d="M619 660q0 7 -6 11.5t-14 5.5l-47 4v19h166v-20l-31 -3q-16 -1 -22 -6.5t-14 -18.5l-191 -328v-274q0 -11 4.5 -15t19.5 -7l37 -8v-20h-326v20l37 8q15 3 19.5 7t4.5 15v268l-184 334q-7 12 -13 17.5t-16 6.5l-39 4v20h325v-20l-40 -4q-14 -1 -14 -12q0 -6 4 -13
l160 -302l178 304q2 6 2 7z" />
    <glyph glyph-name="Z" unicode="Z" horiz-adv-x="762" 
d="M58 0v26l412 644h-155q-60 0 -93 -17t-51.5 -50t-39.5 -98h-25v195h592v-26l-413 -644h201q60 0 93 17.5t51.5 51t39.5 100.5h25v-199h-637z" />
    <glyph glyph-name="bracketleft" unicode="[" horiz-adv-x="376" 
d="M330 782v-30h-91v-824h91v-30h-224v884h224z" />
    <glyph glyph-name="backslash" unicode="\" horiz-adv-x="300" 
d="M270 -12h-30l-210 724h30z" />
    <glyph glyph-name="bracketright" unicode="]" horiz-adv-x="376" 
d="M46 -102v30h91v824h-91v30h224v-884h-224z" />
    <glyph glyph-name="asciicircum" unicode="^" horiz-adv-x="550" 
d="M469 318l-194 357l-194 -357h-31l215 394h20l215 -394h-31z" />
    <glyph glyph-name="underscore" unicode="_" horiz-adv-x="520" 
d="M0 -106v28h520v-28h-520z" />
    <glyph glyph-name="grave" unicode="`" horiz-adv-x="440" 
d="M240 649.5q49 -37.5 58 -44.5l38 -28l-5 -11q-50 8 -116.5 26.5t-109.5 38.5q1 28 17 52t39 35q30 -31 79 -68.5z" />
    <glyph glyph-name="a" unicode="a" horiz-adv-x="644" 
d="M378.5 11.5q-11.5 11.5 -11.5 38.5v5q-67 -65 -191 -65q-65 0 -101.5 29.5t-36.5 91.5t36.5 97t106.5 50t186 18v73q0 56 -22 80.5t-77 24.5q-46 0 -85.5 -12.5t-80.5 -37.5l-13 19q48 34 115.5 54.5t151.5 20.5q113 0 161 -44.5t48 -128.5v-277q0 -11 4.5 -15t19.5 -7
l35 -8v-18h-206q-28 0 -39.5 11.5zM367 87v162q-56 -4 -85 -17.5t-39.5 -38.5t-10.5 -68q0 -38 13.5 -55t42.5 -17q43 0 79 34z" />
    <glyph glyph-name="b" unicode="b" horiz-adv-x="746" 
d="M78.5 667q-4.5 4 -19.5 7l-35 8v18l240 30h19v-282q67 50 172 50q111 0 176 -60.5t65 -189.5q0 -134 -65.5 -197t-175.5 -63q-112 0 -174 68v-56h-257v18l35 8q15 3 19.5 7t4.5 15v604q0 11 -4.5 15zM283 418v-331q23 -25 52 -40.5t61 -15.5q36 0 56.5 22.5t29 69
t8.5 125.5q0 111 -22 159.5t-77 48.5q-62 0 -108 -38z" />
    <glyph glyph-name="c" unicode="c" horiz-adv-x="636" 
d="M579 458l-12 -131h-19q-21 74 -55.5 109.5t-100.5 35.5q-73 0 -103.5 -51t-30.5 -151q0 -83 13 -134t47 -77.5t96 -26.5q47 0 86 13.5t77 39.5l13 -19q-47 -36 -105.5 -57t-136.5 -21q-141 0 -219.5 65t-78.5 196q0 124 82 186.5t242 62.5q125 0 205 -40z" />
    <glyph glyph-name="d" unicode="d" horiz-adv-x="746" 
d="M477 14q-12 14 -12 42q-64 -68 -174 -68t-175.5 63t-65.5 197q0 129 65 189.5t176 60.5q60 0 100.5 -14t71.5 -36v204q0 11 -4.5 15t-19.5 7l-35 8v18l240 30h19v-682q0 -11 4.5 -15t19.5 -7l35 -8v-18h-206q-27 0 -39 14zM463 87v331q-48 38 -108 38q-55 0 -77 -48.5
t-22 -159.5q0 -79 8.5 -125.5t29 -69t56.5 -22.5q59 0 113 56z" />
    <glyph glyph-name="e" unicode="e" horiz-adv-x="658" 
d="M291.5 87q34.5 -58 129.5 -58q47 0 83.5 14t75.5 40l13 -19q-93 -76 -246 -76q-138 0 -217.5 66.5t-79.5 194.5q0 121 81 185t227 64q83 0 140 -26t84.5 -69.5t27.5 -96.5q0 -27 -5 -50h-349q1 -111 35.5 -169zM277 428q-20 -46 -21 -146h168v75q0 61 -14.5 89t-57.5 28
q-55 0 -75 -46z" />
    <glyph glyph-name="f" unicode="f" horiz-adv-x="450" 
d="M85 486v80q0 83 51 123.5t169 40.5q97 0 159 -30l-12 -131h-21q-20 57 -32 82.5t-31.5 40t-53.5 14.5q-30 0 -44 -12t-14 -37q0 -22 4 -39.5t11 -40.5q5 -15 8.5 -30.5t3.5 -31.5v-29h121v-26h-121v-411q0 -11 4.5 -15t19.5 -7l37 -9v-18h-318v18l35 8q15 3 19.5 7
t4.5 15v412h-65v26h65z" />
    <glyph glyph-name="g" unicode="g" horiz-adv-x="692" 
d="M522 490q-28 0 -45 -11q127 -36 127 -144q0 -87 -69 -125.5t-195 -38.5q-71 0 -123 13q-31 -2 -54.5 -10.5t-23.5 -22.5q0 -15 13 -22.5t41 -12t93 -10.5l170 -16q72 -7 114.5 -22.5t62 -45t19.5 -77.5q0 -64 -46.5 -105.5t-119.5 -60.5t-156 -19q-119 0 -195.5 32.5
t-76.5 98.5q0 42 33 65t87 30q-114 27 -114 107q0 87 106 106q-94 41 -94 136q0 87 68.5 124t195.5 37q61 -2 106 -10q29 44 81 72.5t125 28.5l-24 -115h-11l-25 7q-40 11 -70 11zM403.5 229.5q16.5 33.5 16.5 105.5q0 69 -16.5 102.5t-63.5 33.5t-63.5 -33.5t-16.5 -102.5
q0 -72 16.5 -105.5t63.5 -33.5t63.5 33.5zM208 -20q-13 -28 -13 -71q0 -62 30 -92t112 -30q96 0 149 23.5t53 69.5q0 26 -10.5 39.5t-34.5 21t-71 12.5l-141 16q-53 7 -74 11z" />
    <glyph glyph-name="h" unicode="h" horiz-adv-x="750" 
d="M673.5 33q4.5 -4 19.5 -7l35 -8v-18h-208q-27 0 -39 14t-12 42v304q0 45 -14.5 64t-48.5 19q-60 0 -123 -50v-345q0 -11 4.5 -15.5t18.5 -7.5l34 -7v-18h-316v18l35 8q15 3 19.5 7t4.5 15v604q0 11 -4.5 15t-19.5 7l-35 8v18l240 30h19v-306q38 31 92 52.5t121 21.5
q93 0 133 -39t40 -117v-294q0 -11 4.5 -15z" />
    <glyph glyph-name="i" unicode="i" horiz-adv-x="370" 
d="M110 583.5q-28 21.5 -28 62.5t28 62.5t75 21.5t75 -21.5t28 -62.5t-28 -62.5t-75 -21.5t-75 21.5zM26 18l35 8q15 3 19.5 7t4.5 15v378q0 11 -4.5 15t-19.5 7l-35 8v18l240 30h19v-456q0 -11 4.5 -15t19.5 -7l35 -8v-18h-318v18z" />
    <glyph glyph-name="j" unicode="j" horiz-adv-x="388" 
d="M130 583.5q-28 21.5 -28 62.5t28 62.5t75 21.5t75 -21.5t28 -62.5t-28 -62.5t-75 -21.5t-75 21.5zM100.5 441q-4.5 4 -19.5 7l-35 8v18l240 30h19v-535q0 -107 -44 -158t-151 -51q-106 0 -163 52l13 19q18 -16 41 -25.5t47 -9.5q31 0 44 20.5t13 81.5v528q0 11 -4.5 15z
" />
    <glyph glyph-name="k" unicode="k" horiz-adv-x="748" 
d="M450 461l-11 1v18q60 18 117 18q59 0 82 -21t23 -61q0 -55 -42 -100t-147 -60q27 -7 45 -21t41 -43l111 -146q9 -11 15 -15.5t17 -6.5l31 -6v-18h-192q-27 0 -42 8.5t-26 25.5l-155 216h-34v-202q0 -11 4.5 -15.5t18.5 -7.5l34 -7v-18h-316v18l35 8q15 3 19.5 7t4.5 15
v604q0 11 -4.5 15t-19.5 7l-35 8v18l240 30h19v-454h58q79 0 110 34.5t31 97.5q0 49 -32 53z" />
    <glyph glyph-name="l" unicode="l" horiz-adv-x="366" 
d="M24 18l35 8q15 3 19.5 7t4.5 15v604q0 11 -4.5 15t-19.5 7l-35 8v18l240 30h19v-682q0 -11 4.5 -15t19.5 -7l35 -8v-18h-318v18z" />
    <glyph glyph-name="m" unicode="m" horiz-adv-x="1108" 
d="M370 479.5q51 18.5 112 18.5q124 0 158 -74q38 31 92.5 52.5t121.5 21.5q93 0 133 -39t40 -117v-294q0 -11 4.5 -15t19.5 -7l35 -8v-18h-208q-27 0 -39 14t-12 42v304q0 45 -14.5 64t-48.5 19q-54 0 -115 -44q6 -25 6 -57v-294q0 -11 4.5 -15t19.5 -7l35 -8v-18h-208
q-27 0 -39 14t-12 42v304q0 45 -14.5 64t-48.5 19q-53 0 -109 -40v-355q0 -11 4.5 -15.5t18.5 -7.5l34 -7v-18h-316v18l35 8q15 3 19.5 7t4.5 15v378q0 11 -4.5 15t-19.5 7l-35 8v18l240 30h17v-70q38 27 89 45.5z" />
    <glyph glyph-name="n" unicode="n" horiz-adv-x="750" 
d="M673.5 33q4.5 -4 19.5 -7l35 -8v-18h-208q-27 0 -39 14t-12 42v304q0 45 -14.5 64t-48.5 19q-60 0 -123 -50v-345q0 -11 4.5 -15.5t18.5 -7.5l34 -7v-18h-316v18l35 8q15 3 19.5 7t4.5 15v378q0 11 -4.5 15t-19.5 7l-35 8v18l240 30h17v-81q38 31 93 53t122 22
q93 0 133 -39t40 -117v-294q0 -11 4.5 -15z" />
    <glyph glyph-name="o" unicode="o" horiz-adv-x="724" 
d="M593.5 51q-80.5 -63 -231.5 -63t-231.5 63t-80.5 192t80.5 192t231.5 63t231.5 -63t80.5 -192t-80.5 -192zM266.5 106q8.5 -48 30.5 -70t65 -22t65 22t30.5 70t8.5 137t-8.5 137t-30.5 70t-65 22t-65 -22t-30.5 -70t-8.5 -137t8.5 -137z" />
    <glyph glyph-name="p" unicode="p" horiz-adv-x="746" 
d="M24 -208l35 8q15 3 19.5 7t4.5 15v604q0 11 -4.5 15t-19.5 7l-35 8v18l240 30h17v-58q67 52 174 52q111 0 176 -60t65 -189q0 -133 -65 -196t-176 -63t-172 65v-233q0 -11 4.5 -15t19.5 -7l35 -8v-18h-318v18zM283 418v-329q23 -25 52 -40.5t61 -15.5q36 0 56.5 22
t29 68.5t8.5 125.5q0 111 -22 159t-77 48q-62 0 -108 -38z" />
    <glyph glyph-name="q" unicode="q" horiz-adv-x="746" 
d="M665 504v-682q0 -11 4.5 -15t19.5 -7l35 -8v-18h-318v18l35 8q15 3 19.5 7t4.5 15v233q-63 -65 -172 -65q-111 0 -176 63t-65 196q0 129 65 189t176 60q62 0 102.5 -14.5t71.5 -37.5v37l181 21h17zM465 89v329q-48 38 -108 38q-55 0 -77 -48t-22 -159q0 -79 8.5 -125.5
t29 -68.5t56.5 -22q59 0 113 56z" />
    <glyph glyph-name="r" unicode="r" horiz-adv-x="540" 
d="M458 495q33 0 52 -8l-15 -156h-7l-205 45v-328q0 -11 4.5 -15.5t18.5 -7.5l34 -7v-18h-316v18l35 8q15 3 19.5 7t4.5 15v378q0 11 -4.5 15t-19.5 7l-35 8v18l240 30h17v-98q87 89 177 89z" />
    <glyph glyph-name="s" unicode="s" horiz-adv-x="556" 
d="M337.5 26q22.5 14 22.5 49q0 24 -12 39t-38 27t-83 33q-97 35 -138 72.5t-41 103.5q0 75 56 111.5t170 36.5q58 0 114 -11.5t87 -26.5l-12 -120h-17q-27 67 -65 101.5t-110 34.5q-46 0 -71 -12.5t-25 -45.5q0 -23 11.5 -37t36 -26t81.5 -35q82 -33 124 -57t62 -55t20 -78
q0 -75 -57.5 -108.5t-172.5 -33.5q-61 0 -127.5 11.5t-99.5 26.5l14 136h17q18 -79 64 -114.5t120 -35.5q47 0 69.5 14z" />
    <glyph glyph-name="t" unicode="t" horiz-adv-x="446" 
d="M22 460v26q31 0 46 5t30 18l178 160h9v-183h129v-26h-129v-336q0 -48 11.5 -67.5t39.5 -19.5q22 0 39 9t37 31l16 -19q-63 -70 -186 -70q-83 0 -119 35t-36 109v328h-65z" />
    <glyph glyph-name="u" unicode="u" horiz-adv-x="746" 
d="M458.5 441q-4.5 4 -19.5 7l-35 8v18l242 30h17v-456q0 -11 4.5 -15t19.5 -7l35 -8v-18h-203q-29 0 -41.5 12.5t-12.5 39.5v11q-36 -31 -91 -53t-122 -22q-93 0 -133 39t-40 117v282q0 11 -4.5 15t-19.5 7l-35 8v18l242 30h17v-378q0 -45 14.5 -64t48.5 -19q60 0 121 50
v333q0 11 -4.5 15z" />
    <glyph glyph-name="v" unicode="v" horiz-adv-x="582" 
d="M292 465q-23 -5 -23 -19q0 -6 5 -16l116 -233l109 254q3 6 3 10q0 6 -13 7l-26 3v15h115v-15l-26 -4q-12 -2 -17 -5t-10 -14l-203 -466h-18l-242 462q-5 9 -11.5 13t-16.5 6l-30 8v15h314v-15z" />
    <glyph glyph-name="w" unicode="w" horiz-adv-x="924" 
d="M634 465q-23 -5 -23 -19q0 -6 5 -16l116 -233l118 254q1 2 1 6q0 5 -5 7t-15 4l-26 3v15h115v-15l-26 -4q-12 -2 -17 -5t-10 -14l-203 -466h-18l-177 337l-147 -337h-18l-242 462q-5 9 -11.5 13t-16.5 6l-30 8v15h306v-15l-18 -4q-23 -5 -23 -21q0 -6 5 -16l116 -233
l64 150l-50 97q-5 10 -10.5 14.5t-13.5 6.5l-24 6v15h304v-15z" />
    <glyph glyph-name="x" unicode="x" horiz-adv-x="646" 
d="M486 451q5 5 5 10q0 6 -11 8l-27 2v15h120v-15l-24 -4q-14 -2 -20 -5t-17 -14l-129 -143l190 -263q7 -9 13.5 -12.5t16.5 -5.5l33 -9v-15h-325v15l32 6q18 3 18 14q0 8 -9 21l-94 130l-138 -151q-5 -5 -5 -10q0 -6 11 -8l27 -2v-15h-120v15l24 4q14 2 20 5t17 14l151 166
l-172 240q-7 9 -13.5 12.5t-16.5 5.5l-33 9v15h325v-15l-32 -6q-18 -3 -18 -14q0 -7 9 -21l77 -107z" />
    <glyph glyph-name="y" unicode="y" horiz-adv-x="582" 
d="M292 465q-23 -5 -23 -19q0 -6 5 -16l116 -233l109 254q3 6 3 10q0 6 -13 7l-26 3v15h115v-15l-26 -4q-12 -2 -17 -5t-10 -14l-195 -448q-40 -93 -65.5 -136.5t-57 -67t-84.5 -36.5l-54 152q68 3 129 22.5t105 49.5l-241 460q-5 9 -11.5 13t-16.5 6l-30 8v15h314v-15z" />
    <glyph glyph-name="z" unicode="z" horiz-adv-x="564" 
d="M371 25q46 0 70.5 10t38.5 32.5t28 67.5h20v-135h-496v20l291 441h-110q-46 0 -70.5 -9.5t-38.5 -31t-28 -65.5h-20v131h470v-20l-291 -441h136z" />
    <glyph glyph-name="braceleft" unicode="{" horiz-adv-x="380" 
d="M107 360q16 2 22 11t6 24q0 14 -3 30q-2 13 -5 28t-6 32q-10 55 -14.5 86t-4.5 59q0 66 37 105.5t125 43.5l66 3v-28l-63 -4q-25 -1 -34.5 -11t-9.5 -28q0 -16 15 -87q13 -61 21 -108t8 -88q0 -39 -19 -60.5t-75 -27.5q56 -6 75 -27.5t19 -60.5q0 -41 -8 -88t-21 -108
q-15 -71 -15 -87q0 -18 9.5 -28t34.5 -11l63 -4v-28l-66 3q-88 4 -125 43.5t-37 105.5q0 28 4.5 59t14.5 86q3 17 6 32t5 28q3 17 3 30q0 15 -6 24t-22 11l-45 7v26z" />
    <glyph glyph-name="bar" unicode="|" horiz-adv-x="250" 
d="M140 782v-884h-30v884h30z" />
    <glyph glyph-name="braceright" unicode="}" horiz-adv-x="380" 
d="M273 320q-16 -2 -22 -11t-6 -24q0 -13 3 -30q2 -13 5 -28t6 -32q10 -55 14.5 -86t4.5 -59q0 -66 -37 -105.5t-125 -43.5l-66 -3v28l63 4q25 1 34.5 11t9.5 28q0 16 -15 87q-13 61 -21 108t-8 88q0 39 19 60.5t75 27.5q-56 6 -75 27.5t-19 60.5q0 41 8 88t21 108
q15 71 15 87q0 18 -9.5 28t-34.5 11l-63 4v28l66 -3q88 -4 125 -43.5t37 -105.5q0 -28 -4.5 -59t-14.5 -86q-3 -17 -6 -32t-5 -28q-3 -16 -3 -30q0 -15 6 -24t22 -11l45 -7v-26z" />
    <glyph glyph-name="asciitilde" unicode="~" horiz-adv-x="570" 
d="M445.5 348.5q15.5 18.5 31.5 53.5l17 -9q-11 -51 -44.5 -91t-81.5 -40q-18 0 -41 9.5t-57 27.5q-40 20 -63.5 29.5t-43.5 9.5q-23 0 -38.5 -18.5t-31.5 -53.5l-17 9q11 51 44.5 91t81.5 40q18 0 41 -9.5t57 -27.5q40 -20 63.5 -29.5t43.5 -9.5q23 0 38.5 18.5z" />
    <glyph glyph-name="uni00A0" unicode="&#xa0;" horiz-adv-x="290" 
 />
    <glyph glyph-name="Agrave" unicode="&#xc0;" horiz-adv-x="768" 
d="M305 843.5q49 -37.5 58 -44.5l38 -28l-5 -11q-50 8 -116.5 26.5t-109.5 38.5q1 28 17 52t39 35q30 -31 79 -68.5zM420 20l43 4q14 2 14 11q0 5 -3 12l-66 146h-232l-60 -146q-3 -7 -3 -12q0 -9 14 -11l43 -4v-20h-152v20l37 4q12 1 17 6t11 18l277 663h32l293 -663
q6 -13 11 -18t17 -6l37 -4v-20h-330v20zM395 223l-108 239l-99 -239h207z" />
    <glyph glyph-name="Aacute" unicode="&#xc1;" horiz-adv-x="768" 
d="M571 877q16 -24 17 -52q-43 -20 -109.5 -38.5t-116.5 -26.5l-5 11l38 28q9 7 58 44.5t79 68.5q23 -11 39 -35zM420 20l43 4q14 2 14 11q0 5 -3 12l-66 146h-232l-60 -146q-3 -7 -3 -12q0 -9 14 -11l43 -4v-20h-152v20l37 4q12 1 17 6t11 18l277 663h32l293 -663
q6 -13 11 -18t17 -6l37 -4v-20h-330v20zM395 223l-108 239l-99 -239h207z" />
    <glyph glyph-name="Acircumflex" unicode="&#xc2;" horiz-adv-x="768" 
d="M534 775l-11 -15q-73 25 -149 69q-76 -44 -149 -69l-11 15q72 59 134 137h52q59 -74 134 -137zM420 20l43 4q14 2 14 11q0 5 -3 12l-66 146h-232l-60 -146q-3 -7 -3 -12q0 -9 14 -11l43 -4v-20h-152v20l37 4q12 1 17 6t11 18l277 663h32l293 -663q6 -13 11 -18t17 -6
l37 -4v-20h-330v20zM395 223l-108 239l-99 -239h207z" />
    <glyph glyph-name="Atilde" unicode="&#xc3;" horiz-adv-x="768" 
d="M414.5 767q-26.5 9 -93.5 36l-36 14q-9 4 -23 4q-12 0 -23 -5t-18 -14l-24 -30l-12 5q15 39 26.5 63t31 43t46.5 19q18 0 44.5 -9t93.5 -36l36 -14q9 -4 23 -4q12 0 23 5t18 14l24 30l12 -5q-15 -39 -26.5 -63t-31 -43t-46.5 -19q-18 0 -44.5 9zM420 20l43 4q14 2 14 11
q0 5 -3 12l-66 146h-232l-60 -146q-3 -7 -3 -12q0 -9 14 -11l43 -4v-20h-152v20l37 4q12 1 17 6t11 18l277 663h32l293 -663q6 -13 11 -18t17 -6l37 -4v-20h-330v20zM395 223l-108 239l-99 -239h207z" />
    <glyph glyph-name="Adieresis" unicode="&#xc4;" horiz-adv-x="760" 
d="M204.5 788q-21.5 21 -21.5 52t21.5 52t55.5 21t55.5 -21t21.5 -52t-21.5 -52t-55.5 -21t-55.5 21zM442.5 788q-21.5 21 -21.5 52t21.5 52t55.5 21t55.5 -21t21.5 -52t-21.5 -52t-55.5 -21t-55.5 21zM420 20l43 4q14 2 14 11q0 5 -3 12l-66 146h-232l-60 -146
q-3 -7 -3 -12q0 -9 14 -11l43 -4v-20h-152v20l37 4q12 1 17 6t11 18l277 663h32l293 -663q6 -13 11 -18t17 -6l37 -4v-20h-330v20zM395 223l-108 239l-99 -239h207z" />
    <glyph glyph-name="Amacron" unicode="&#x100;" horiz-adv-x="768" 
d="M564 802v-24h-380v24h380zM420 20l43 4q14 2 14 11q0 5 -3 12l-66 146h-232l-60 -146q-3 -7 -3 -12q0 -9 14 -11l43 -4v-20h-152v20l37 4q12 1 17 6t11 18l277 663h32l293 -663q6 -13 11 -18t17 -6l37 -4v-20h-330v20zM395 223l-108 239l-99 -239h207z" />
    <glyph glyph-name="Abreve" unicode="&#x102;" horiz-adv-x="768" 
d="M272 800.5q-34 40.5 -36 112.5h20q10 -40 35.5 -58t82.5 -18t82.5 18t35.5 58h20q-2 -72 -36 -112.5t-102 -40.5t-102 40.5zM420 20l43 4q14 2 14 11q0 5 -3 12l-66 146h-232l-60 -146q-3 -7 -3 -12q0 -9 14 -11l43 -4v-20h-152v20l37 4q12 1 17 6t11 18l277 663h32
l293 -663q6 -13 11 -18t17 -6l37 -4v-20h-330v20zM395 223l-108 239l-99 -239h207z" />
    <glyph glyph-name="Aring" unicode="&#xc5;" horiz-adv-x="760" 
d="M452.5 851q32.5 -24 32.5 -71q0 -41 -24 -64t-63 -29l279 -639q6 -13 11 -18t17 -6l37 -4v-20h-330v20l43 4q14 2 14 12q0 4 -3 11l-69 156h-219l-64 -156q-3 -7 -3 -11q0 -10 14 -12l43 -4v-20h-150v20l37 4q12 1 17 6t11 18l263 639q-40 6 -64.5 29t-24.5 64
q0 47 32.5 71t81.5 24t81.5 -24zM404 721.5q10 19.5 10 58.5t-10 58.5t-33 19.5t-33 -19.5t-10 -58.5t10 -58.5t33 -19.5t33 19.5zM384 233l-100 228l-94 -228h194z" />
    <glyph glyph-name="Aringacute" unicode="&#x1fa;" horiz-adv-x="760" 
d="M565 1027q16 -24 17 -52q-43 -20 -109.5 -38.5t-116.5 -26.5l-5 11l38 28q9 7 58 44.5t79 68.5q23 -11 39 -35zM452.5 851q32.5 -24 32.5 -71q0 -41 -24 -64t-63 -29l279 -639q6 -13 11 -18t17 -6l37 -4v-20h-330v20l43 4q14 2 14 12q0 4 -3 11l-69 156h-219l-64 -156
q-3 -7 -3 -11q0 -10 14 -12l43 -4v-20h-150v20l37 4q12 1 17 6t11 18l263 639q-40 6 -64.5 29t-24.5 64q0 47 32.5 71t81.5 24t81.5 -24zM404 721.5q10 19.5 10 58.5t-10 58.5t-33 19.5t-33 -19.5t-10 -58.5t10 -58.5t33 -19.5t33 19.5zM384 233l-100 228l-94 -228h194z" />
    <glyph glyph-name="Aogonek" unicode="&#x104;" horiz-adv-x="768" 
d="M580 -205q-52 0 -79 19t-27 55q0 48 36.5 81t95.5 50h-186v20l43 4q14 2 14 11q0 5 -3 12l-66 146h-232l-60 -146q-3 -7 -3 -12q0 -9 14 -11l43 -4v-20h-152v20l37 4q12 1 17 6t11 18l277 663h32l293 -663q6 -13 11 -18t17 -6l37 -4v-20h-117q-33 -16 -47 -41.5
t-14 -64.5q0 -31 13.5 -45t44.5 -14q24 0 53 23l7 -11q-46 -52 -110 -52zM395 223l-108 239l-99 -239h207z" />
    <glyph glyph-name="AE" unicode="&#xc6;" horiz-adv-x="1044" 
d="M447 672l-37 8v20h576v-195h-27q-23 67 -40.5 99t-50 49t-91.5 17h-102v-297h218v-30h-218v-313h112q59 0 92 18t51.5 51t41.5 100h28v-199h-590v20l37 8q15 3 19.5 7t4.5 15v171h-244l-104 -174q-5 -8 -5 -14q0 -7 12 -9l42 -4v-20h-156v20l39 4q12 1 17.5 6t13.5 18
l376 620zM471 625l-226 -374h226v374z" />
    <glyph glyph-name="AEacute" unicode="&#x1fc;" horiz-adv-x="1044" 
d="M790 877q16 -24 17 -52q-43 -20 -109.5 -38.5t-116.5 -26.5l-5 11l38 28q9 7 58 44.5t79 68.5q23 -11 39 -35zM447 672l-37 8v20h576v-195h-27q-23 67 -40.5 99t-50 49t-91.5 17h-102v-297h218v-30h-218v-313h112q59 0 92 18t51.5 51t41.5 100h28v-199h-590v20l37 8
q15 3 19.5 7t4.5 15v171h-244l-104 -174q-5 -8 -5 -14q0 -7 12 -9l42 -4v-20h-156v20l39 4q12 1 17.5 6t13.5 18l376 620zM471 625l-226 -374h226v374z" />
    <glyph glyph-name="Cacute" unicode="&#x106;" horiz-adv-x="754" 
d="M575 877q16 -24 17 -52q-43 -20 -109.5 -38.5t-116.5 -26.5l-5 11l38 28q9 7 58 44.5t79 68.5q23 -11 39 -35zM605.5 56q44.5 18 84.5 50l20 -22q-44 -41 -114.5 -68.5t-155.5 -27.5q-168 0 -276 88.5t-108 283.5q0 181 107.5 266.5t281.5 85.5q70 0 138 -13t107 -32
l-14 -172h-28q-28 85 -75.5 136.5t-126.5 51.5q-91 0 -130.5 -74.5t-39.5 -222.5q0 -175 51 -261.5t179 -86.5q55 0 99.5 18z" />
    <glyph glyph-name="Ccircumflex" unicode="&#x108;" horiz-adv-x="754" 
d="M597 775l-11 -15q-73 25 -149 69q-76 -44 -149 -69l-11 15q72 59 134 137h52q59 -74 134 -137zM605.5 56q44.5 18 84.5 50l20 -22q-44 -41 -114.5 -68.5t-155.5 -27.5q-168 0 -276 88.5t-108 283.5q0 181 107.5 266.5t281.5 85.5q70 0 138 -13t107 -32l-14 -172h-28
q-28 85 -75.5 136.5t-126.5 51.5q-91 0 -130.5 -74.5t-39.5 -222.5q0 -175 51 -261.5t179 -86.5q55 0 99.5 18z" />
    <glyph glyph-name="Ccaron" unicode="&#x10c;" horiz-adv-x="754" 
d="M277 897l11 15q73 -25 149 -69q76 44 149 69l11 -15q-75 -63 -134 -137h-52q-62 78 -134 137zM605.5 56q44.5 18 84.5 50l20 -22q-44 -41 -114.5 -68.5t-155.5 -27.5q-168 0 -276 88.5t-108 283.5q0 181 107.5 266.5t281.5 85.5q70 0 138 -13t107 -32l-14 -172h-28
q-28 85 -75.5 136.5t-126.5 51.5q-91 0 -130.5 -74.5t-39.5 -222.5q0 -175 51 -261.5t179 -86.5q55 0 99.5 18z" />
    <glyph glyph-name="Cdotaccent" unicode="&#x10a;" horiz-adv-x="754" 
d="M374 782q-24 19 -24 56t24 56t63 19t63 -19t24 -56t-24 -56t-63 -19t-63 19zM605.5 56q44.5 18 84.5 50l20 -22q-44 -41 -114.5 -68.5t-155.5 -27.5q-168 0 -276 88.5t-108 283.5q0 181 107.5 266.5t281.5 85.5q70 0 138 -13t107 -32l-14 -172h-28q-28 85 -75.5 136.5
t-126.5 51.5q-91 0 -130.5 -74.5t-39.5 -222.5q0 -175 51 -261.5t179 -86.5q55 0 99.5 18z" />
    <glyph glyph-name="Ccedilla" unicode="&#xc7;" horiz-adv-x="754" 
d="M147.5 91.5q-91.5 88.5 -91.5 268.5q0 181 107.5 266.5t281.5 85.5q70 0 138 -13t107 -32l-14 -172h-28q-28 85 -75.5 136.5t-126.5 51.5q-91 0 -130.5 -74.5t-39.5 -222.5q0 -175 51 -261.5t179 -86.5q55 0 99.5 18t84.5 50l20 -22q-44 -41 -114.5 -68.5t-155.5 -27.5
q-21 0 -31 1l-2 -25q65 -3 101.5 -24.5t36.5 -62.5q0 -42 -34.5 -63.5t-86.5 -21.5q-25 0 -52 6t-43 14l7 18q28 -13 69 -13q29 0 42.5 9.5t13.5 32.5q0 29 -21.5 43.5t-61.5 21.5l9 67q-148 12 -239.5 100.5z" />
    <glyph glyph-name="Dcaron" unicode="&#x10e;" horiz-adv-x="818" 
d="M249 897l11 15q73 -25 149 -69q76 44 149 69l11 -15q-75 -63 -134 -137h-52q-62 78 -134 137zM63 28q15 3 19.5 7t4.5 15v600q0 11 -4.5 15t-19.5 7l-37 8v20h306q210 0 320 -79t110 -271t-110 -271t-320 -79h-306v20zM291 30h41q83 0 128 29.5t63 97.5t18 193t-18 193
t-63 97.5t-128 29.5h-41v-640z" />
    <glyph glyph-name="Dcroat" unicode="&#x110;" horiz-adv-x="818" 
d="M652 79q-110 -79 -320 -79h-306v20l37 8q15 3 19.5 7t4.5 15v274h-61v28h61v298q0 11 -4.5 15t-19.5 7l-37 8v20h306q210 0 320 -79t110 -271t-110 -271zM291 324v-294h41q83 0 128 29.5t63 97.5t18 193t-18 193t-63 97.5t-128 29.5h-41v-318h137v-28h-137z" />
    <glyph glyph-name="Eth" unicode="&#xd0;" horiz-adv-x="818" 
d="M652 79q-110 -79 -320 -79h-306v20l37 8q15 3 19.5 7t4.5 15v274h-61v28h61v298q0 11 -4.5 15t-19.5 7l-37 8v20h306q210 0 320 -79t110 -271t-110 -271zM291 324v-294h41q83 0 128 29.5t63 97.5t18 193t-18 193t-63 97.5t-128 29.5h-41v-318h137v-28h-137z" />
    <glyph glyph-name="Egrave" unicode="&#xc8;" horiz-adv-x="720" 
d="M391 843.5q49 -37.5 58 -44.5l38 -28l-5 -11q-50 8 -116.5 26.5t-109.5 38.5q1 28 17 52t39 35q30 -31 79 -68.5zM63 28q15 3 19.5 7t4.5 15v600q0 11 -4.5 15t-19.5 7l-37 8v20h616v-195h-25q-21 65 -39.5 98t-51.5 50t-93 17h-142v-297h258v-30h-258v-313h152
q59 0 93 18t53.5 52t40.5 99h26v-199h-630v20z" />
    <glyph glyph-name="Eacute" unicode="&#xc9;" horiz-adv-x="720" 
d="M477 877q16 -24 17 -52q-43 -20 -109.5 -38.5t-116.5 -26.5l-5 11l38 28q9 7 58 44.5t79 68.5q23 -11 39 -35zM63 28q15 3 19.5 7t4.5 15v600q0 11 -4.5 15t-19.5 7l-37 8v20h616v-195h-25q-21 65 -39.5 98t-51.5 50t-93 17h-142v-297h258v-30h-258v-313h152q59 0 93 18
t53.5 52t40.5 99h26v-199h-630v20z" />
    <glyph glyph-name="Ecircumflex" unicode="&#xca;" horiz-adv-x="720" 
d="M540 775l-11 -15q-73 25 -149 69q-76 -44 -149 -69l-11 15q72 59 134 137h52q59 -74 134 -137zM63 28q15 3 19.5 7t4.5 15v600q0 11 -4.5 15t-19.5 7l-37 8v20h616v-195h-25q-21 65 -39.5 98t-51.5 50t-93 17h-142v-297h258v-30h-258v-313h152q59 0 93 18t53.5 52
t40.5 99h26v-199h-630v20z" />
    <glyph glyph-name="Ecaron" unicode="&#x11a;" horiz-adv-x="720" 
d="M240 897l11 15q73 -25 149 -69q76 44 149 69l11 -15q-75 -63 -134 -137h-52q-62 78 -134 137zM63 28q15 3 19.5 7t4.5 15v600q0 11 -4.5 15t-19.5 7l-37 8v20h616v-195h-25q-21 65 -39.5 98t-51.5 50t-93 17h-142v-297h258v-30h-258v-313h152q59 0 93 18t53.5 52t40.5 99
h26v-199h-630v20z" />
    <glyph glyph-name="Edieresis" unicode="&#xcb;" horiz-adv-x="720" 
d="M195.5 788q-21.5 21 -21.5 52t21.5 52t55.5 21t55.5 -21t21.5 -52t-21.5 -52t-55.5 -21t-55.5 21zM433.5 788q-21.5 21 -21.5 52t21.5 52t55.5 21t55.5 -21t21.5 -52t-21.5 -52t-55.5 -21t-55.5 21zM63 28q15 3 19.5 7t4.5 15v600q0 11 -4.5 15t-19.5 7l-37 8v20h616
v-195h-25q-21 65 -39.5 98t-51.5 50t-93 17h-142v-297h258v-30h-258v-313h152q59 0 93 18t53.5 52t40.5 99h26v-199h-630v20z" />
    <glyph glyph-name="Emacron" unicode="&#x112;" horiz-adv-x="720" 
d="M570 802v-24h-380v24h380zM63 28q15 3 19.5 7t4.5 15v600q0 11 -4.5 15t-19.5 7l-37 8v20h616v-195h-25q-21 65 -39.5 98t-51.5 50t-93 17h-142v-297h258v-30h-258v-313h152q59 0 93 18t53.5 52t40.5 99h26v-199h-630v20z" />
    <glyph glyph-name="Ebreve" unicode="&#x114;" horiz-adv-x="720" 
d="M278 800.5q-34 40.5 -36 112.5h20q10 -40 35.5 -58t82.5 -18t82.5 18t35.5 58h20q-2 -72 -36 -112.5t-102 -40.5t-102 40.5zM63 28q15 3 19.5 7t4.5 15v600q0 11 -4.5 15t-19.5 7l-37 8v20h616v-195h-25q-21 65 -39.5 98t-51.5 50t-93 17h-142v-297h258v-30h-258v-313
h152q59 0 93 18t53.5 52t40.5 99h26v-199h-630v20z" />
    <glyph glyph-name="Edotaccent" unicode="&#x116;" horiz-adv-x="720" 
d="M317 782q-24 19 -24 56t24 56t63 19t63 -19t24 -56t-24 -56t-63 -19t-63 19zM63 28q15 3 19.5 7t4.5 15v600q0 11 -4.5 15t-19.5 7l-37 8v20h616v-195h-25q-21 65 -39.5 98t-51.5 50t-93 17h-142v-297h258v-30h-258v-313h152q59 0 93 18t53.5 52t40.5 99h26v-199h-630v20
z" />
    <glyph glyph-name="Eogonek" unicode="&#x118;" horiz-adv-x="720" 
d="M63 28q15 3 19.5 7t4.5 15v600q0 11 -4.5 15t-19.5 7l-37 8v20h616v-195h-25q-21 65 -39.5 98t-51.5 50t-93 17h-142v-297h258v-30h-258v-313h152q59 0 93 18t53.5 52t40.5 99h26v-199h-77q-33 -16 -47 -41.5t-14 -64.5q0 -31 13.5 -45t44.5 -14q24 0 53 23l7 -11
q-46 -52 -110 -52q-52 0 -79 19t-27 55q0 48 36.5 81t95.5 50h-526v20z" />
    <glyph glyph-name="Gcircumflex" unicode="&#x11c;" horiz-adv-x="790" 
d="M605 775l-11 -15q-73 25 -149 69q-76 -44 -149 -69l-11 15q72 59 134 137h52q59 -74 134 -137zM299 180.5q23 -77.5 75.5 -113.5t141.5 -36h32v246h-99v30h273v-263q-22 -4 -52.5 -11.5t-46.5 -11.5q-66 -17 -105.5 -25t-73.5 -8q-107 0 -194 36.5t-140.5 119.5
t-53.5 216q0 181 109 266.5t287 85.5q74 0 143.5 -13t108.5 -32l-14 -172h-28q-28 85 -76.5 136.5t-132.5 51.5q-95 0 -136 -74.5t-41 -222.5q0 -128 23 -205.5z" />
    <glyph glyph-name="Gbreve" unicode="&#x11e;" horiz-adv-x="790" 
d="M353 800.5q-34 40.5 -36 112.5h20q10 -40 35.5 -58t82.5 -18t82.5 18t35.5 58h20q-2 -72 -36 -112.5t-102 -40.5t-102 40.5zM299 180.5q23 -77.5 75.5 -113.5t141.5 -36h32v246h-99v30h273v-263q-22 -4 -52.5 -11.5t-46.5 -11.5q-66 -17 -105.5 -25t-73.5 -8
q-107 0 -194 36.5t-140.5 119.5t-53.5 216q0 181 109 266.5t287 85.5q74 0 143.5 -13t108.5 -32l-14 -172h-28q-28 85 -76.5 136.5t-132.5 51.5q-95 0 -136 -74.5t-41 -222.5q0 -128 23 -205.5z" />
    <glyph glyph-name="Gdotaccent" unicode="&#x120;" horiz-adv-x="790" 
d="M382 782q-24 19 -24 56t24 56t63 19t63 -19t24 -56t-24 -56t-63 -19t-63 19zM299 180.5q23 -77.5 75.5 -113.5t141.5 -36h32v246h-99v30h273v-263q-22 -4 -52.5 -11.5t-46.5 -11.5q-66 -17 -105.5 -25t-73.5 -8q-107 0 -194 36.5t-140.5 119.5t-53.5 216q0 181 109 266.5
t287 85.5q74 0 143.5 -13t108.5 -32l-14 -172h-28q-28 85 -76.5 136.5t-132.5 51.5q-95 0 -136 -74.5t-41 -222.5q0 -128 23 -205.5z" />
    <glyph glyph-name="Gcommaaccent" unicode="&#x122;" horiz-adv-x="790" 
d="M299 180.5q23 -77.5 75.5 -113.5t141.5 -36h32v246h-99v30h273v-263q-22 -4 -52.5 -11.5t-46.5 -11.5q-66 -17 -105.5 -25t-73.5 -8q-107 0 -194 36.5t-140.5 119.5t-53.5 216q0 181 109 266.5t287 85.5q74 0 143.5 -13t108.5 -32l-14 -172h-28q-28 85 -76.5 136.5
t-132.5 51.5q-95 0 -136 -74.5t-41 -222.5q0 -128 23 -205.5zM449 -207q-38 0 -57 20.5t-19 52.5t21.5 54t58.5 22q39 0 61.5 -21.5t22.5 -62.5q0 -56 -32 -109.5t-82 -91.5l-18 17q33 34 45.5 60t13.5 60q-5 -1 -15 -1z" />
    <glyph glyph-name="Hcircumflex" unicode="&#x124;" horiz-adv-x="844" 
d="M582 795l-11 -15q-73 25 -149 69q-76 -44 -149 -69l-11 15q72 59 134 137h52q59 -74 134 -137zM291 49q0 -11 4.5 -14.5t18.5 -6.5l36 -8v-20h-324v20l37 8q15 3 19.5 7t4.5 15v600q0 11 -4.5 15t-19.5 7l-37 8v20h324v-20l-36 -8q-14 -2 -18.5 -6t-4.5 -15v-278h262v278
q0 11 -4.5 15t-18.5 6l-36 8v20h324v-20l-37 -8q-15 -3 -19.5 -7t-4.5 -15v-600q0 -11 4.5 -15t19.5 -7l37 -8v-20h-324v20l36 8q14 3 18.5 6.5t4.5 14.5v294h-262v-294z" />
    <glyph glyph-name="Hbar" unicode="&#x126;" horiz-adv-x="844" 
d="M87 552v98q0 11 -4.5 15t-19.5 7l-37 8v20h324v-20l-36 -8q-14 -2 -18.5 -6t-4.5 -15v-99h262v99q0 11 -4.5 15t-18.5 6l-36 8v20h324v-20l-37 -8q-15 -3 -19.5 -7t-4.5 -15v-98h61v-24h-61v-478q0 -11 4.5 -15t19.5 -7l37 -8v-20h-324v20l36 8q14 3 18.5 6.5t4.5 14.5
v294h-262v-294q0 -11 4.5 -14.5t18.5 -6.5l36 -8v-20h-324v20l37 8q15 3 19.5 7t4.5 15v478h-61v24h61zM553 528h-262v-155h262v155z" />
    <glyph glyph-name="Igrave" unicode="&#xcc;" horiz-adv-x="386" 
d="M184 843.5q49 -37.5 58 -44.5l38 -28l-5 -11q-50 8 -116.5 26.5t-109.5 38.5q1 28 17 52t39 35q30 -31 79 -68.5zM86.5 665q-4.5 4 -19.5 7l-37 8v20h326v-20l-37 -8q-15 -3 -19.5 -7t-4.5 -15v-600q0 -11 4.5 -15t19.5 -7l37 -8v-20h-326v20l37 8q15 3 19.5 7t4.5 15
v600q0 11 -4.5 15z" />
    <glyph glyph-name="Iacute" unicode="&#xcd;" horiz-adv-x="386" 
d="M330 877q16 -24 17 -52q-43 -20 -109.5 -38.5t-116.5 -26.5l-5 11l38 28q9 7 58 44.5t79 68.5q23 -11 39 -35zM86.5 665q-4.5 4 -19.5 7l-37 8v20h326v-20l-37 -8q-15 -3 -19.5 -7t-4.5 -15v-600q0 -11 4.5 -15t19.5 -7l37 -8v-20h-326v20l37 8q15 3 19.5 7t4.5 15v600
q0 11 -4.5 15z" />
    <glyph glyph-name="Ibreve" unicode="&#x12c;" horiz-adv-x="386" 
d="M91 800.5q-34 40.5 -36 112.5h20q10 -40 35.5 -58t82.5 -18t82.5 18t35.5 58h20q-2 -72 -36 -112.5t-102 -40.5t-102 40.5zM86.5 665q-4.5 4 -19.5 7l-37 8v20h326v-20l-37 -8q-15 -3 -19.5 -7t-4.5 -15v-600q0 -11 4.5 -15t19.5 -7l37 -8v-20h-326v20l37 8q15 3 19.5 7
t4.5 15v600q0 11 -4.5 15z" />
    <glyph glyph-name="Icircumflex" unicode="&#xce;" horiz-adv-x="386" 
d="M353 775l-11 -15q-73 25 -149 69q-76 -44 -149 -69l-11 15q72 59 134 137h52q59 -74 134 -137zM86.5 665q-4.5 4 -19.5 7l-37 8v20h326v-20l-37 -8q-15 -3 -19.5 -7t-4.5 -15v-600q0 -11 4.5 -15t19.5 -7l37 -8v-20h-326v20l37 8q15 3 19.5 7t4.5 15v600q0 11 -4.5 15z
" />
    <glyph glyph-name="Itilde" unicode="&#x128;" horiz-adv-x="386" 
d="M233.5 767q-26.5 9 -93.5 36l-36 14q-9 4 -23 4q-12 0 -23 -5t-18 -14l-24 -30l-12 5q15 39 26.5 63t31 43t46.5 19q18 0 44.5 -9t93.5 -36l36 -14q9 -4 23 -4q12 0 23 5t18 14l24 30l12 -5q-15 -39 -26.5 -63t-31 -43t-46.5 -19q-18 0 -44.5 9zM86.5 665q-4.5 4 -19.5 7
l-37 8v20h326v-20l-37 -8q-15 -3 -19.5 -7t-4.5 -15v-600q0 -11 4.5 -15t19.5 -7l37 -8v-20h-326v20l37 8q15 3 19.5 7t4.5 15v600q0 11 -4.5 15z" />
    <glyph glyph-name="Idieresis" unicode="&#xcf;" horiz-adv-x="386" 
d="M18.5 788q-21.5 21 -21.5 52t21.5 52t55.5 21t55.5 -21t21.5 -52t-21.5 -52t-55.5 -21t-55.5 21zM256.5 788q-21.5 21 -21.5 52t21.5 52t55.5 21t55.5 -21t21.5 -52t-21.5 -52t-55.5 -21t-55.5 21zM86.5 665q-4.5 4 -19.5 7l-37 8v20h326v-20l-37 -8q-15 -3 -19.5 -7
t-4.5 -15v-600q0 -11 4.5 -15t19.5 -7l37 -8v-20h-326v20l37 8q15 3 19.5 7t4.5 15v600q0 11 -4.5 15z" />
    <glyph glyph-name="Imacron" unicode="&#x12a;" horiz-adv-x="386" 
d="M383 802v-24h-380v24h380zM86.5 665q-4.5 4 -19.5 7l-37 8v20h326v-20l-37 -8q-15 -3 -19.5 -7t-4.5 -15v-600q0 -11 4.5 -15t19.5 -7l37 -8v-20h-326v20l37 8q15 3 19.5 7t4.5 15v600q0 11 -4.5 15z" />
    <glyph glyph-name="Idotaccent" unicode="&#x130;" horiz-adv-x="386" 
d="M130 782q-24 19 -24 56t24 56t63 19t63 -19t24 -56t-24 -56t-63 -19t-63 19zM86.5 665q-4.5 4 -19.5 7l-37 8v20h326v-20l-37 -8q-15 -3 -19.5 -7t-4.5 -15v-600q0 -11 4.5 -15t19.5 -7l37 -8v-20h-326v20l37 8q15 3 19.5 7t4.5 15v600q0 11 -4.5 15z" />
    <glyph glyph-name="Iogonek" unicode="&#x12e;" horiz-adv-x="386" 
d="M186 -205q-52 0 -79 19t-27 55q0 48 36.5 81t95.5 50h-182v20l37 8q15 3 19.5 7t4.5 15v600q0 11 -4.5 15t-19.5 7l-37 8v20h326v-20l-37 -8q-15 -3 -19.5 -7t-4.5 -15v-600q0 -11 4.5 -15t19.5 -7l37 -8v-20h-117q-33 -16 -47 -41.5t-14 -64.5q0 -31 13.5 -45t44.5 -14
q24 0 53 23l7 -11q-46 -52 -110 -52z" />
    <glyph glyph-name="Jcircumflex" unicode="&#x134;" horiz-adv-x="622" 
d="M597 775l-11 -15q-73 25 -149 69q-76 -44 -149 -69l-11 15q72 59 134 137h52q59 -74 134 -137zM294 31q21 16 31 57.5t10 117.5v443q0 11 -4.5 15t-19.5 7l-43 9v20h332v-20l-37 -8q-15 -3 -19.5 -7t-4.5 -15v-424q0 -126 -80.5 -182t-213.5 -56q-42 0 -96.5 11.5
t-96.5 30.5l23 176h26q13 -78 31.5 -119.5t43 -56.5t61.5 -15q36 0 57 16z" />
    <glyph glyph-name="Kcommaaccent" unicode="&#x136;" horiz-adv-x="788" 
d="M456.5 430q12.5 -12 26.5 -32l219 -349q8 -12 14 -16.5t17 -5.5l43 -7v-20h-211q-27 0 -42 8.5t-26 25.5l-187 314l-19 -17v-282q0 -11 4.5 -14.5t18.5 -6.5l36 -8v-20h-324v20l37 8q15 3 19.5 7t4.5 15v600q0 11 -4.5 15t-19.5 7l-37 8v20h324v-20l-36 -8
q-14 -2 -18.5 -6t-4.5 -15v-284l330 286q8 7 8 15q0 7 -11 9l-43 4v19h179v-20l-42 -3q-17 -1 -26.5 -6.5t-24.5 -18.5l-234 -203q17 -7 29.5 -19zM408 -207q-38 0 -57 20.5t-19 52.5t21.5 54t58.5 22q39 0 61.5 -21.5t22.5 -62.5q0 -56 -32 -109.5t-82 -91.5l-18 17
q33 34 45.5 60t13.5 60q-5 -1 -15 -1z" />
    <glyph glyph-name="Lacute" unicode="&#x139;" horiz-adv-x="668" 
d="M432 877q16 -24 17 -52q-43 -20 -109.5 -38.5t-116.5 -26.5l-5 11l38 28q9 7 58 44.5t79 68.5q23 -11 39 -35zM82.5 665q-4.5 4 -19.5 7l-37 8v20h332v-20l-43 -9q-15 -3 -19.5 -7t-4.5 -15v-619h126q59 0 92 18t51.5 51t41.5 100h28v-199h-604v20l37 8q15 3 19.5 7
t4.5 15v600q0 11 -4.5 15z" />
    <glyph glyph-name="Lcaron" unicode="&#x13d;" horiz-adv-x="668" 
d="M532 559q-38 0 -57 20.5t-19 52.5t21.5 54t58.5 22q39 0 61.5 -21.5t22.5 -62.5q0 -56 -32 -109.5t-82 -91.5l-18 17q33 34 45.5 60t13.5 60q-5 -1 -15 -1zM82.5 665q-4.5 4 -19.5 7l-37 8v20h332v-20l-43 -9q-15 -3 -19.5 -7t-4.5 -15v-619h126q59 0 92 18t51.5 51
t41.5 100h28v-199h-604v20l37 8q15 3 19.5 7t4.5 15v600q0 11 -4.5 15z" />
    <glyph glyph-name="Lcommaaccent" unicode="&#x13b;" horiz-adv-x="668" 
d="M82.5 665q-4.5 4 -19.5 7l-37 8v20h332v-20l-43 -9q-15 -3 -19.5 -7t-4.5 -15v-619h126q59 0 92 18t51.5 51t41.5 100h28v-199h-604v20l37 8q15 3 19.5 7t4.5 15v600q0 11 -4.5 15zM348 -207q-38 0 -57 20.5t-19 52.5t21.5 54t58.5 22q39 0 61.5 -21.5t22.5 -62.5
q0 -56 -32 -109.5t-82 -91.5l-18 17q33 34 45.5 60t13.5 60q-5 -1 -15 -1z" />
    <glyph glyph-name="Lslash" unicode="&#x141;" horiz-adv-x="668" 
d="M26 274v28l61 21v327q0 11 -4.5 15t-19.5 7l-37 8v20h332v-20l-43 -9q-15 -3 -19.5 -7t-4.5 -15v-255l107 38v-28l-107 -38v-336h126q59 0 92 18t51.5 51t41.5 100h28v-199h-604v20l37 8q15 3 19.5 7t4.5 15v245z" />
    <glyph glyph-name="Ldot" unicode="&#x13f;" horiz-adv-x="668" 
d="M82.5 665q-4.5 4 -19.5 7l-37 8v20h332v-20l-43 -9q-15 -3 -19.5 -7t-4.5 -15v-619h126q59 0 92 18t51.5 51t41.5 100h28v-199h-604v20l37 8q15 3 19.5 7t4.5 15v600q0 11 -4.5 15zM390.5 220q-24.5 24 -24.5 58t24.5 58t59.5 24t59.5 -24t24.5 -58t-24.5 -58t-59.5 -24
t-59.5 24z" />
    <glyph glyph-name="Nacute" unicode="&#x143;" horiz-adv-x="744" 
d="M530 897q16 -24 17 -52q-43 -20 -109.5 -38.5t-116.5 -26.5l-5 11l38 28q9 7 58 44.5t79 68.5q23 -11 39 -35zM82.5 665q-4.5 4 -19.5 7l-37 8v20h277l322 -406v357q0 11 -4.5 14.5t-18.5 6.5l-36 8v20h152v-20l-37 -8q-15 -3 -19.5 -7t-4.5 -15v-650h-36l-502 635v-586
q0 -11 4.5 -14.5t18.5 -6.5l36 -8v-20h-152v20l37 8q15 3 19.5 7t4.5 15v600q0 11 -4.5 15z" />
    <glyph glyph-name="Ncaron" unicode="&#x147;" horiz-adv-x="744" 
d="M222 897l11 15q73 -25 149 -69q76 44 149 69l11 -15q-75 -63 -134 -137h-52q-62 78 -134 137zM82.5 665q-4.5 4 -19.5 7l-37 8v20h277l322 -406v357q0 11 -4.5 14.5t-18.5 6.5l-36 8v20h152v-20l-37 -8q-15 -3 -19.5 -7t-4.5 -15v-650h-36l-502 635v-586q0 -11 4.5 -14.5
t18.5 -6.5l36 -8v-20h-152v20l37 8q15 3 19.5 7t4.5 15v600q0 11 -4.5 15z" />
    <glyph glyph-name="Ntilde" unicode="&#xd1;" horiz-adv-x="744" 
d="M412.5 767q-26.5 9 -93.5 36l-36 14q-9 4 -23 4q-12 0 -23 -5t-18 -14l-24 -30l-12 5q15 39 26.5 63t31 43t46.5 19q18 0 44.5 -9t93.5 -36l36 -14q9 -4 23 -4q12 0 23 5t18 14l24 30l12 -5q-15 -39 -26.5 -63t-31 -43t-46.5 -19q-18 0 -44.5 9zM82.5 665q-4.5 4 -19.5 7
l-37 8v20h277l322 -406v357q0 11 -4.5 14.5t-18.5 6.5l-36 8v20h152v-20l-37 -8q-15 -3 -19.5 -7t-4.5 -15v-650h-36l-502 635v-586q0 -11 4.5 -14.5t18.5 -6.5l36 -8v-20h-152v20l37 8q15 3 19.5 7t4.5 15v600q0 11 -4.5 15z" />
    <glyph glyph-name="Ncommaaccent" unicode="&#x145;" horiz-adv-x="744" 
d="M82.5 665q-4.5 4 -19.5 7l-37 8v20h277l322 -406v357q0 11 -4.5 14.5t-18.5 6.5l-36 8v20h152v-20l-37 -8q-15 -3 -19.5 -7t-4.5 -15v-650h-36l-502 635v-586q0 -11 4.5 -14.5t18.5 -6.5l36 -8v-20h-152v20l37 8q15 3 19.5 7t4.5 15v600q0 11 -4.5 15zM374 -207
q-38 0 -57 20.5t-19 52.5t21.5 54t58.5 22q39 0 61.5 -21.5t22.5 -62.5q0 -56 -32 -109.5t-82 -91.5l-18 17q33 34 45.5 60t13.5 60q-5 -1 -15 -1z" />
    <glyph glyph-name="Ograve" unicode="&#xd2;" horiz-adv-x="854" 
d="M388 843.5q49 -37.5 58 -44.5l38 -28l-5 -11q-50 8 -116.5 26.5t-109.5 38.5q1 28 17 52t39 35q30 -31 79 -68.5zM697 626.5q101 -85.5 101 -276.5t-101 -276.5t-270 -85.5t-270 85.5t-101 276.5q0 190 101.5 276t269.5 86q169 0 270 -85.5zM520.5 50q32.5 33 44.5 104
t12 196t-12 196t-44.5 104t-93.5 33t-93.5 -33t-44.5 -104t-12 -196t12 -196t44.5 -104t93.5 -33t93.5 33z" />
    <glyph glyph-name="Oacute" unicode="&#xd3;" horiz-adv-x="854" 
d="M584 877q16 -24 17 -52q-43 -20 -109.5 -38.5t-116.5 -26.5l-5 11l38 28q9 7 58 44.5t79 68.5q23 -11 39 -35zM697 626.5q101 -85.5 101 -276.5t-101 -276.5t-270 -85.5t-270 85.5t-101 276.5q0 190 101.5 276t269.5 86q169 0 270 -85.5zM520.5 50q32.5 33 44.5 104
t12 196t-12 196t-44.5 104t-93.5 33t-93.5 -33t-44.5 -104t-12 -196t12 -196t44.5 -104t93.5 -33t93.5 33z" />
    <glyph glyph-name="Ocircumflex" unicode="&#xd4;" horiz-adv-x="854" 
d="M587 775l-11 -15q-73 25 -149 69q-76 -44 -149 -69l-11 15q72 59 134 137h52q59 -74 134 -137zM697 626.5q101 -85.5 101 -276.5t-101 -276.5t-270 -85.5t-270 85.5t-101 276.5q0 190 101.5 276t269.5 86q169 0 270 -85.5zM520.5 50q32.5 33 44.5 104t12 196t-12 196
t-44.5 104t-93.5 33t-93.5 -33t-44.5 -104t-12 -196t12 -196t44.5 -104t93.5 -33t93.5 33z" />
    <glyph glyph-name="Otilde" unicode="&#xd5;" horiz-adv-x="854" 
d="M467.5 767q-26.5 9 -93.5 36l-36 14q-9 4 -23 4q-12 0 -23 -5t-18 -14l-24 -30l-12 5q15 39 26.5 63t31 43t46.5 19q18 0 44.5 -9t93.5 -36l36 -14q9 -4 23 -4q12 0 23 5t18 14l24 30l12 -5q-15 -39 -26.5 -63t-31 -43t-46.5 -19q-18 0 -44.5 9zM697 626.5
q101 -85.5 101 -276.5t-101 -276.5t-270 -85.5t-270 85.5t-101 276.5q0 190 101.5 276t269.5 86q169 0 270 -85.5zM520.5 50q32.5 33 44.5 104t12 196t-12 196t-44.5 104t-93.5 33t-93.5 -33t-44.5 -104t-12 -196t12 -196t44.5 -104t93.5 -33t93.5 33z" />
    <glyph glyph-name="Odieresis" unicode="&#xd6;" horiz-adv-x="854" 
d="M252.5 788q-21.5 21 -21.5 52t21.5 52t55.5 21t55.5 -21t21.5 -52t-21.5 -52t-55.5 -21t-55.5 21zM490.5 788q-21.5 21 -21.5 52t21.5 52t55.5 21t55.5 -21t21.5 -52t-21.5 -52t-55.5 -21t-55.5 21zM697 626.5q101 -85.5 101 -276.5t-101 -276.5t-270 -85.5t-270 85.5
t-101 276.5q0 190 101.5 276t269.5 86q169 0 270 -85.5zM520.5 50q32.5 33 44.5 104t12 196t-12 196t-44.5 104t-93.5 33t-93.5 -33t-44.5 -104t-12 -196t12 -196t44.5 -104t93.5 -33t93.5 33z" />
    <glyph glyph-name="Omacron" unicode="&#x14c;" horiz-adv-x="854" 
d="M617 802v-24h-380v24h380zM697 626.5q101 -85.5 101 -276.5t-101 -276.5t-270 -85.5t-270 85.5t-101 276.5q0 190 101.5 276t269.5 86q169 0 270 -85.5zM520.5 50q32.5 33 44.5 104t12 196t-12 196t-44.5 104t-93.5 33t-93.5 -33t-44.5 -104t-12 -196t12 -196t44.5 -104
t93.5 -33t93.5 33z" />
    <glyph glyph-name="Obreve" unicode="&#x14e;" horiz-adv-x="854" 
d="M325 800.5q-34 40.5 -36 112.5h20q10 -40 35.5 -58t82.5 -18t82.5 18t35.5 58h20q-2 -72 -36 -112.5t-102 -40.5t-102 40.5zM697 626.5q101 -85.5 101 -276.5t-101 -276.5t-270 -85.5t-270 85.5t-101 276.5q0 190 101.5 276t269.5 86q169 0 270 -85.5zM520.5 50
q32.5 33 44.5 104t12 196t-12 196t-44.5 104t-93.5 33t-93.5 -33t-44.5 -104t-12 -196t12 -196t44.5 -104t93.5 -33t93.5 33z" />
    <glyph glyph-name="Ohungarumlaut" unicode="&#x150;" horiz-adv-x="854" 
d="M477 937q22 -19 30 -45q-39 -30 -94.5 -61.5t-102.5 -52.5l-8 9l24 31q75 97 104 143q25 -5 47 -24zM682 937q22 -19 30 -45q-39 -30 -94.5 -61.5t-102.5 -52.5l-8 9l24 31q75 97 104 143q25 -5 47 -24zM697 626.5q101 -85.5 101 -276.5t-101 -276.5t-270 -85.5
t-270 85.5t-101 276.5q0 190 101.5 276t269.5 86q169 0 270 -85.5zM520.5 50q32.5 33 44.5 104t12 196t-12 196t-44.5 104t-93.5 33t-93.5 -33t-44.5 -104t-12 -196t12 -196t44.5 -104t93.5 -33t93.5 33z" />
    <glyph glyph-name="Oslash" unicode="&#xd8;" horiz-adv-x="854" 
d="M609 680l44 73l25 -15l-42 -70q162 -84 162 -318q0 -191 -101 -276.5t-270 -85.5q-103 0 -183 31l-43 -72l-25 15l42 70q-162 84 -162 318q0 190 101.5 276t269.5 86q103 0 182 -32zM290 151l264 438q-16 49 -46.5 71.5t-80.5 22.5q-61 0 -93.5 -33t-44.5 -104t-12 -196
q0 -134 13 -199zM520.5 50q32.5 33 44.5 104t12 196t-13 199l-265 -438q16 -49 46.5 -71.5t81.5 -22.5q61 0 93.5 33z" />
    <glyph glyph-name="Oslashacute" unicode="&#x1fe;" horiz-adv-x="854" 
d="M584 877q16 -24 17 -52q-43 -20 -109.5 -38.5t-116.5 -26.5l-5 11l38 28q9 7 58 44.5t79 68.5q23 -11 39 -35zM609 680l44 73l25 -15l-42 -70q162 -84 162 -318q0 -191 -101 -276.5t-270 -85.5q-103 0 -183 31l-43 -72l-25 15l42 70q-162 84 -162 318q0 190 101.5 276
t269.5 86q103 0 182 -32zM290 151l264 438q-16 49 -46.5 71.5t-80.5 22.5q-61 0 -93.5 -33t-44.5 -104t-12 -196q0 -134 13 -199zM520.5 50q32.5 33 44.5 104t12 196t-13 199l-265 -438q16 -49 46.5 -71.5t81.5 -22.5q61 0 93.5 33z" />
    <glyph glyph-name="OE" unicode="&#x152;" horiz-adv-x="1166" 
d="M166 79q-110 79 -110 271t110 271t320 79h602v-195h-27q-23 67 -40.5 99t-50 49t-91.5 17h-110v-297h226v-30h-226v-313h120q59 0 92 18t51.5 51t41.5 100h28v-199h-616q-210 0 -320 79zM295 157q18 -68 63 -97.5t128 -29.5h60q19 0 19 20v600q0 20 -19 20h-60
q-83 0 -128 -29.5t-63 -97.5t-18 -193t18 -193z" />
    <glyph glyph-name="Racute" unicode="&#x154;" horiz-adv-x="796" 
d="M536 877q16 -24 17 -52q-43 -20 -109.5 -38.5t-116.5 -26.5l-5 11l38 28q9 7 58 44.5t79 68.5q23 -11 39 -35zM429.5 299.5q-10.5 19.5 -33.5 26t-76 6.5h-29v-281q0 -11 4.5 -15t19.5 -7l43 -9v-20h-332v20l37 8q15 3 19.5 7t4.5 15v600q0 11 -4.5 15t-19.5 7l-37 8v20
h294q134 0 213 -17.5t115 -57.5t36 -109q0 -77 -46 -118.5t-149 -56.5q59 -4 94.5 -19t55.5 -47.5t31 -89.5l11 -60q8 -43 11.5 -58t10 -23t20.5 -8q25 0 42 37l21 -18q-14 -29 -42.5 -47t-92.5 -18t-101 14t-58 49.5t-32 102.5l-12 75q-8 49 -18.5 68.5zM291 362h38
q58 0 89.5 16t43.5 49t12 89t-12 89t-43.5 49t-89.5 16h-38v-308z" />
    <glyph glyph-name="Rcaron" unicode="&#x158;" horiz-adv-x="796" 
d="M238 897l11 15q73 -25 149 -69q76 44 149 69l11 -15q-75 -63 -134 -137h-52q-62 78 -134 137zM429.5 299.5q-10.5 19.5 -33.5 26t-76 6.5h-29v-281q0 -11 4.5 -15t19.5 -7l43 -9v-20h-332v20l37 8q15 3 19.5 7t4.5 15v600q0 11 -4.5 15t-19.5 7l-37 8v20h294
q134 0 213 -17.5t115 -57.5t36 -109q0 -77 -46 -118.5t-149 -56.5q59 -4 94.5 -19t55.5 -47.5t31 -89.5l11 -60q8 -43 11.5 -58t10 -23t20.5 -8q25 0 42 37l21 -18q-14 -29 -42.5 -47t-92.5 -18t-101 14t-58 49.5t-32 102.5l-12 75q-8 49 -18.5 68.5zM291 362h38
q58 0 89.5 16t43.5 49t12 89t-12 89t-43.5 49t-89.5 16h-38v-308z" />
    <glyph glyph-name="Rcommaaccent" unicode="&#x156;" horiz-adv-x="796" 
d="M429.5 299.5q-10.5 19.5 -33.5 26t-76 6.5h-29v-281q0 -11 4.5 -15t19.5 -7l43 -9v-20h-332v20l37 8q15 3 19.5 7t4.5 15v600q0 11 -4.5 15t-19.5 7l-37 8v20h294q134 0 213 -17.5t115 -57.5t36 -109q0 -77 -46 -118.5t-149 -56.5q59 -4 94.5 -19t55.5 -47.5t31 -89.5
l11 -60q8 -43 11.5 -58t10 -23t20.5 -8q25 0 42 37l21 -18q-14 -29 -42.5 -47t-92.5 -18t-101 14t-58 49.5t-32 102.5l-12 75q-8 49 -18.5 68.5zM291 362h38q58 0 89.5 16t43.5 49t12 89t-12 89t-43.5 49t-89.5 16h-38v-308zM410 -207q-38 0 -57 20.5t-19 52.5t21.5 54
t58.5 22q39 0 61.5 -21.5t22.5 -62.5q0 -56 -32 -109.5t-82 -91.5l-18 17q33 34 45.5 60t13.5 60q-5 -1 -15 -1z" />
    <glyph glyph-name="Sacute" unicode="&#x15a;" horiz-adv-x="678" 
d="M497 877q16 -24 17 -52q-43 -20 -109.5 -38.5t-116.5 -26.5l-5 11l38 28q9 7 58 44.5t79 68.5q23 -11 39 -35zM416 40q36 25 36 72q0 38 -16.5 63t-50.5 46t-100 50q-84 37 -130 65.5t-72.5 72t-26.5 110.5q0 96 68 144.5t216 48.5q66 0 127.5 -13t103.5 -33l-24 -153
h-27q-19 61 -39.5 97t-55.5 55.5t-93 19.5q-132 0 -132 -86q0 -35 16 -58t48 -41.5t106 -54.5l20 -9q93 -45 137.5 -73t70.5 -69.5t26 -107.5q0 -98 -73.5 -148t-230.5 -50q-63 0 -139.5 14t-118.5 34l27 176h26q13 -78 39 -121t65 -59.5t96 -16.5q65 0 101 25z" />
    <glyph glyph-name="Scircumflex" unicode="&#x15c;" horiz-adv-x="678" 
d="M489 775l-11 -15q-73 25 -149 69q-76 -44 -149 -69l-11 15q72 59 134 137h52q59 -74 134 -137zM416 40q36 25 36 72q0 38 -16.5 63t-50.5 46t-100 50q-84 37 -130 65.5t-72.5 72t-26.5 110.5q0 96 68 144.5t216 48.5q66 0 127.5 -13t103.5 -33l-24 -153h-27
q-19 61 -39.5 97t-55.5 55.5t-93 19.5q-132 0 -132 -86q0 -35 16 -58t48 -41.5t106 -54.5l20 -9q93 -45 137.5 -73t70.5 -69.5t26 -107.5q0 -98 -73.5 -148t-230.5 -50q-63 0 -139.5 14t-118.5 34l27 176h26q13 -78 39 -121t65 -59.5t96 -16.5q65 0 101 25z" />
    <glyph glyph-name="Scaron" unicode="&#x160;" horiz-adv-x="678" 
d="M169 897l11 15q73 -25 149 -69q76 44 149 69l11 -15q-75 -63 -134 -137h-52q-62 78 -134 137zM416 40q36 25 36 72q0 38 -16.5 63t-50.5 46t-100 50q-84 37 -130 65.5t-72.5 72t-26.5 110.5q0 96 68 144.5t216 48.5q66 0 127.5 -13t103.5 -33l-24 -153h-27
q-19 61 -39.5 97t-55.5 55.5t-93 19.5q-132 0 -132 -86q0 -35 16 -58t48 -41.5t106 -54.5l20 -9q93 -45 137.5 -73t70.5 -69.5t26 -107.5q0 -98 -73.5 -148t-230.5 -50q-63 0 -139.5 14t-118.5 34l27 176h26q13 -78 39 -121t65 -59.5t96 -16.5q65 0 101 25z" />
    <glyph glyph-name="Scedilla" unicode="&#x15e;" horiz-adv-x="678" 
d="M163.5 5q-64.5 13 -101.5 31l27 176h26q13 -78 39 -121t65 -59.5t96 -16.5q65 0 101 25t36 72q0 38 -16.5 63t-50.5 46t-100 50q-84 37 -130 65.5t-72.5 72t-26.5 110.5q0 96 68 144.5t216 48.5q66 0 127.5 -13t103.5 -33l-24 -153h-27q-19 61 -39.5 97t-55.5 55.5
t-93 19.5q-132 0 -132 -86q0 -35 16 -58t48 -41.5t106 -54.5l20 -9q93 -45 137.5 -73t70.5 -69.5t26 -107.5q0 -98 -73.5 -148t-230.5 -50h-9l-2 -24q65 -3 101.5 -24.5t36.5 -62.5q0 -42 -34.5 -63.5t-86.5 -21.5q-25 0 -52 6t-43 14l7 18q28 -13 69 -13q29 0 42.5 9.5
t13.5 32.5q0 29 -21.5 43.5t-61.5 21.5l9 65q-61 3 -125.5 16z" />
    <glyph glyph-name="Scommaaccent" unicode="&#x218;" horiz-adv-x="678" 
d="M416 40q36 25 36 72q0 38 -16.5 63t-50.5 46t-100 50q-84 37 -130 65.5t-72.5 72t-26.5 110.5q0 96 68 144.5t216 48.5q66 0 127.5 -13t103.5 -33l-24 -153h-27q-19 61 -39.5 97t-55.5 55.5t-93 19.5q-132 0 -132 -86q0 -35 16 -58t48 -41.5t106 -54.5l20 -9
q93 -45 137.5 -73t70.5 -69.5t26 -107.5q0 -98 -73.5 -148t-230.5 -50q-63 0 -139.5 14t-118.5 34l27 176h26q13 -78 39 -121t65 -59.5t96 -16.5q65 0 101 25zM333 -207q-38 0 -57 20.5t-19 52.5t21.5 54t58.5 22q39 0 61.5 -21.5t22.5 -62.5q0 -56 -32 -109.5t-82 -91.5
l-18 17q33 34 45.5 60t13.5 60q-5 -1 -15 -1z" />
    <glyph glyph-name="Tcaron" unicode="&#x164;" horiz-adv-x="724" 
d="M202 917l11 15q73 -25 149 -69q76 44 149 69l11 -15q-75 -63 -134 -137h-52q-62 78 -134 137zM468.5 35q4.5 -4 19.5 -7l37 -8v-20h-326v20l37 8q15 3 19.5 7t4.5 15v622h-23q-61 0 -94.5 -20t-51 -52t-43.5 -102h-22v202h672v-202h-22q-26 70 -43.5 102t-51 52t-94.5 20
h-23v-622q0 -11 4.5 -15z" />
    <glyph glyph-name="uni0162" unicode="&#x162;" horiz-adv-x="724" 
d="M468.5 35q4.5 -4 19.5 -7l37 -8v-20h-326v20l37 8q15 3 19.5 7t4.5 15v622h-23q-61 0 -94.5 -20t-51 -52t-43.5 -102h-22v202h672v-202h-22q-26 70 -43.5 102t-51 52t-94.5 20h-23v-622q0 -11 4.5 -15zM356 -207q-38 0 -57 20.5t-19 52.5t21.5 54t58.5 22
q39 0 61.5 -21.5t22.5 -62.5q0 -56 -32 -109.5t-82 -91.5l-18 17q33 34 45.5 60t13.5 60q-5 -1 -15 -1z" />
    <glyph glyph-name="uni021A" unicode="&#x21a;" horiz-adv-x="724" 
d="M468.5 35q4.5 -4 19.5 -7l37 -8v-20h-326v20l37 8q15 3 19.5 7t4.5 15v622h-23q-61 0 -94.5 -20t-51 -52t-43.5 -102h-22v202h672v-202h-22q-26 70 -43.5 102t-51 52t-94.5 20h-23v-622q0 -11 4.5 -15zM356 -207q-38 0 -57 20.5t-19 52.5t21.5 54t58.5 22
q39 0 61.5 -21.5t22.5 -62.5q0 -56 -32 -109.5t-82 -91.5l-18 17q33 34 45.5 60t13.5 60q-5 -1 -15 -1z" />
    <glyph glyph-name="Tbar" unicode="&#x166;" horiz-adv-x="724" 
d="M542 352v-24h-78v-278q0 -11 4.5 -15t19.5 -7l37 -8v-20h-326v20l37 8q15 3 19.5 7t4.5 15v278h-78v24h78v320h-23q-61 0 -94.5 -20t-51 -52t-43.5 -102h-22v202h672v-202h-22q-26 70 -43.5 102t-51 52t-94.5 20h-23v-320h78z" />
    <glyph glyph-name="Thorn" unicode="&#xde;" horiz-adv-x="736" 
d="M313 556q136 0 216.5 -17.5t118.5 -60t38 -119.5t-38 -119.5t-118.5 -60t-216.5 -17.5h-22v-111q0 -11 4.5 -15t19.5 -7l43 -9v-20h-332v20l37 8q15 3 19.5 7t4.5 15v600q0 11 -4.5 15t-19.5 7l-37 8v20h332v-20l-43 -9q-15 -3 -19.5 -7t-4.5 -15v-93h22zM461.5 458
q-14.5 36 -47.5 52t-92 16h-31v-334h31q59 0 92 16t47.5 52t14.5 99t-14.5 99z" />
    <glyph glyph-name="Ugrave" unicode="&#xd9;" horiz-adv-x="754" 
d="M398 843.5q49 -37.5 58 -44.5l38 -28l-5 -11q-50 8 -116.5 26.5t-109.5 38.5q1 28 17 52t39 35q30 -31 79 -68.5zM607 61q-66 -73 -213 -73q-160 0 -236.5 65t-76.5 211v386q0 11 -4.5 15t-19.5 7l-37 8v20h324v-20l-36 -8q-14 -3 -18.5 -6.5t-4.5 -14.5v-405
q0 -85 12 -132t46.5 -69.5t101.5 -22.5q96 0 147 63t51 167v398q0 11 -4.5 15t-19.5 7l-37 8v20h152v-20l-36 -8q-14 -3 -18.5 -6.5t-4.5 -14.5v-391q-2 -126 -68 -199z" />
    <glyph glyph-name="Uacute" unicode="&#xda;" horiz-adv-x="754" 
d="M614 877q16 -24 17 -52q-43 -20 -109.5 -38.5t-116.5 -26.5l-5 11l38 28q9 7 58 44.5t79 68.5q23 -11 39 -35zM607 61q-66 -73 -213 -73q-160 0 -236.5 65t-76.5 211v386q0 11 -4.5 15t-19.5 7l-37 8v20h324v-20l-36 -8q-14 -3 -18.5 -6.5t-4.5 -14.5v-405q0 -85 12 -132
t46.5 -69.5t101.5 -22.5q96 0 147 63t51 167v398q0 11 -4.5 15t-19.5 7l-37 8v20h152v-20l-36 -8q-14 -3 -18.5 -6.5t-4.5 -14.5v-391q-2 -126 -68 -199z" />
    <glyph glyph-name="Ucircumflex" unicode="&#xdb;" horiz-adv-x="754" 
d="M607 775l-11 -15q-73 25 -149 69q-76 -44 -149 -69l-11 15q72 59 134 137h52q59 -74 134 -137zM607 61q-66 -73 -213 -73q-160 0 -236.5 65t-76.5 211v386q0 11 -4.5 15t-19.5 7l-37 8v20h324v-20l-36 -8q-14 -3 -18.5 -6.5t-4.5 -14.5v-405q0 -85 12 -132t46.5 -69.5
t101.5 -22.5q96 0 147 63t51 167v398q0 11 -4.5 15t-19.5 7l-37 8v20h152v-20l-36 -8q-14 -3 -18.5 -6.5t-4.5 -14.5v-391q-2 -126 -68 -199z" />
    <glyph glyph-name="Utilde" unicode="&#x168;" horiz-adv-x="754" 
d="M487.5 767q-26.5 9 -93.5 36l-36 14q-9 4 -23 4q-12 0 -23 -5t-18 -14l-24 -30l-12 5q15 39 26.5 63t31 43t46.5 19q18 0 44.5 -9t93.5 -36l36 -14q9 -4 23 -4q12 0 23 5t18 14l24 30l12 -5q-15 -39 -26.5 -63t-31 -43t-46.5 -19q-18 0 -44.5 9zM607 61q-66 -73 -213 -73
q-160 0 -236.5 65t-76.5 211v386q0 11 -4.5 15t-19.5 7l-37 8v20h324v-20l-36 -8q-14 -3 -18.5 -6.5t-4.5 -14.5v-405q0 -85 12 -132t46.5 -69.5t101.5 -22.5q96 0 147 63t51 167v398q0 11 -4.5 15t-19.5 7l-37 8v20h152v-20l-36 -8q-14 -3 -18.5 -6.5t-4.5 -14.5v-391
q-2 -126 -68 -199z" />
    <glyph glyph-name="Udieresis" unicode="&#xdc;" horiz-adv-x="748" 
d="M259.5 788q-21.5 21 -21.5 52t21.5 52t55.5 21t55.5 -21t21.5 -52t-21.5 -52t-55.5 -21t-55.5 21zM497.5 788q-21.5 21 -21.5 52t21.5 52t55.5 21t55.5 -21t21.5 -52t-21.5 -52t-55.5 -21t-55.5 21zM607 61q-66 -73 -213 -73q-160 0 -236.5 65t-76.5 211v386
q0 11 -4.5 15t-19.5 7l-37 8v20h324v-20l-36 -8q-14 -3 -18.5 -6.5t-4.5 -14.5v-405q0 -85 12 -132t46.5 -69.5t101.5 -22.5q96 0 147 63t51 167v398q0 11 -4.5 15t-19.5 7l-37 8v20h152v-20l-36 -8q-14 -3 -18.5 -6.5t-4.5 -14.5v-391q-2 -126 -68 -199z" />
    <glyph glyph-name="Umacron" unicode="&#x16a;" horiz-adv-x="754" 
d="M637 802v-24h-380v24h380zM607 61q-66 -73 -213 -73q-160 0 -236.5 65t-76.5 211v386q0 11 -4.5 15t-19.5 7l-37 8v20h324v-20l-36 -8q-14 -3 -18.5 -6.5t-4.5 -14.5v-405q0 -85 12 -132t46.5 -69.5t101.5 -22.5q96 0 147 63t51 167v398q0 11 -4.5 15t-19.5 7l-37 8v20
h152v-20l-36 -8q-14 -3 -18.5 -6.5t-4.5 -14.5v-391q-2 -126 -68 -199z" />
    <glyph glyph-name="Ubreve" unicode="&#x16c;" horiz-adv-x="754" 
d="M345 800.5q-34 40.5 -36 112.5h20q10 -40 35.5 -58t82.5 -18t82.5 18t35.5 58h20q-2 -72 -36 -112.5t-102 -40.5t-102 40.5zM607 61q-66 -73 -213 -73q-160 0 -236.5 65t-76.5 211v386q0 11 -4.5 15t-19.5 7l-37 8v20h324v-20l-36 -8q-14 -3 -18.5 -6.5t-4.5 -14.5v-405
q0 -85 12 -132t46.5 -69.5t101.5 -22.5q96 0 147 63t51 167v398q0 11 -4.5 15t-19.5 7l-37 8v20h152v-20l-36 -8q-14 -3 -18.5 -6.5t-4.5 -14.5v-391q-2 -126 -68 -199z" />
    <glyph glyph-name="Uring" unicode="&#x16e;" horiz-adv-x="754" 
d="M528.5 926q32.5 -24 32.5 -71t-32.5 -71t-81.5 -24t-81.5 24t-32.5 71t32.5 71t81.5 24t81.5 -24zM480 796.5q10 19.5 10 58.5t-10 58.5t-33 19.5t-33 -19.5t-10 -58.5t10 -58.5t33 -19.5t33 19.5zM607 61q-66 -73 -213 -73q-160 0 -236.5 65t-76.5 211v386q0 11 -4.5 15
t-19.5 7l-37 8v20h324v-20l-36 -8q-14 -3 -18.5 -6.5t-4.5 -14.5v-405q0 -85 12 -132t46.5 -69.5t101.5 -22.5q96 0 147 63t51 167v398q0 11 -4.5 15t-19.5 7l-37 8v20h152v-20l-36 -8q-14 -3 -18.5 -6.5t-4.5 -14.5v-391q-2 -126 -68 -199z" />
    <glyph glyph-name="Uhungarumlaut" unicode="&#x170;" horiz-adv-x="754" 
d="M497 917q22 -19 30 -45q-39 -30 -94.5 -61.5t-102.5 -52.5l-8 9l24 31q75 97 104 143q25 -5 47 -24zM702 917q22 -19 30 -45q-39 -30 -94.5 -61.5t-102.5 -52.5l-8 9l24 31q75 97 104 143q25 -5 47 -24zM607 61q-66 -73 -213 -73q-160 0 -236.5 65t-76.5 211v386
q0 11 -4.5 15t-19.5 7l-37 8v20h324v-20l-36 -8q-14 -3 -18.5 -6.5t-4.5 -14.5v-405q0 -85 12 -132t46.5 -69.5t101.5 -22.5q96 0 147 63t51 167v398q0 11 -4.5 15t-19.5 7l-37 8v20h152v-20l-36 -8q-14 -3 -18.5 -6.5t-4.5 -14.5v-391q-2 -126 -68 -199z" />
    <glyph glyph-name="Uogonek" unicode="&#x172;" horiz-adv-x="754" 
d="M734 700v-20l-36 -8q-14 -3 -18.5 -6.5t-4.5 -14.5v-391q-3 -219 -185 -262q-31 -16 -44.5 -41.5t-13.5 -62.5q0 -31 13.5 -45t44.5 -14q24 0 53 23l7 -11q-46 -52 -110 -52q-52 0 -79 19t-27 55q0 42 28 72t75 49q-28 -2 -43 -2q-160 0 -236.5 65t-76.5 211v386
q0 11 -4.5 15t-19.5 7l-37 8v20h324v-20l-36 -8q-14 -3 -18.5 -6.5t-4.5 -14.5v-405q0 -85 12 -132t46.5 -69.5t101.5 -22.5q96 0 147 63t51 167v398q0 11 -4.5 15t-19.5 7l-37 8v20h152z" />
    <glyph glyph-name="Wacute" unicode="&#x1e82;" horiz-adv-x="1146" 
d="M731 877q16 -24 17 -52q-43 -20 -109.5 -38.5t-116.5 -26.5l-5 11l38 28q9 7 58 44.5t79 68.5q23 -11 39 -35zM783 -11l-208 517l-190 -517h-32l-266 663q-5 13 -10.5 17.5t-17.5 6.5l-37 4v20h328v-20l-39 -4q-14 -2 -14 -16q0 -3 2 -11l152 -396l107 296l-41 103
q-5 13 -10.5 17.5t-17.5 6.5l-35 4v20h328v-20l-41 -4q-14 -2 -14 -16q0 -3 2 -11l152 -396l145 400q3 8 3 11q0 11 -15 12l-42 4v20h152v-20l-37 -4q-12 -1 -17 -6t-11 -18l-244 -663h-32z" />
    <glyph glyph-name="Wcircumflex" unicode="&#x174;" horiz-adv-x="1146" 
d="M743 795l-11 -15q-73 25 -149 69q-76 -44 -149 -69l-11 15q72 59 134 137h52q59 -74 134 -137zM783 -11l-208 517l-190 -517h-32l-266 663q-5 13 -10.5 17.5t-17.5 6.5l-37 4v20h328v-20l-39 -4q-14 -2 -14 -16q0 -3 2 -11l152 -396l107 296l-41 103q-5 13 -10.5 17.5
t-17.5 6.5l-35 4v20h328v-20l-41 -4q-14 -2 -14 -16q0 -3 2 -11l152 -396l145 400q3 8 3 11q0 11 -15 12l-42 4v20h152v-20l-37 -4q-12 -1 -17 -6t-11 -18l-244 -663h-32z" />
    <glyph glyph-name="Wdieresis" unicode="&#x1e84;" horiz-adv-x="1146" 
d="M438.5 788q-21.5 21 -21.5 52t21.5 52t55.5 21t55.5 -21t21.5 -52t-21.5 -52t-55.5 -21t-55.5 21zM676.5 788q-21.5 21 -21.5 52t21.5 52t55.5 21t55.5 -21t21.5 -52t-21.5 -52t-55.5 -21t-55.5 21zM783 -11l-208 517l-190 -517h-32l-266 663q-5 13 -10.5 17.5t-17.5 6.5
l-37 4v20h328v-20l-39 -4q-14 -2 -14 -16q0 -3 2 -11l152 -396l107 296l-41 103q-5 13 -10.5 17.5t-17.5 6.5l-35 4v20h328v-20l-41 -4q-14 -2 -14 -16q0 -3 2 -11l152 -396l145 400q3 8 3 11q0 11 -15 12l-42 4v20h152v-20l-37 -4q-12 -1 -17 -6t-11 -18l-244 -663h-32z
" />
    <glyph glyph-name="Wgrave" unicode="&#x1e80;" horiz-adv-x="1146" 
d="M532 843.5q49 -37.5 58 -44.5l38 -28l-5 -11q-50 8 -116.5 26.5t-109.5 38.5q1 28 17 52t39 35q30 -31 79 -68.5zM783 -11l-208 517l-190 -517h-32l-266 663q-5 13 -10.5 17.5t-17.5 6.5l-37 4v20h328v-20l-39 -4q-14 -2 -14 -16q0 -3 2 -11l152 -396l107 296l-41 103
q-5 13 -10.5 17.5t-17.5 6.5l-35 4v20h328v-20l-41 -4q-14 -2 -14 -16q0 -3 2 -11l152 -396l145 400q3 8 3 11q0 11 -15 12l-42 4v20h152v-20l-37 -4q-12 -1 -17 -6t-11 -18l-244 -663h-32z" />
    <glyph glyph-name="Yacute" unicode="&#xdd;" horiz-adv-x="720" 
d="M588 877q16 -24 17 -52q-43 -20 -109.5 -38.5t-116.5 -26.5l-5 11l38 28q9 7 58 44.5t79 68.5q23 -11 39 -35zM619 660q0 7 -6 11.5t-14 5.5l-47 4v19h166v-20l-31 -3q-16 -1 -22 -6.5t-14 -18.5l-191 -328v-274q0 -11 4.5 -15t19.5 -7l37 -8v-20h-326v20l37 8
q15 3 19.5 7t4.5 15v268l-184 334q-7 12 -13 17.5t-16 6.5l-39 4v20h325v-20l-40 -4q-14 -1 -14 -12q0 -6 4 -13l160 -302l178 304q2 6 2 7z" />
    <glyph glyph-name="Ycircumflex" unicode="&#x176;" horiz-adv-x="720" 
d="M600 795l-11 -15q-73 25 -149 69q-76 -44 -149 -69l-11 15q72 59 134 137h52q59 -74 134 -137zM619 660q0 7 -6 11.5t-14 5.5l-47 4v19h166v-20l-31 -3q-16 -1 -22 -6.5t-14 -18.5l-191 -328v-274q0 -11 4.5 -15t19.5 -7l37 -8v-20h-326v20l37 8q15 3 19.5 7t4.5 15v268
l-184 334q-7 12 -13 17.5t-16 6.5l-39 4v20h325v-20l-40 -4q-14 -1 -14 -12q0 -6 4 -13l160 -302l178 304q2 6 2 7z" />
    <glyph glyph-name="Ydieresis" unicode="&#x178;" horiz-adv-x="720" 
d="M235.5 788q-21.5 21 -21.5 52t21.5 52t55.5 21t55.5 -21t21.5 -52t-21.5 -52t-55.5 -21t-55.5 21zM473.5 788q-21.5 21 -21.5 52t21.5 52t55.5 21t55.5 -21t21.5 -52t-21.5 -52t-55.5 -21t-55.5 21zM619 660q0 7 -6 11.5t-14 5.5l-47 4v19h166v-20l-31 -3
q-16 -1 -22 -6.5t-14 -18.5l-191 -328v-274q0 -11 4.5 -15t19.5 -7l37 -8v-20h-326v20l37 8q15 3 19.5 7t4.5 15v268l-184 334q-7 12 -13 17.5t-16 6.5l-39 4v20h325v-20l-40 -4q-14 -1 -14 -12q0 -6 4 -13l160 -302l178 304q2 6 2 7z" />
    <glyph glyph-name="Ygrave" unicode="&#x1ef2;" horiz-adv-x="720" 
d="M339 863.5q49 -37.5 58 -44.5l38 -28l-5 -11q-50 8 -116.5 26.5t-109.5 38.5q1 28 17 52t39 35q30 -31 79 -68.5zM619 660q0 7 -6 11.5t-14 5.5l-47 4v19h166v-20l-31 -3q-16 -1 -22 -6.5t-14 -18.5l-191 -328v-274q0 -11 4.5 -15t19.5 -7l37 -8v-20h-326v20l37 8
q15 3 19.5 7t4.5 15v268l-184 334q-7 12 -13 17.5t-16 6.5l-39 4v20h325v-20l-40 -4q-14 -1 -14 -12q0 -6 4 -13l160 -302l178 304q2 6 2 7z" />
    <glyph glyph-name="Zacute" unicode="&#x179;" horiz-adv-x="762" 
d="M589 877q16 -24 17 -52q-43 -20 -109.5 -38.5t-116.5 -26.5l-5 11l38 28q9 7 58 44.5t79 68.5q23 -11 39 -35zM58 0v26l412 644h-155q-60 0 -93 -17t-51.5 -50t-39.5 -98h-25v195h592v-26l-413 -644h201q60 0 93 17.5t51.5 51t39.5 100.5h25v-199h-637z" />
    <glyph glyph-name="Zcaron" unicode="&#x17d;" horiz-adv-x="762" 
d="M241 897l11 15q73 -25 149 -69q76 44 149 69l11 -15q-75 -63 -134 -137h-52q-62 78 -134 137zM58 0v26l412 644h-155q-60 0 -93 -17t-51.5 -50t-39.5 -98h-25v195h592v-26l-413 -644h201q60 0 93 17.5t51.5 51t39.5 100.5h25v-199h-637z" />
    <glyph glyph-name="Zdotaccent" unicode="&#x17b;" horiz-adv-x="762" 
d="M328 782q-24 19 -24 56t24 56t63 19t63 -19t24 -56t-24 -56t-63 -19t-63 19zM58 0v26l412 644h-155q-60 0 -93 -17t-51.5 -50t-39.5 -98h-25v195h592v-26l-413 -644h201q60 0 93 17.5t51.5 51t39.5 100.5h25v-199h-637z" />
    <glyph glyph-name="agrave" unicode="&#xe0;" horiz-adv-x="644" 
d="M343 649.5q49 -37.5 58 -44.5l38 -28l-5 -11q-50 8 -116.5 26.5t-109.5 38.5q1 28 17 52t39 35q30 -31 79 -68.5zM378.5 11.5q-11.5 11.5 -11.5 38.5v5q-67 -65 -191 -65q-65 0 -101.5 29.5t-36.5 91.5t36.5 97t106.5 50t186 18v73q0 56 -22 80.5t-77 24.5
q-46 0 -85.5 -12.5t-80.5 -37.5l-13 19q48 34 115.5 54.5t151.5 20.5q113 0 161 -44.5t48 -128.5v-277q0 -11 4.5 -15t19.5 -7l35 -8v-18h-206q-28 0 -39.5 11.5zM367 87v162q-56 -4 -85 -17.5t-39.5 -38.5t-10.5 -68q0 -38 13.5 -55t42.5 -17q43 0 79 34z" />
    <glyph glyph-name="aacute" unicode="&#xe1;" horiz-adv-x="644" 
d="M419 683q16 -24 17 -52q-43 -20 -109.5 -38.5t-116.5 -26.5l-5 11l38 28q9 7 58 44.5t79 68.5q23 -11 39 -35zM378.5 11.5q-11.5 11.5 -11.5 38.5v5q-67 -65 -191 -65q-65 0 -101.5 29.5t-36.5 91.5t36.5 97t106.5 50t186 18v73q0 56 -22 80.5t-77 24.5
q-46 0 -85.5 -12.5t-80.5 -37.5l-13 19q48 34 115.5 54.5t151.5 20.5q113 0 161 -44.5t48 -128.5v-277q0 -11 4.5 -15t19.5 -7l35 -8v-18h-206q-28 0 -39.5 11.5zM367 87v162q-56 -4 -85 -17.5t-39.5 -38.5t-10.5 -68q0 -38 13.5 -55t42.5 -17q43 0 79 34z" />
    <glyph glyph-name="acircumflex" unicode="&#xe2;" horiz-adv-x="644" 
d="M482 581l-11 -15q-73 25 -149 69q-76 -44 -149 -69l-11 15q72 59 134 137h52q59 -74 134 -137zM378.5 11.5q-11.5 11.5 -11.5 38.5v5q-67 -65 -191 -65q-65 0 -101.5 29.5t-36.5 91.5t36.5 97t106.5 50t186 18v73q0 56 -22 80.5t-77 24.5q-46 0 -85.5 -12.5t-80.5 -37.5
l-13 19q48 34 115.5 54.5t151.5 20.5q113 0 161 -44.5t48 -128.5v-277q0 -11 4.5 -15t19.5 -7l35 -8v-18h-206q-28 0 -39.5 11.5zM367 87v162q-56 -4 -85 -17.5t-39.5 -38.5t-10.5 -68q0 -38 13.5 -55t42.5 -17q43 0 79 34z" />
    <glyph glyph-name="atilde" unicode="&#xe3;" horiz-adv-x="644" 
d="M372.5 573q-26.5 9 -93.5 36l-36 14q-9 4 -23 4q-12 0 -23 -5t-18 -14l-24 -30l-12 5q15 39 26.5 63t31 43t46.5 19q18 0 44.5 -9t93.5 -36l36 -14q9 -4 23 -4q12 0 23 5t18 14l24 30l12 -5q-15 -39 -26.5 -63t-31 -43t-46.5 -19q-18 0 -44.5 9zM378.5 11.5
q-11.5 11.5 -11.5 38.5v5q-67 -65 -191 -65q-65 0 -101.5 29.5t-36.5 91.5t36.5 97t106.5 50t186 18v73q0 56 -22 80.5t-77 24.5q-46 0 -85.5 -12.5t-80.5 -37.5l-13 19q48 34 115.5 54.5t151.5 20.5q113 0 161 -44.5t48 -128.5v-277q0 -11 4.5 -15t19.5 -7l35 -8v-18h-206
q-28 0 -39.5 11.5zM367 87v162q-56 -4 -85 -17.5t-39.5 -38.5t-10.5 -68q0 -38 13.5 -55t42.5 -17q43 0 79 34z" />
    <glyph glyph-name="adieresis" unicode="&#xe4;" horiz-adv-x="644" 
d="M157.5 594q-21.5 21 -21.5 52t21.5 52t55.5 21t55.5 -21t21.5 -52t-21.5 -52t-55.5 -21t-55.5 21zM395.5 594q-21.5 21 -21.5 52t21.5 52t55.5 21t55.5 -21t21.5 -52t-21.5 -52t-55.5 -21t-55.5 21zM378.5 11.5q-11.5 11.5 -11.5 38.5v5q-67 -65 -191 -65
q-65 0 -101.5 29.5t-36.5 91.5t36.5 97t106.5 50t186 18v73q0 56 -22 80.5t-77 24.5q-46 0 -85.5 -12.5t-80.5 -37.5l-13 19q48 34 115.5 54.5t151.5 20.5q113 0 161 -44.5t48 -128.5v-277q0 -11 4.5 -15t19.5 -7l35 -8v-18h-206q-28 0 -39.5 11.5zM367 87v162
q-56 -4 -85 -17.5t-39.5 -38.5t-10.5 -68q0 -38 13.5 -55t42.5 -17q43 0 79 34z" />
    <glyph glyph-name="amacron" unicode="&#x101;" horiz-adv-x="644" 
d="M512 608v-24h-380v24h380zM378.5 11.5q-11.5 11.5 -11.5 38.5v5q-67 -65 -191 -65q-65 0 -101.5 29.5t-36.5 91.5t36.5 97t106.5 50t186 18v73q0 56 -22 80.5t-77 24.5q-46 0 -85.5 -12.5t-80.5 -37.5l-13 19q48 34 115.5 54.5t151.5 20.5q113 0 161 -44.5t48 -128.5
v-277q0 -11 4.5 -15t19.5 -7l35 -8v-18h-206q-28 0 -39.5 11.5zM367 87v162q-56 -4 -85 -17.5t-39.5 -38.5t-10.5 -68q0 -38 13.5 -55t42.5 -17q43 0 79 34z" />
    <glyph glyph-name="abreve" unicode="&#x103;" horiz-adv-x="644" 
d="M220 606.5q-34 40.5 -36 112.5h20q10 -40 35.5 -58t82.5 -18t82.5 18t35.5 58h20q-2 -72 -36 -112.5t-102 -40.5t-102 40.5zM378.5 11.5q-11.5 11.5 -11.5 38.5v5q-67 -65 -191 -65q-65 0 -101.5 29.5t-36.5 91.5t36.5 97t106.5 50t186 18v73q0 56 -22 80.5t-77 24.5
q-46 0 -85.5 -12.5t-80.5 -37.5l-13 19q48 34 115.5 54.5t151.5 20.5q113 0 161 -44.5t48 -128.5v-277q0 -11 4.5 -15t19.5 -7l35 -8v-18h-206q-28 0 -39.5 11.5zM367 87v162q-56 -4 -85 -17.5t-39.5 -38.5t-10.5 -68q0 -38 13.5 -55t42.5 -17q43 0 79 34z" />
    <glyph glyph-name="aring" unicode="&#xe5;" horiz-adv-x="644" 
d="M413.5 732q32.5 -24 32.5 -71t-32.5 -71t-81.5 -24t-81.5 24t-32.5 71t32.5 71t81.5 24t81.5 -24zM365 602.5q10 19.5 10 58.5t-10 58.5t-33 19.5t-33 -19.5t-10 -58.5t10 -58.5t33 -19.5t33 19.5zM378.5 11.5q-11.5 11.5 -11.5 38.5v5q-67 -65 -191 -65
q-65 0 -101.5 29.5t-36.5 91.5t36.5 97t106.5 50t186 18v73q0 56 -22 80.5t-77 24.5q-46 0 -85.5 -12.5t-80.5 -37.5l-13 19q48 34 115.5 54.5t151.5 20.5q113 0 161 -44.5t48 -128.5v-277q0 -11 4.5 -15t19.5 -7l35 -8v-18h-206q-28 0 -39.5 11.5zM367 87v162
q-56 -4 -85 -17.5t-39.5 -38.5t-10.5 -68q0 -38 13.5 -55t42.5 -17q43 0 79 34z" />
    <glyph glyph-name="aringacute" unicode="&#x1fb;" horiz-adv-x="644" 
d="M526 908q16 -24 17 -52q-43 -20 -109.5 -38.5t-116.5 -26.5l-5 11l38 28q9 7 58 44.5t79 68.5q23 -11 39 -35zM413.5 732q32.5 -24 32.5 -71t-32.5 -71t-81.5 -24t-81.5 24t-32.5 71t32.5 71t81.5 24t81.5 -24zM365 602.5q10 19.5 10 58.5t-10 58.5t-33 19.5t-33 -19.5
t-10 -58.5t10 -58.5t33 -19.5t33 19.5zM378.5 11.5q-11.5 11.5 -11.5 38.5v5q-67 -65 -191 -65q-65 0 -101.5 29.5t-36.5 91.5t36.5 97t106.5 50t186 18v73q0 56 -22 80.5t-77 24.5q-46 0 -85.5 -12.5t-80.5 -37.5l-13 19q48 34 115.5 54.5t151.5 20.5q113 0 161 -44.5
t48 -128.5v-277q0 -11 4.5 -15t19.5 -7l35 -8v-18h-206q-28 0 -39.5 11.5zM367 87v162q-56 -4 -85 -17.5t-39.5 -38.5t-10.5 -68q0 -38 13.5 -55t42.5 -17q43 0 79 34z" />
    <glyph glyph-name="aogonek" unicode="&#x105;" horiz-adv-x="644" 
d="M484 -205q-52 0 -79 19t-27 55q0 48 36.5 81t95.5 50h-92q-28 0 -39.5 11.5t-11.5 38.5v5q-67 -65 -191 -65q-65 0 -101.5 29.5t-36.5 91.5t36.5 97t106.5 50t186 18v73q0 56 -22 80.5t-77 24.5q-46 0 -85.5 -12.5t-80.5 -37.5l-13 19q48 34 115.5 54.5t151.5 20.5
q113 0 161 -44.5t48 -128.5v-277q0 -11 4.5 -15t19.5 -7l35 -8v-18h-87q-33 -16 -47 -41.5t-14 -64.5q0 -31 13.5 -45t44.5 -14q24 0 53 23l7 -11q-46 -52 -110 -52zM367 87v162q-56 -4 -85 -17.5t-39.5 -38.5t-10.5 -68q0 -38 13.5 -55t42.5 -17q43 0 79 34z" />
    <glyph glyph-name="ae" unicode="&#xe6;" horiz-adv-x="964" 
d="M608.5 87.5q33.5 -58.5 124.5 -58.5q42 0 78 14t75 40l13 -19q-93 -76 -240 -76q-75 0 -132.5 23.5t-94.5 67.5q-143 -89 -252 -89q-66 0 -104 30t-38 91q0 62 38 97t110.5 50t188.5 18v73q0 56 -24 80.5t-79 24.5q-88 0 -170 -50l-13 19q47 33 116.5 54t150.5 21
q91 0 143 -35q68 35 171 35q79 0 134.5 -26t83.5 -69.5t28 -96.5q0 -27 -5 -50h-337q1 -110 34.5 -168.5zM595 427q-20 -47 -21 -145h156v75q0 59 -14.5 88t-51.5 29q-49 0 -69 -47zM375 83v166q-57 -4 -87.5 -17.5t-43 -39t-12.5 -67.5q0 -37 15 -54.5t45 -17.5q43 0 83 30
z" />
    <glyph glyph-name="aeacute" unicode="&#x1fd;" horiz-adv-x="964" 
d="M650 683q16 -24 17 -52q-43 -20 -109.5 -38.5t-116.5 -26.5l-5 11l38 28q9 7 58 44.5t79 68.5q23 -11 39 -35zM608.5 87.5q33.5 -58.5 124.5 -58.5q42 0 78 14t75 40l13 -19q-93 -76 -240 -76q-75 0 -132.5 23.5t-94.5 67.5q-143 -89 -252 -89q-66 0 -104 30t-38 91
q0 62 38 97t110.5 50t188.5 18v73q0 56 -24 80.5t-79 24.5q-88 0 -170 -50l-13 19q47 33 116.5 54t150.5 21q91 0 143 -35q68 35 171 35q79 0 134.5 -26t83.5 -69.5t28 -96.5q0 -27 -5 -50h-337q1 -110 34.5 -168.5zM595 427q-20 -47 -21 -145h156v75q0 59 -14.5 88
t-51.5 29q-49 0 -69 -47zM375 83v166q-57 -4 -87.5 -17.5t-43 -39t-12.5 -67.5q0 -37 15 -54.5t45 -17.5q43 0 83 30z" />
    <glyph glyph-name="cacute" unicode="&#x107;" horiz-adv-x="636" 
d="M536 683q16 -24 17 -52q-43 -20 -109.5 -38.5t-116.5 -26.5l-5 11l38 28q9 7 58 44.5t79 68.5q23 -11 39 -35zM579 458l-12 -131h-19q-21 74 -55.5 109.5t-100.5 35.5q-73 0 -103.5 -51t-30.5 -151q0 -83 13 -134t47 -77.5t96 -26.5q47 0 86 13.5t77 39.5l13 -19
q-47 -36 -105.5 -57t-136.5 -21q-141 0 -219.5 65t-78.5 196q0 124 82 186.5t242 62.5q125 0 205 -40z" />
    <glyph glyph-name="ccircumflex" unicode="&#x109;" horiz-adv-x="636" 
d="M518 581l-11 -15q-73 25 -149 69q-76 -44 -149 -69l-11 15q72 59 134 137h52q59 -74 134 -137zM579 458l-12 -131h-19q-21 74 -55.5 109.5t-100.5 35.5q-73 0 -103.5 -51t-30.5 -151q0 -83 13 -134t47 -77.5t96 -26.5q47 0 86 13.5t77 39.5l13 -19q-47 -36 -105.5 -57
t-136.5 -21q-141 0 -219.5 65t-78.5 196q0 124 82 186.5t242 62.5q125 0 205 -40z" />
    <glyph glyph-name="ccaron" unicode="&#x10d;" horiz-adv-x="636" 
d="M198 703l11 15q73 -25 149 -69q76 44 149 69l11 -15q-75 -63 -134 -137h-52q-62 78 -134 137zM579 458l-12 -131h-19q-21 74 -55.5 109.5t-100.5 35.5q-73 0 -103.5 -51t-30.5 -151q0 -83 13 -134t47 -77.5t96 -26.5q47 0 86 13.5t77 39.5l13 -19q-47 -36 -105.5 -57
t-136.5 -21q-141 0 -219.5 65t-78.5 196q0 124 82 186.5t242 62.5q125 0 205 -40z" />
    <glyph glyph-name="cdotaccent" unicode="&#x10b;" horiz-adv-x="636" 
d="M295 588q-24 19 -24 56t24 56t63 19t63 -19t24 -56t-24 -56t-63 -19t-63 19zM579 458l-12 -131h-19q-21 74 -55.5 109.5t-100.5 35.5q-73 0 -103.5 -51t-30.5 -151q0 -83 13 -134t47 -77.5t96 -26.5q47 0 86 13.5t77 39.5l13 -19q-47 -36 -105.5 -57t-136.5 -21
q-141 0 -219.5 65t-78.5 196q0 124 82 186.5t242 62.5q125 0 205 -40z" />
    <glyph glyph-name="ccedilla" unicode="&#xe7;" horiz-adv-x="636" 
d="M115 65.5q-65 64.5 -65 183.5q0 124 82 186.5t242 62.5q125 0 205 -40l-12 -131h-19q-21 74 -55.5 109.5t-100.5 35.5q-73 0 -103.5 -51t-30.5 -151q0 -83 13 -134t47 -77.5t96 -26.5q47 0 86 13.5t77 39.5l13 -19q-47 -36 -105.5 -57t-136.5 -21q-19 0 -28 1l-2 -25
q65 -3 101.5 -24.5t36.5 -62.5q0 -42 -34.5 -63.5t-86.5 -21.5q-25 0 -52 6t-43 14l7 18q28 -13 69 -13q29 0 42.5 9.5t13.5 32.5q0 29 -21.5 43.5t-61.5 21.5l9 67q-118 10 -183 74.5z" />
    <glyph glyph-name="dcaron" unicode="&#x10f;" horiz-adv-x="936" 
d="M477 14q-12 14 -12 42q-64 -68 -174 -68t-175.5 63t-65.5 197q0 129 65 189.5t176 60.5q60 0 100.5 -14t71.5 -36v204q0 11 -4.5 15t-19.5 7l-35 8v18l240 30h19v-682q0 -11 4.5 -15t19.5 -7l35 -8v-18h-206q-27 0 -39 14zM822 559q-38 0 -57 20.5t-19 52.5t21.5 54
t58.5 22q39 0 61.5 -21.5t22.5 -62.5q0 -56 -32 -109.5t-82 -91.5l-18 17q33 34 45.5 60t13.5 60q-5 -1 -15 -1zM463 87v331q-48 38 -108 38q-55 0 -77 -48.5t-22 -159.5q0 -79 8.5 -125.5t29 -69t56.5 -22.5q59 0 113 56z" />
    <glyph glyph-name="dcroat" unicode="&#x111;" horiz-adv-x="746" 
d="M463 602v50q0 11 -4.5 15t-19.5 7l-35 8v18l240 30h19v-128h59v-24h-59v-530q0 -11 4.5 -15t19.5 -7l35 -8v-18h-206q-27 0 -39 14t-12 42q-64 -68 -174 -68t-175.5 63t-65.5 197q0 129 65 189.5t176 60.5q60 0 100.5 -14t71.5 -36v130h-161v24h161zM463 87v331
q-48 38 -108 38q-55 0 -77 -48.5t-22 -159.5q0 -79 8.5 -125.5t29 -69t56.5 -22.5q59 0 113 56z" />
    <glyph glyph-name="eth" unicode="&#xf0;" horiz-adv-x="605" 
d="M443 632q107 -62 169 -161t62 -228t-80.5 -192t-231.5 -63t-231.5 63t-80.5 192t80.5 192t231.5 63q38 0 75 -8q-21 58 -63 103l-83 -48l-14 24l77 44q-54 50 -132 82l6 15q100 -18 186 -62l104 60l14 -24zM266.5 106q8.5 -48 30.5 -70t65 -22t65 22t30.5 70t8.5 137
t-8.5 137t-30.5 70t-65 22t-65 -22t-30.5 -70t-8.5 -137t8.5 -137z" />
    <glyph glyph-name="egrave" unicode="&#xe8;" horiz-adv-x="658" 
d="M370 649.5q49 -37.5 58 -44.5l38 -28l-5 -11q-50 8 -116.5 26.5t-109.5 38.5q1 28 17 52t39 35q30 -31 79 -68.5zM291.5 87q34.5 -58 129.5 -58q47 0 83.5 14t75.5 40l13 -19q-93 -76 -246 -76q-138 0 -217.5 66.5t-79.5 194.5q0 121 81 185t227 64q83 0 140 -26
t84.5 -69.5t27.5 -96.5q0 -27 -5 -50h-349q1 -111 35.5 -169zM277 428q-20 -46 -21 -146h168v75q0 61 -14.5 89t-57.5 28q-55 0 -75 -46z" />
    <glyph glyph-name="eacute" unicode="&#xe9;" horiz-adv-x="658" 
d="M446 683q16 -24 17 -52q-43 -20 -109.5 -38.5t-116.5 -26.5l-5 11l38 28q9 7 58 44.5t79 68.5q23 -11 39 -35zM291.5 87q34.5 -58 129.5 -58q47 0 83.5 14t75.5 40l13 -19q-93 -76 -246 -76q-138 0 -217.5 66.5t-79.5 194.5q0 121 81 185t227 64q83 0 140 -26t84.5 -69.5
t27.5 -96.5q0 -27 -5 -50h-349q1 -111 35.5 -169zM277 428q-20 -46 -21 -146h168v75q0 61 -14.5 89t-57.5 28q-55 0 -75 -46z" />
    <glyph glyph-name="ecircumflex" unicode="&#xea;" horiz-adv-x="658" 
d="M509 581l-11 -15q-73 25 -149 69q-76 -44 -149 -69l-11 15q72 59 134 137h52q59 -74 134 -137zM291.5 87q34.5 -58 129.5 -58q47 0 83.5 14t75.5 40l13 -19q-93 -76 -246 -76q-138 0 -217.5 66.5t-79.5 194.5q0 121 81 185t227 64q83 0 140 -26t84.5 -69.5t27.5 -96.5
q0 -27 -5 -50h-349q1 -111 35.5 -169zM277 428q-20 -46 -21 -146h168v75q0 61 -14.5 89t-57.5 28q-55 0 -75 -46z" />
    <glyph glyph-name="ecaron" unicode="&#x11b;" horiz-adv-x="658" 
d="M189 703l11 15q73 -25 149 -69q76 44 149 69l11 -15q-75 -63 -134 -137h-52q-62 78 -134 137zM291.5 87q34.5 -58 129.5 -58q47 0 83.5 14t75.5 40l13 -19q-93 -76 -246 -76q-138 0 -217.5 66.5t-79.5 194.5q0 121 81 185t227 64q83 0 140 -26t84.5 -69.5t27.5 -96.5
q0 -27 -5 -50h-349q1 -111 35.5 -169zM277 428q-20 -46 -21 -146h168v75q0 61 -14.5 89t-57.5 28q-55 0 -75 -46z" />
    <glyph glyph-name="edieresis" unicode="&#xeb;" horiz-adv-x="658" 
d="M174.5 594q-21.5 21 -21.5 52t21.5 52t55.5 21t55.5 -21t21.5 -52t-21.5 -52t-55.5 -21t-55.5 21zM412.5 594q-21.5 21 -21.5 52t21.5 52t55.5 21t55.5 -21t21.5 -52t-21.5 -52t-55.5 -21t-55.5 21zM291.5 87q34.5 -58 129.5 -58q47 0 83.5 14t75.5 40l13 -19
q-93 -76 -246 -76q-138 0 -217.5 66.5t-79.5 194.5q0 121 81 185t227 64q83 0 140 -26t84.5 -69.5t27.5 -96.5q0 -27 -5 -50h-349q1 -111 35.5 -169zM277 428q-20 -46 -21 -146h168v75q0 61 -14.5 89t-57.5 28q-55 0 -75 -46z" />
    <glyph glyph-name="emacron" unicode="&#x113;" horiz-adv-x="658" 
d="M539 608v-24h-380v24h380zM291.5 87q34.5 -58 129.5 -58q47 0 83.5 14t75.5 40l13 -19q-93 -76 -246 -76q-138 0 -217.5 66.5t-79.5 194.5q0 121 81 185t227 64q83 0 140 -26t84.5 -69.5t27.5 -96.5q0 -27 -5 -50h-349q1 -111 35.5 -169zM277 428q-20 -46 -21 -146h168
v75q0 61 -14.5 89t-57.5 28q-55 0 -75 -46z" />
    <glyph glyph-name="ebreve" unicode="&#x115;" horiz-adv-x="658" 
d="M247 606.5q-34 40.5 -36 112.5h20q10 -40 35.5 -58t82.5 -18t82.5 18t35.5 58h20q-2 -72 -36 -112.5t-102 -40.5t-102 40.5zM291.5 87q34.5 -58 129.5 -58q47 0 83.5 14t75.5 40l13 -19q-93 -76 -246 -76q-138 0 -217.5 66.5t-79.5 194.5q0 121 81 185t227 64
q83 0 140 -26t84.5 -69.5t27.5 -96.5q0 -27 -5 -50h-349q1 -111 35.5 -169zM277 428q-20 -46 -21 -146h168v75q0 61 -14.5 89t-57.5 28q-55 0 -75 -46z" />
    <glyph glyph-name="edotaccent" unicode="&#x117;" horiz-adv-x="658" 
d="M286 588q-24 19 -24 56t24 56t63 19t63 -19t24 -56t-24 -56t-63 -19t-63 19zM291.5 87q34.5 -58 129.5 -58q47 0 83.5 14t75.5 40l13 -19q-93 -76 -246 -76q-138 0 -217.5 66.5t-79.5 194.5q0 121 81 185t227 64q83 0 140 -26t84.5 -69.5t27.5 -96.5q0 -27 -5 -50h-349
q1 -111 35.5 -169zM277 428q-20 -46 -21 -146h168v75q0 61 -14.5 89t-57.5 28q-55 0 -75 -46z" />
    <glyph glyph-name="eogonek" unicode="&#x119;" horiz-adv-x="658" 
d="M400 -205q-52 0 -79 19t-27 55q0 42 28 72t75 49q-32 -2 -50 -2q-138 0 -217.5 66.5t-79.5 194.5q0 121 81 185t227 64q83 0 140 -26t84.5 -69.5t27.5 -96.5q0 -27 -5 -50h-349q1 -111 35.5 -169t129.5 -58q47 0 83.5 14t75.5 40l13 -19q-60 -50 -144 -66
q-31 -16 -44 -41.5t-13 -62.5q0 -31 13.5 -45t44.5 -14q24 0 53 23l7 -11q-46 -52 -110 -52zM277 428q-20 -46 -21 -146h168v75q0 61 -14.5 89t-57.5 28q-55 0 -75 -46z" />
    <glyph glyph-name="gcircumflex" unicode="&#x11d;" horiz-adv-x="692" 
d="M506 581l-11 -15q-73 25 -149 69q-76 -44 -149 -69l-11 15q72 59 134 137h52q59 -74 134 -137zM522 490q-28 0 -45 -11q127 -36 127 -144q0 -87 -69 -125.5t-195 -38.5q-71 0 -123 13q-31 -2 -54.5 -10.5t-23.5 -22.5q0 -15 13 -22.5t41 -12t93 -10.5l170 -16
q72 -7 114.5 -22.5t62 -45t19.5 -77.5q0 -64 -46.5 -105.5t-119.5 -60.5t-156 -19q-119 0 -195.5 32.5t-76.5 98.5q0 42 33 65t87 30q-114 27 -114 107q0 87 106 106q-94 41 -94 136q0 87 68.5 124t195.5 37q61 -2 106 -10q29 44 81 72.5t125 28.5l-24 -115h-11l-25 7
q-40 11 -70 11zM403.5 229.5q16.5 33.5 16.5 105.5q0 69 -16.5 102.5t-63.5 33.5t-63.5 -33.5t-16.5 -102.5q0 -72 16.5 -105.5t63.5 -33.5t63.5 33.5zM208 -20q-13 -28 -13 -71q0 -62 30 -92t112 -30q96 0 149 23.5t53 69.5q0 26 -10.5 39.5t-34.5 21t-71 12.5l-141 16
q-53 7 -74 11z" />
    <glyph glyph-name="gbreve" unicode="&#x11f;" horiz-adv-x="692" 
d="M244 606.5q-34 40.5 -36 112.5h20q10 -40 35.5 -58t82.5 -18t82.5 18t35.5 58h20q-2 -72 -36 -112.5t-102 -40.5t-102 40.5zM522 490q-28 0 -45 -11q127 -36 127 -144q0 -87 -69 -125.5t-195 -38.5q-71 0 -123 13q-31 -2 -54.5 -10.5t-23.5 -22.5q0 -15 13 -22.5t41 -12
t93 -10.5l170 -16q72 -7 114.5 -22.5t62 -45t19.5 -77.5q0 -64 -46.5 -105.5t-119.5 -60.5t-156 -19q-119 0 -195.5 32.5t-76.5 98.5q0 42 33 65t87 30q-114 27 -114 107q0 87 106 106q-94 41 -94 136q0 87 68.5 124t195.5 37q61 -2 106 -10q29 44 81 72.5t125 28.5
l-24 -115h-11l-25 7q-40 11 -70 11zM403.5 229.5q16.5 33.5 16.5 105.5q0 69 -16.5 102.5t-63.5 33.5t-63.5 -33.5t-16.5 -102.5q0 -72 16.5 -105.5t63.5 -33.5t63.5 33.5zM208 -20q-13 -28 -13 -71q0 -62 30 -92t112 -30q96 0 149 23.5t53 69.5q0 26 -10.5 39.5t-34.5 21
t-71 12.5l-141 16q-53 7 -74 11z" />
    <glyph glyph-name="gdotaccent" unicode="&#x121;" horiz-adv-x="692" 
d="M283 588q-24 19 -24 56t24 56t63 19t63 -19t24 -56t-24 -56t-63 -19t-63 19zM522 490q-28 0 -45 -11q127 -36 127 -144q0 -87 -69 -125.5t-195 -38.5q-71 0 -123 13q-31 -2 -54.5 -10.5t-23.5 -22.5q0 -15 13 -22.5t41 -12t93 -10.5l170 -16q72 -7 114.5 -22.5t62 -45
t19.5 -77.5q0 -64 -46.5 -105.5t-119.5 -60.5t-156 -19q-119 0 -195.5 32.5t-76.5 98.5q0 42 33 65t87 30q-114 27 -114 107q0 87 106 106q-94 41 -94 136q0 87 68.5 124t195.5 37q61 -2 106 -10q29 44 81 72.5t125 28.5l-24 -115h-11l-25 7q-40 11 -70 11zM403.5 229.5
q16.5 33.5 16.5 105.5q0 69 -16.5 102.5t-63.5 33.5t-63.5 -33.5t-16.5 -102.5q0 -72 16.5 -105.5t63.5 -33.5t63.5 33.5zM208 -20q-13 -28 -13 -71q0 -62 30 -92t112 -30q96 0 149 23.5t53 69.5q0 26 -10.5 39.5t-34.5 21t-71 12.5l-141 16q-53 7 -74 11z" />
    <glyph glyph-name="gcommaaccent" unicode="&#x123;" horiz-adv-x="692" 
d="M352 718q38 0 57 -20.5t19 -52.5t-21.5 -54t-58.5 -22q-39 0 -61.5 21.5t-22.5 62.5q0 56 32 109.5t82 91.5l18 -17q-33 -34 -45.5 -60t-13.5 -60q5 1 15 1zM522 490q-28 0 -45 -11q127 -36 127 -144q0 -87 -69 -125.5t-195 -38.5q-71 0 -123 13q-31 -2 -54.5 -10.5
t-23.5 -22.5q0 -15 13 -22.5t41 -12t93 -10.5l170 -16q72 -7 114.5 -22.5t62 -45t19.5 -77.5q0 -64 -46.5 -105.5t-119.5 -60.5t-156 -19q-119 0 -195.5 32.5t-76.5 98.5q0 42 33 65t87 30q-114 27 -114 107q0 87 106 106q-94 41 -94 136q0 87 68.5 124t195.5 37
q61 -2 106 -10q29 44 81 72.5t125 28.5l-24 -115h-11l-25 7q-40 11 -70 11zM403.5 229.5q16.5 33.5 16.5 105.5q0 69 -16.5 102.5t-63.5 33.5t-63.5 -33.5t-16.5 -102.5q0 -72 16.5 -105.5t63.5 -33.5t63.5 33.5zM208 -20q-13 -28 -13 -71q0 -62 30 -92t112 -30
q96 0 149 23.5t53 69.5q0 26 -10.5 39.5t-34.5 21t-71 12.5l-141 16q-53 7 -74 11z" />
    <glyph glyph-name="hcircumflex" unicode="&#x125;" horiz-adv-x="750" 
d="M347 795l-11 -15q-73 25 -149 69q-76 -44 -149 -69l-11 15q72 59 134 137h52q59 -74 134 -137zM673.5 33q4.5 -4 19.5 -7l35 -8v-18h-208q-27 0 -39 14t-12 42v304q0 45 -14.5 64t-48.5 19q-60 0 -123 -50v-345q0 -11 4.5 -15.5t18.5 -7.5l34 -7v-18h-316v18l35 8
q15 3 19.5 7t4.5 15v604q0 11 -4.5 15t-19.5 7l-35 8v18l240 30h19v-306q38 31 92 52.5t121 21.5q93 0 133 -39t40 -117v-294q0 -11 4.5 -15z" />
    <glyph glyph-name="hbar" unicode="&#x127;" horiz-adv-x="750" 
d="M83 602v50q0 11 -4.5 15t-19.5 7l-35 8v18l240 30h19v-128h161v-24h-161v-154q38 31 92 52.5t121 21.5q93 0 133 -39t40 -117v-294q0 -11 4.5 -15t19.5 -7l35 -8v-18h-208q-27 0 -39 14t-12 42v304q0 45 -14.5 64t-48.5 19q-60 0 -123 -50v-345q0 -11 4.5 -15.5
t18.5 -7.5l34 -7v-18h-316v18l35 8q15 3 19.5 7t4.5 15v530h-59v24h59z" />
    <glyph glyph-name="dotlessi" unicode="&#x131;" horiz-adv-x="370" 
d="M26 18l35 8q15 3 19.5 7t4.5 15v378q0 11 -4.5 15t-19.5 7l-35 8v18l240 30h19v-456q0 -11 4.5 -15t19.5 -7l35 -8v-18h-318v18z" />
    <glyph glyph-name="igrave" unicode="&#xec;" horiz-adv-x="370" 
d="M166 649.5q49 -37.5 58 -44.5l38 -28l-5 -11q-50 8 -116.5 26.5t-109.5 38.5q1 28 17 52t39 35q30 -31 79 -68.5zM26 18l35 8q15 3 19.5 7t4.5 15v378q0 11 -4.5 15t-19.5 7l-35 8v18l240 30h19v-456q0 -11 4.5 -15t19.5 -7l35 -8v-18h-318v18z" />
    <glyph glyph-name="iacute" unicode="&#xed;" horiz-adv-x="370" 
d="M322 683q16 -24 17 -52q-43 -20 -109.5 -38.5t-116.5 -26.5l-5 11l38 28q9 7 58 44.5t79 68.5q23 -11 39 -35zM26 18l35 8q15 3 19.5 7t4.5 15v378q0 11 -4.5 15t-19.5 7l-35 8v18l240 30h19v-456q0 -11 4.5 -15t19.5 -7l35 -8v-18h-318v18z" />
    <glyph glyph-name="ibreve" unicode="&#x12d;" horiz-adv-x="370" 
d="M83 606.5q-34 40.5 -36 112.5h20q10 -40 35.5 -58t82.5 -18t82.5 18t35.5 58h20q-2 -72 -36 -112.5t-102 -40.5t-102 40.5zM26 18l35 8q15 3 19.5 7t4.5 15v378q0 11 -4.5 15t-19.5 7l-35 8v18l240 30h19v-456q0 -11 4.5 -15t19.5 -7l35 -8v-18h-318v18z" />
    <glyph glyph-name="icircumflex" unicode="&#xee;" horiz-adv-x="370" 
d="M345 581l-11 -15q-73 25 -149 69q-76 -44 -149 -69l-11 15q72 59 134 137h52q59 -74 134 -137zM26 18l35 8q15 3 19.5 7t4.5 15v378q0 11 -4.5 15t-19.5 7l-35 8v18l240 30h19v-456q0 -11 4.5 -15t19.5 -7l35 -8v-18h-318v18z" />
    <glyph glyph-name="itilde" unicode="&#x129;" horiz-adv-x="370" 
d="M225.5 573q-26.5 9 -93.5 36l-36 14q-9 4 -23 4q-12 0 -23 -5t-18 -14l-24 -30l-12 5q15 39 26.5 63t31 43t46.5 19q18 0 44.5 -9t93.5 -36l36 -14q9 -4 23 -4q12 0 23 5t18 14l24 30l12 -5q-15 -39 -26.5 -63t-31 -43t-46.5 -19q-18 0 -44.5 9zM26 18l35 8q15 3 19.5 7
t4.5 15v378q0 11 -4.5 15t-19.5 7l-35 8v18l240 30h19v-456q0 -11 4.5 -15t19.5 -7l35 -8v-18h-318v18z" />
    <glyph glyph-name="idieresis" unicode="&#xef;" horiz-adv-x="370" 
d="M10.5 594q-21.5 21 -21.5 52t21.5 52t55.5 21t55.5 -21t21.5 -52t-21.5 -52t-55.5 -21t-55.5 21zM248.5 594q-21.5 21 -21.5 52t21.5 52t55.5 21t55.5 -21t21.5 -52t-21.5 -52t-55.5 -21t-55.5 21zM26 18l35 8q15 3 19.5 7t4.5 15v378q0 11 -4.5 15t-19.5 7l-35 8v18
l240 30h19v-456q0 -11 4.5 -15t19.5 -7l35 -8v-18h-318v18z" />
    <glyph glyph-name="imacron" unicode="&#x12b;" horiz-adv-x="370" 
d="M375 608v-24h-380v24h380zM26 18l35 8q15 3 19.5 7t4.5 15v378q0 11 -4.5 15t-19.5 7l-35 8v18l240 30h19v-456q0 -11 4.5 -15t19.5 -7l35 -8v-18h-318v18z" />
    <glyph glyph-name="iogonek" unicode="&#x12f;" horiz-adv-x="370" 
d="M110 583.5q-28 21.5 -28 62.5t28 62.5t75 21.5t75 -21.5t28 -62.5t-28 -62.5t-75 -21.5t-75 21.5zM173 -205q-52 0 -79 19t-27 55q0 48 36.5 81t95.5 50h-173v18l35 8q15 3 19.5 7t4.5 15v378q0 11 -4.5 15t-19.5 7l-35 8v18l240 30h19v-456q0 -11 4.5 -15t19.5 -7l35 -8
v-18h-118q-33 -16 -47 -41.5t-14 -64.5q0 -31 13.5 -45t44.5 -14q24 0 53 23l7 -11q-46 -52 -110 -52z" />
    <glyph glyph-name="uni0237" unicode="&#x237;" horiz-adv-x="388" 
d="M100.5 441q-4.5 4 -19.5 7l-35 8v18l240 30h19v-535q0 -107 -44 -158t-151 -51q-106 0 -163 52l13 19q18 -16 41 -25.5t47 -9.5q31 0 44 20.5t13 81.5v528q0 11 -4.5 15z" />
    <glyph glyph-name="jcircumflex" unicode="&#x135;" horiz-adv-x="388" 
d="M354 581l-11 -15q-73 25 -149 69q-76 -44 -149 -69l-11 15q72 59 134 137h52q59 -74 134 -137zM100.5 441q-4.5 4 -19.5 7l-35 8v18l240 30h19v-535q0 -107 -44 -158t-151 -51q-106 0 -163 52l13 19q18 -16 41 -25.5t47 -9.5q31 0 44 20.5t13 81.5v528q0 11 -4.5 15z" />
    <glyph glyph-name="kcommaaccent" unicode="&#x137;" horiz-adv-x="748" 
d="M450 461l-11 1v18q60 18 117 18q59 0 82 -21t23 -61q0 -55 -42 -100t-147 -60q27 -7 45 -21t41 -43l111 -146q9 -11 15 -15.5t17 -6.5l31 -6v-18h-192q-27 0 -42 8.5t-26 25.5l-155 216h-34v-202q0 -11 4.5 -15.5t18.5 -7.5l34 -7v-18h-316v18l35 8q15 3 19.5 7t4.5 15
v604q0 11 -4.5 15t-19.5 7l-35 8v18l240 30h19v-454h58q79 0 110 34.5t31 97.5q0 49 -32 53zM398 -207q-38 0 -57 20.5t-19 52.5t21.5 54t58.5 22q39 0 61.5 -21.5t22.5 -62.5q0 -56 -32 -109.5t-82 -91.5l-18 17q33 34 45.5 60t13.5 60q-5 -1 -15 -1z" />
    <glyph glyph-name="kgreenlandic" unicode="&#x138;" horiz-adv-x="748" 
d="M732 18v-18h-192q-27 0 -42 8.5t-26 25.5l-155 216h-34v-202q0 -11 4.5 -15.5t18.5 -7.5l34 -7v-18h-316v18l35 8q15 3 19.5 7t4.5 15v378q0 11 -4.5 15t-19.5 7l-35 8v18l242 30h17v-228h58q79 0 110 34.5t31 97.5q0 49 -32 53l-11 1v18q60 18 117 18q59 0 82 -21
t23 -61q0 -56 -42 -101t-147 -59q28 -7 46 -21t40 -43l111 -146q9 -11 15 -15.5t17 -6.5z" />
    <glyph glyph-name="lacute" unicode="&#x13a;" horiz-adv-x="366" 
d="M351 897q16 -24 17 -52q-43 -20 -109.5 -38.5t-116.5 -26.5l-5 11l38 28q9 7 58 44.5t79 68.5q23 -11 39 -35zM24 18l35 8q15 3 19.5 7t4.5 15v604q0 11 -4.5 15t-19.5 7l-35 8v18l240 30h19v-682q0 -11 4.5 -15t19.5 -7l35 -8v-18h-318v18z" />
    <glyph glyph-name="lcaron" unicode="&#x13e;" horiz-adv-x="556" 
d="M24 18l35 8q15 3 19.5 7t4.5 15v604q0 11 -4.5 15t-19.5 7l-35 8v18l240 30h19v-682q0 -11 4.5 -15t19.5 -7l35 -8v-18h-318v18zM442 559q-38 0 -57 20.5t-19 52.5t21.5 54t58.5 22q39 0 61.5 -21.5t22.5 -62.5q0 -56 -32 -109.5t-82 -91.5l-18 17q33 34 45.5 60t13.5 60
q-5 -1 -15 -1z" />
    <glyph glyph-name="lcommaaccent" unicode="&#x13c;" horiz-adv-x="366" 
d="M24 18l35 8q15 3 19.5 7t4.5 15v604q0 11 -4.5 15t-19.5 7l-35 8v18l240 30h19v-682q0 -11 4.5 -15t19.5 -7l35 -8v-18h-318v18zM177 -207q-38 0 -57 20.5t-19 52.5t21.5 54t58.5 22q39 0 61.5 -21.5t22.5 -62.5q0 -56 -32 -109.5t-82 -91.5l-18 17q33 34 45.5 60
t13.5 60q-5 -1 -15 -1z" />
    <glyph glyph-name="lslash" unicode="&#x142;" horiz-adv-x="366" 
d="M24 18l35 8q15 3 19.5 7t4.5 15v276l-59 -20v28l59 20v300q0 11 -4.5 15t-19.5 7l-35 8v18l240 30h19v-308l59 21v-28l-59 -21v-346q0 -11 4.5 -15t19.5 -7l35 -8v-18h-318v18z" />
    <glyph glyph-name="ldot" unicode="&#x140;" horiz-adv-x="594" 
d="M24 18l35 8q15 3 19.5 7t4.5 15v604q0 11 -4.5 15t-19.5 7l-35 8v18l240 30h19v-682q0 -11 4.5 -15t19.5 -7l35 -8v-18h-318v18zM420.5 220q-24.5 24 -24.5 58t24.5 58t59.5 24t59.5 -24t24.5 -58t-24.5 -58t-59.5 -24t-59.5 24z" />
    <glyph glyph-name="nacute" unicode="&#x144;" horiz-adv-x="750" 
d="M543 683q16 -24 17 -52q-43 -20 -109.5 -38.5t-116.5 -26.5l-5 11l38 28q9 7 58 44.5t79 68.5q23 -11 39 -35zM673.5 33q4.5 -4 19.5 -7l35 -8v-18h-208q-27 0 -39 14t-12 42v304q0 45 -14.5 64t-48.5 19q-60 0 -123 -50v-345q0 -11 4.5 -15.5t18.5 -7.5l34 -7v-18h-316
v18l35 8q15 3 19.5 7t4.5 15v378q0 11 -4.5 15t-19.5 7l-35 8v18l240 30h17v-81q38 31 93 53t122 22q93 0 133 -39t40 -117v-294q0 -11 4.5 -15z" />
    <glyph glyph-name="ncaron" unicode="&#x148;" horiz-adv-x="750" 
d="M215 703l11 15q73 -25 149 -69q76 44 149 69l11 -15q-75 -63 -134 -137h-52q-62 78 -134 137zM673.5 33q4.5 -4 19.5 -7l35 -8v-18h-208q-27 0 -39 14t-12 42v304q0 45 -14.5 64t-48.5 19q-60 0 -123 -50v-345q0 -11 4.5 -15.5t18.5 -7.5l34 -7v-18h-316v18l35 8
q15 3 19.5 7t4.5 15v378q0 11 -4.5 15t-19.5 7l-35 8v18l240 30h17v-81q38 31 93 53t122 22q93 0 133 -39t40 -117v-294q0 -11 4.5 -15z" />
    <glyph glyph-name="ntilde" unicode="&#xf1;" horiz-adv-x="750" 
d="M415.5 573q-26.5 9 -93.5 36l-36 14q-9 4 -23 4q-12 0 -23 -5t-18 -14l-24 -30l-12 5q15 39 26.5 63t31 43t46.5 19q18 0 44.5 -9t93.5 -36l36 -14q9 -4 23 -4q12 0 23 5t18 14l24 30l12 -5q-15 -39 -26.5 -63t-31 -43t-46.5 -19q-18 0 -44.5 9zM673.5 33q4.5 -4 19.5 -7
l35 -8v-18h-208q-27 0 -39 14t-12 42v304q0 45 -14.5 64t-48.5 19q-60 0 -123 -50v-345q0 -11 4.5 -15.5t18.5 -7.5l34 -7v-18h-316v18l35 8q15 3 19.5 7t4.5 15v378q0 11 -4.5 15t-19.5 7l-35 8v18l240 30h17v-81q38 31 93 53t122 22q93 0 133 -39t40 -117v-294
q0 -11 4.5 -15z" />
    <glyph glyph-name="ncommaaccent" unicode="&#x146;" horiz-adv-x="750" 
d="M673.5 33q4.5 -4 19.5 -7l35 -8v-18h-208q-27 0 -39 14t-12 42v304q0 45 -14.5 64t-48.5 19q-60 0 -123 -50v-345q0 -11 4.5 -15.5t18.5 -7.5l34 -7v-18h-316v18l35 8q15 3 19.5 7t4.5 15v378q0 11 -4.5 15t-19.5 7l-35 8v18l240 30h17v-81q38 31 93 53t122 22
q93 0 133 -39t40 -117v-294q0 -11 4.5 -15zM379 -207q-38 0 -57 20.5t-19 52.5t21.5 54t58.5 22q39 0 61.5 -21.5t22.5 -62.5q0 -56 -32 -109.5t-82 -91.5l-18 17q33 34 45.5 60t13.5 60q-5 -1 -15 -1z" />
    <glyph glyph-name="napostrophe" unicode="&#x149;" horiz-adv-x="940" 
d="M76 559q-38 0 -57 20.5t-19 52.5t21.5 54t58.5 22q39 0 61.5 -21.5t22.5 -62.5q0 -56 -32 -109.5t-82 -91.5l-18 17q33 34 45.5 60t13.5 60q-5 -1 -15 -1zM863.5 33q4.5 -4 19.5 -7l35 -8v-18h-208q-27 0 -39 14t-12 42v304q0 45 -14.5 64t-48.5 19q-60 0 -123 -50v-345
q0 -11 4.5 -15.5t18.5 -7.5l34 -7v-18h-316v18l35 8q15 3 19.5 7t4.5 15v378q0 11 -4.5 15t-19.5 7l-35 8v18l240 30h17v-81q38 31 93 53t122 22q93 0 133 -39t40 -117v-294q0 -11 4.5 -15z" />
    <glyph glyph-name="ograve" unicode="&#xf2;" horiz-adv-x="724" 
d="M323 649.5q49 -37.5 58 -44.5l38 -28l-5 -11q-50 8 -116.5 26.5t-109.5 38.5q1 28 17 52t39 35q30 -31 79 -68.5zM593.5 51q-80.5 -63 -231.5 -63t-231.5 63t-80.5 192t80.5 192t231.5 63t231.5 -63t80.5 -192t-80.5 -192zM266.5 106q8.5 -48 30.5 -70t65 -22t65 22
t30.5 70t8.5 137t-8.5 137t-30.5 70t-65 22t-65 -22t-30.5 -70t-8.5 -137t8.5 -137z" />
    <glyph glyph-name="oacute" unicode="&#xf3;" horiz-adv-x="724" 
d="M519 683q16 -24 17 -52q-43 -20 -109.5 -38.5t-116.5 -26.5l-5 11l38 28q9 7 58 44.5t79 68.5q23 -11 39 -35zM593.5 51q-80.5 -63 -231.5 -63t-231.5 63t-80.5 192t80.5 192t231.5 63t231.5 -63t80.5 -192t-80.5 -192zM266.5 106q8.5 -48 30.5 -70t65 -22t65 22t30.5 70
t8.5 137t-8.5 137t-30.5 70t-65 22t-65 -22t-30.5 -70t-8.5 -137t8.5 -137z" />
    <glyph glyph-name="ocircumflex" unicode="&#xf4;" horiz-adv-x="724" 
d="M522 581l-11 -15q-73 25 -149 69q-76 -44 -149 -69l-11 15q72 59 134 137h52q59 -74 134 -137zM593.5 51q-80.5 -63 -231.5 -63t-231.5 63t-80.5 192t80.5 192t231.5 63t231.5 -63t80.5 -192t-80.5 -192zM266.5 106q8.5 -48 30.5 -70t65 -22t65 22t30.5 70t8.5 137
t-8.5 137t-30.5 70t-65 22t-65 -22t-30.5 -70t-8.5 -137t8.5 -137z" />
    <glyph glyph-name="otilde" unicode="&#xf5;" horiz-adv-x="724" 
d="M402.5 573q-26.5 9 -93.5 36l-36 14q-9 4 -23 4q-12 0 -23 -5t-18 -14l-24 -30l-12 5q15 39 26.5 63t31 43t46.5 19q18 0 44.5 -9t93.5 -36l36 -14q9 -4 23 -4q12 0 23 5t18 14l24 30l12 -5q-15 -39 -26.5 -63t-31 -43t-46.5 -19q-18 0 -44.5 9zM593.5 51
q-80.5 -63 -231.5 -63t-231.5 63t-80.5 192t80.5 192t231.5 63t231.5 -63t80.5 -192t-80.5 -192zM266.5 106q8.5 -48 30.5 -70t65 -22t65 22t30.5 70t8.5 137t-8.5 137t-30.5 70t-65 22t-65 -22t-30.5 -70t-8.5 -137t8.5 -137z" />
    <glyph glyph-name="odieresis" unicode="&#xf6;" horiz-adv-x="724" 
d="M187.5 594q-21.5 21 -21.5 52t21.5 52t55.5 21t55.5 -21t21.5 -52t-21.5 -52t-55.5 -21t-55.5 21zM425.5 594q-21.5 21 -21.5 52t21.5 52t55.5 21t55.5 -21t21.5 -52t-21.5 -52t-55.5 -21t-55.5 21zM593.5 51q-80.5 -63 -231.5 -63t-231.5 63t-80.5 192t80.5 192
t231.5 63t231.5 -63t80.5 -192t-80.5 -192zM266.5 106q8.5 -48 30.5 -70t65 -22t65 22t30.5 70t8.5 137t-8.5 137t-30.5 70t-65 22t-65 -22t-30.5 -70t-8.5 -137t8.5 -137z" />
    <glyph glyph-name="omacron" unicode="&#x14d;" horiz-adv-x="724" 
d="M552 608v-24h-380v24h380zM593.5 51q-80.5 -63 -231.5 -63t-231.5 63t-80.5 192t80.5 192t231.5 63t231.5 -63t80.5 -192t-80.5 -192zM266.5 106q8.5 -48 30.5 -70t65 -22t65 22t30.5 70t8.5 137t-8.5 137t-30.5 70t-65 22t-65 -22t-30.5 -70t-8.5 -137t8.5 -137z" />
    <glyph glyph-name="obreve" unicode="&#x14f;" horiz-adv-x="724" 
d="M260 606.5q-34 40.5 -36 112.5h20q10 -40 35.5 -58t82.5 -18t82.5 18t35.5 58h20q-2 -72 -36 -112.5t-102 -40.5t-102 40.5zM593.5 51q-80.5 -63 -231.5 -63t-231.5 63t-80.5 192t80.5 192t231.5 63t231.5 -63t80.5 -192t-80.5 -192zM266.5 106q8.5 -48 30.5 -70t65 -22
t65 22t30.5 70t8.5 137t-8.5 137t-30.5 70t-65 22t-65 -22t-30.5 -70t-8.5 -137t8.5 -137z" />
    <glyph glyph-name="ohungarumlaut" unicode="&#x151;" horiz-adv-x="724" 
d="M402 723q22 -19 30 -45q-39 -30 -94.5 -61.5t-102.5 -52.5l-8 9l24 31q75 97 104 143q25 -5 47 -24zM607 723q22 -19 30 -45q-39 -30 -94.5 -61.5t-102.5 -52.5l-8 9l24 31q75 97 104 143q25 -5 47 -24zM593.5 51q-80.5 -63 -231.5 -63t-231.5 63t-80.5 192t80.5 192
t231.5 63t231.5 -63t80.5 -192t-80.5 -192zM266.5 106q8.5 -48 30.5 -70t65 -22t65 22t30.5 70t8.5 137t-8.5 137t-30.5 70t-65 22t-65 -22t-30.5 -70t-8.5 -137t8.5 -137z" />
    <glyph glyph-name="oslash" unicode="&#xf8;" horiz-adv-x="724" 
d="M593.5 51q-80.5 -63 -231.5 -63q-82 0 -144 18l-37 -55l-23 16l33 49q-141 57 -141 227q0 129 80.5 192t231.5 63q83 0 143 -19l38 56l23 -16l-33 -49q141 -57 141 -227q0 -129 -80.5 -192zM263 123l190 279q-11 37 -32.5 53.5t-58.5 16.5q-43 0 -65 -22t-30.5 -70
t-8.5 -137q0 -80 5 -120zM460 363l-189 -279q10 -37 31.5 -53.5t59.5 -16.5q43 0 65 22t30.5 70t8.5 137q0 72 -6 120z" />
    <glyph glyph-name="oslashacute" unicode="&#x1ff;" horiz-adv-x="724" 
d="M519 683q16 -24 17 -52q-43 -20 -109.5 -38.5t-116.5 -26.5l-5 11l38 28q9 7 58 44.5t79 68.5q23 -11 39 -35zM593.5 51q-80.5 -63 -231.5 -63q-82 0 -144 18l-37 -55l-23 16l33 49q-141 57 -141 227q0 129 80.5 192t231.5 63q83 0 143 -19l38 56l23 -16l-33 -49
q141 -57 141 -227q0 -129 -80.5 -192zM263 123l190 279q-11 37 -32.5 53.5t-58.5 16.5q-43 0 -65 -22t-30.5 -70t-8.5 -137q0 -80 5 -120zM460 363l-189 -279q10 -37 31.5 -53.5t59.5 -16.5q43 0 65 22t30.5 70t8.5 137q0 72 -6 120z" />
    <glyph glyph-name="oe" unicode="&#x153;" horiz-adv-x="1068" 
d="M565 445q78 53 203 53q83 0 140 -26t84.5 -69.5t27.5 -96.5q0 -27 -5 -50h-349q1 -111 35.5 -169t129.5 -58q47 0 83.5 14t75.5 40l13 -19q-93 -76 -246 -76q-118 0 -191 53q-78 -53 -204 -53q-151 0 -231.5 63t-80.5 192t80.5 192t231.5 63q125 0 203 -53zM687 428
q-20 -46 -21 -146h168v75q0 61 -14.5 89t-57.5 28q-55 0 -75 -46zM266.5 106q8.5 -48 30.5 -70t65 -22t65 22t30.5 70t8.5 137t-8.5 137t-30.5 70t-65 22t-65 -22t-30.5 -70t-8.5 -137t8.5 -137z" />
    <glyph glyph-name="racute" unicode="&#x155;" horiz-adv-x="540" 
d="M378 683q16 -24 17 -52q-43 -20 -109.5 -38.5t-116.5 -26.5l-5 11l38 28q9 7 58 44.5t79 68.5q23 -11 39 -35zM458 495q33 0 52 -8l-15 -156h-7l-205 45v-328q0 -11 4.5 -15.5t18.5 -7.5l34 -7v-18h-316v18l35 8q15 3 19.5 7t4.5 15v378q0 11 -4.5 15t-19.5 7l-35 8v18
l240 30h17v-98q87 89 177 89z" />
    <glyph glyph-name="rcaron" unicode="&#x159;" horiz-adv-x="540" 
d="M120 703l11 15q73 -25 149 -69q76 44 149 69l11 -15q-75 -63 -134 -137h-52q-62 78 -134 137zM458 495q33 0 52 -8l-15 -156h-7l-205 45v-328q0 -11 4.5 -15.5t18.5 -7.5l34 -7v-18h-316v18l35 8q15 3 19.5 7t4.5 15v378q0 11 -4.5 15t-19.5 7l-35 8v18l240 30h17v-98
q87 89 177 89z" />
    <glyph glyph-name="rcommaaccent" unicode="&#x157;" horiz-adv-x="540" 
d="M458 495q33 0 52 -8l-15 -156h-7l-205 45v-328q0 -11 4.5 -15.5t18.5 -7.5l34 -7v-18h-316v18l35 8q15 3 19.5 7t4.5 15v378q0 11 -4.5 15t-19.5 7l-35 8v18l240 30h17v-98q87 89 177 89zM175 -207q-38 0 -57 20.5t-19 52.5t21.5 54t58.5 22q39 0 61.5 -21.5t22.5 -62.5
q0 -56 -32 -109.5t-82 -91.5l-18 17q33 34 45.5 60t13.5 60q-5 -1 -15 -1z" />
    <glyph glyph-name="sacute" unicode="&#x15b;" horiz-adv-x="556" 
d="M426 683q16 -24 17 -52q-43 -20 -109.5 -38.5t-116.5 -26.5l-5 11l38 28q9 7 58 44.5t79 68.5q23 -11 39 -35zM337.5 26q22.5 14 22.5 49q0 24 -12 39t-38 27t-83 33q-97 35 -138 72.5t-41 103.5q0 75 56 111.5t170 36.5q58 0 114 -11.5t87 -26.5l-12 -120h-17
q-27 67 -65 101.5t-110 34.5q-46 0 -71 -12.5t-25 -45.5q0 -23 11.5 -37t36 -26t81.5 -35q82 -33 124 -57t62 -55t20 -78q0 -75 -57.5 -108.5t-172.5 -33.5q-61 0 -127.5 11.5t-99.5 26.5l14 136h17q18 -79 64 -114.5t120 -35.5q47 0 69.5 14z" />
    <glyph glyph-name="scircumflex" unicode="&#x15d;" horiz-adv-x="556" 
d="M428 581l-11 -15q-73 25 -149 69q-76 -44 -149 -69l-11 15q72 59 134 137h52q59 -74 134 -137zM337.5 26q22.5 14 22.5 49q0 24 -12 39t-38 27t-83 33q-97 35 -138 72.5t-41 103.5q0 75 56 111.5t170 36.5q58 0 114 -11.5t87 -26.5l-12 -120h-17q-27 67 -65 101.5
t-110 34.5q-46 0 -71 -12.5t-25 -45.5q0 -23 11.5 -37t36 -26t81.5 -35q82 -33 124 -57t62 -55t20 -78q0 -75 -57.5 -108.5t-172.5 -33.5q-61 0 -127.5 11.5t-99.5 26.5l14 136h17q18 -79 64 -114.5t120 -35.5q47 0 69.5 14z" />
    <glyph glyph-name="scaron" unicode="&#x161;" horiz-adv-x="556" 
d="M108 703l11 15q73 -25 149 -69q76 44 149 69l11 -15q-75 -63 -134 -137h-52q-62 78 -134 137zM337.5 26q22.5 14 22.5 49q0 24 -12 39t-38 27t-83 33q-97 35 -138 72.5t-41 103.5q0 75 56 111.5t170 36.5q58 0 114 -11.5t87 -26.5l-12 -120h-17q-27 67 -65 101.5
t-110 34.5q-46 0 -71 -12.5t-25 -45.5q0 -23 11.5 -37t36 -26t81.5 -35q82 -33 124 -57t62 -55t20 -78q0 -75 -57.5 -108.5t-172.5 -33.5q-61 0 -127.5 11.5t-99.5 26.5l14 136h17q18 -79 64 -114.5t120 -35.5q47 0 69.5 14z" />
    <glyph glyph-name="scedilla" unicode="&#x15f;" horiz-adv-x="556" 
d="M127.5 4q-48.5 10 -74.5 22l14 136h17q18 -79 64 -114.5t120 -35.5q47 0 69.5 14t22.5 49q0 24 -12 39t-38 27t-83 33q-97 35 -138 72.5t-41 103.5q0 75 56 111.5t170 36.5q58 0 114 -11.5t87 -26.5l-12 -120h-17q-27 67 -65 101.5t-110 34.5q-46 0 -71 -12.5t-25 -45.5
q0 -23 11.5 -37t36 -26t81.5 -35q82 -33 124 -57t62 -55t20 -78q0 -75 -57.5 -108.5t-172.5 -33.5q-20 0 -30 1l-2 -25q65 -3 101.5 -24.5t36.5 -62.5q0 -42 -34.5 -63.5t-86.5 -21.5q-25 0 -52 6t-43 14l7 18q28 -13 69 -13q29 0 42.5 9.5t13.5 32.5q0 29 -21.5 43.5
t-61.5 21.5l9 66q-52 4 -100.5 14z" />
    <glyph glyph-name="scommaaccent" unicode="&#x219;" horiz-adv-x="556" 
d="M337.5 26q22.5 14 22.5 49q0 24 -12 39t-38 27t-83 33q-97 35 -138 72.5t-41 103.5q0 75 56 111.5t170 36.5q58 0 114 -11.5t87 -26.5l-12 -120h-17q-27 67 -65 101.5t-110 34.5q-46 0 -71 -12.5t-25 -45.5q0 -23 11.5 -37t36 -26t81.5 -35q82 -33 124 -57t62 -55t20 -78
q0 -75 -57.5 -108.5t-172.5 -33.5q-61 0 -127.5 11.5t-99.5 26.5l14 136h17q18 -79 64 -114.5t120 -35.5q47 0 69.5 14zM272 -207q-38 0 -57 20.5t-19 52.5t21.5 54t58.5 22q39 0 61.5 -21.5t22.5 -62.5q0 -56 -32 -109.5t-82 -91.5l-18 17q33 34 45.5 60t13.5 60
q-5 -1 -15 -1z" />
    <glyph glyph-name="germandbls" unicode="&#xdf;" horiz-adv-x="771" 
d="M85 486v60q0 90 80.5 137t213.5 47q123 0 203 -35t80 -105q0 -56 -49.5 -87.5t-137.5 -51.5q252 -112 252 -284q0 -61 -31 -100.5t-80 -58t-105 -18.5q-106 0 -163 52l13 19q40 -31 93 -31t74.5 20.5t21.5 72.5q0 78 -45.5 138.5t-135.5 131.5v23q81 45 109.5 97t28.5 98
q0 97 -107 97q-48 0 -73.5 -17t-34.5 -48.5t-9 -82.5v-560h-257v18l35 8q15 3 19.5 7t4.5 15v412h-65v26h65z" />
    <glyph glyph-name="tcaron" unicode="&#x165;" horiz-adv-x="636" 
d="M522 559q-38 0 -57 20.5t-19 52.5t21.5 54t58.5 22q39 0 61.5 -21.5t22.5 -62.5q0 -56 -32 -109.5t-82 -91.5l-18 17q33 34 45.5 60t13.5 60q-5 -1 -15 -1zM22 460v26q31 0 46 5t30 18l178 160h9v-183h129v-26h-129v-336q0 -48 11.5 -67.5t39.5 -19.5q22 0 39 9t37 31
l16 -19q-63 -70 -186 -70q-83 0 -119 35t-36 109v328h-65z" />
    <glyph glyph-name="uni0163" unicode="&#x163;" horiz-adv-x="446" 
d="M22 460v26q31 0 46 5t30 18l178 160h9v-183h129v-26h-129v-336q0 -48 11.5 -67.5t39.5 -19.5q22 0 39 9t37 31l16 -19q-63 -70 -186 -70q-83 0 -119 35t-36 109v328h-65zM207 -207q-38 0 -57 20.5t-19 52.5t21.5 54t58.5 22q39 0 61.5 -21.5t22.5 -62.5q0 -56 -32 -109.5
t-82 -91.5l-18 17q33 34 45.5 60t13.5 60q-5 -1 -15 -1z" />
    <glyph glyph-name="uni021B" unicode="&#x21b;" horiz-adv-x="446" 
d="M22 460v26q31 0 46 5t30 18l178 160h9v-183h129v-26h-129v-336q0 -48 11.5 -67.5t39.5 -19.5q22 0 39 9t37 31l16 -19q-63 -70 -186 -70q-83 0 -119 35t-36 109v328h-65zM207 -207q-38 0 -57 20.5t-19 52.5t21.5 54t58.5 22q39 0 61.5 -21.5t22.5 -62.5q0 -56 -32 -109.5
t-82 -91.5l-18 17q33 34 45.5 60t13.5 60q-5 -1 -15 -1z" />
    <glyph glyph-name="tbar" unicode="&#x167;" horiz-adv-x="446" 
d="M87 308v152h-65v26q31 0 46 5t30 18l178 160h9v-183h129v-26h-129v-152h107v-24h-107v-160q0 -48 11.5 -67.5t39.5 -19.5q22 0 39 9t37 31l16 -19q-63 -70 -186 -70q-83 0 -119 35t-36 109v152h-65v24h65z" />
    <glyph glyph-name="thorn" unicode="&#xfe;" horiz-adv-x="746" 
d="M455 498q111 0 176 -60t65 -189q0 -133 -65 -196t-176 -63t-172 65v-233q0 -11 4.5 -15t19.5 -7l35 -8v-18h-318v18l35 8q15 3 19.5 7t4.5 15v830q0 11 -4.5 15t-19.5 7l-35 8v18l240 30h19v-282q67 50 172 50zM283 418v-329q23 -25 52 -40.5t61 -15.5q36 0 56.5 22
t29 68.5t8.5 125.5q0 111 -22 159t-77 48q-62 0 -108 -38z" />
    <glyph glyph-name="ugrave" unicode="&#xf9;" horiz-adv-x="746" 
d="M312 649.5q49 -37.5 58 -44.5l38 -28l-5 -11q-50 8 -116.5 26.5t-109.5 38.5q1 28 17 52t39 35q30 -31 79 -68.5zM458.5 441q-4.5 4 -19.5 7l-35 8v18l242 30h17v-456q0 -11 4.5 -15t19.5 -7l35 -8v-18h-203q-29 0 -41.5 12.5t-12.5 39.5v11q-36 -31 -91 -53t-122 -22
q-93 0 -133 39t-40 117v282q0 11 -4.5 15t-19.5 7l-35 8v18l242 30h17v-378q0 -45 14.5 -64t48.5 -19q60 0 121 50v333q0 11 -4.5 15z" />
    <glyph glyph-name="uacute" unicode="&#xfa;" horiz-adv-x="746" 
d="M500 683q16 -24 17 -52q-43 -20 -109.5 -38.5t-116.5 -26.5l-5 11l38 28q9 7 58 44.5t79 68.5q23 -11 39 -35zM458.5 441q-4.5 4 -19.5 7l-35 8v18l242 30h17v-456q0 -11 4.5 -15t19.5 -7l35 -8v-18h-203q-29 0 -41.5 12.5t-12.5 39.5v11q-36 -31 -91 -53t-122 -22
q-93 0 -133 39t-40 117v282q0 11 -4.5 15t-19.5 7l-35 8v18l242 30h17v-378q0 -45 14.5 -64t48.5 -19q60 0 121 50v333q0 11 -4.5 15z" />
    <glyph glyph-name="ucircumflex" unicode="&#xfb;" horiz-adv-x="746" 
d="M533 581l-11 -15q-73 25 -149 69q-76 -44 -149 -69l-11 15q72 59 134 137h52q59 -74 134 -137zM458.5 441q-4.5 4 -19.5 7l-35 8v18l242 30h17v-456q0 -11 4.5 -15t19.5 -7l35 -8v-18h-203q-29 0 -41.5 12.5t-12.5 39.5v11q-36 -31 -91 -53t-122 -22q-93 0 -133 39
t-40 117v282q0 11 -4.5 15t-19.5 7l-35 8v18l242 30h17v-378q0 -45 14.5 -64t48.5 -19q60 0 121 50v333q0 11 -4.5 15z" />
    <glyph glyph-name="utilde" unicode="&#x169;" horiz-adv-x="746" 
d="M413.5 573q-26.5 9 -93.5 36l-36 14q-9 4 -23 4q-12 0 -23 -5t-18 -14l-24 -30l-12 5q15 39 26.5 63t31 43t46.5 19q18 0 44.5 -9t93.5 -36l36 -14q9 -4 23 -4q12 0 23 5t18 14l24 30l12 -5q-15 -39 -26.5 -63t-31 -43t-46.5 -19q-18 0 -44.5 9zM458.5 441
q-4.5 4 -19.5 7l-35 8v18l242 30h17v-456q0 -11 4.5 -15t19.5 -7l35 -8v-18h-203q-29 0 -41.5 12.5t-12.5 39.5v11q-36 -31 -91 -53t-122 -22q-93 0 -133 39t-40 117v282q0 11 -4.5 15t-19.5 7l-35 8v18l242 30h17v-378q0 -45 14.5 -64t48.5 -19q60 0 121 50v333
q0 11 -4.5 15z" />
    <glyph glyph-name="udieresis" unicode="&#xfc;" horiz-adv-x="746" 
d="M198.5 594q-21.5 21 -21.5 52t21.5 52t55.5 21t55.5 -21t21.5 -52t-21.5 -52t-55.5 -21t-55.5 21zM436.5 594q-21.5 21 -21.5 52t21.5 52t55.5 21t55.5 -21t21.5 -52t-21.5 -52t-55.5 -21t-55.5 21zM458.5 441q-4.5 4 -19.5 7l-35 8v18l242 30h17v-456q0 -11 4.5 -15
t19.5 -7l35 -8v-18h-203q-29 0 -41.5 12.5t-12.5 39.5v11q-36 -31 -91 -53t-122 -22q-93 0 -133 39t-40 117v282q0 11 -4.5 15t-19.5 7l-35 8v18l242 30h17v-378q0 -45 14.5 -64t48.5 -19q60 0 121 50v333q0 11 -4.5 15z" />
    <glyph glyph-name="umacron" unicode="&#x16b;" horiz-adv-x="746" 
d="M563 608v-24h-380v24h380zM458.5 441q-4.5 4 -19.5 7l-35 8v18l242 30h17v-456q0 -11 4.5 -15t19.5 -7l35 -8v-18h-203q-29 0 -41.5 12.5t-12.5 39.5v11q-36 -31 -91 -53t-122 -22q-93 0 -133 39t-40 117v282q0 11 -4.5 15t-19.5 7l-35 8v18l242 30h17v-378
q0 -45 14.5 -64t48.5 -19q60 0 121 50v333q0 11 -4.5 15z" />
    <glyph glyph-name="ubreve" unicode="&#x16d;" horiz-adv-x="746" 
d="M271 606.5q-34 40.5 -36 112.5h20q10 -40 35.5 -58t82.5 -18t82.5 18t35.5 58h20q-2 -72 -36 -112.5t-102 -40.5t-102 40.5zM458.5 441q-4.5 4 -19.5 7l-35 8v18l242 30h17v-456q0 -11 4.5 -15t19.5 -7l35 -8v-18h-203q-29 0 -41.5 12.5t-12.5 39.5v11q-36 -31 -91 -53
t-122 -22q-93 0 -133 39t-40 117v282q0 11 -4.5 15t-19.5 7l-35 8v18l242 30h17v-378q0 -45 14.5 -64t48.5 -19q60 0 121 50v333q0 11 -4.5 15z" />
    <glyph glyph-name="uring" unicode="&#x16f;" horiz-adv-x="746" 
d="M454.5 732q32.5 -24 32.5 -71t-32.5 -71t-81.5 -24t-81.5 24t-32.5 71t32.5 71t81.5 24t81.5 -24zM406 602.5q10 19.5 10 58.5t-10 58.5t-33 19.5t-33 -19.5t-10 -58.5t10 -58.5t33 -19.5t33 19.5zM458.5 441q-4.5 4 -19.5 7l-35 8v18l242 30h17v-456q0 -11 4.5 -15
t19.5 -7l35 -8v-18h-203q-29 0 -41.5 12.5t-12.5 39.5v11q-36 -31 -91 -53t-122 -22q-93 0 -133 39t-40 117v282q0 11 -4.5 15t-19.5 7l-35 8v18l242 30h17v-378q0 -45 14.5 -64t48.5 -19q60 0 121 50v333q0 11 -4.5 15z" />
    <glyph glyph-name="uhungarumlaut" unicode="&#x171;" horiz-adv-x="746" 
d="M343 723q22 -19 30 -45q-39 -30 -94.5 -61.5t-102.5 -52.5l-8 9l24 31q75 97 104 143q25 -5 47 -24zM548 723q22 -19 30 -45q-39 -30 -94.5 -61.5t-102.5 -52.5l-8 9l24 31q75 97 104 143q25 -5 47 -24zM458.5 441q-4.5 4 -19.5 7l-35 8v18l242 30h17v-456q0 -11 4.5 -15
t19.5 -7l35 -8v-18h-203q-29 0 -41.5 12.5t-12.5 39.5v11q-36 -31 -91 -53t-122 -22q-93 0 -133 39t-40 117v282q0 11 -4.5 15t-19.5 7l-35 8v18l242 30h17v-378q0 -45 14.5 -64t48.5 -19q60 0 121 50v333q0 11 -4.5 15z" />
    <glyph glyph-name="uogonek" unicode="&#x173;" horiz-adv-x="746" 
d="M598.5 -42q-14.5 -26 -14.5 -64q0 -31 13.5 -45t44.5 -14q24 0 53 23l7 -11q-46 -52 -110 -52q-52 0 -79 19t-27 55q0 48 37 81t96 50h-100q-29 0 -41.5 12.5t-12.5 39.5v11q-36 -31 -91 -53t-122 -22q-93 0 -133 39t-40 117v282q0 11 -4.5 15t-19.5 7l-35 8v18l242 30
h17v-378q0 -45 14.5 -64t48.5 -19q60 0 121 50v333q0 11 -4.5 15t-19.5 7l-35 8v18l242 30h17v-456q0 -11 4.5 -15t19.5 -7l35 -8v-18h-76q-33 -16 -47.5 -42z" />
    <glyph glyph-name="wacute" unicode="&#x1e83;" horiz-adv-x="924" 
d="M620 683q16 -24 17 -52q-43 -20 -109.5 -38.5t-116.5 -26.5l-5 11l38 28q9 7 58 44.5t79 68.5q23 -11 39 -35zM634 465q-23 -5 -23 -19q0 -6 5 -16l116 -233l118 254q1 2 1 6q0 5 -5 7t-15 4l-26 3v15h115v-15l-26 -4q-12 -2 -17 -5t-10 -14l-203 -466h-18l-177 337
l-147 -337h-18l-242 462q-5 9 -11.5 13t-16.5 6l-30 8v15h306v-15l-18 -4q-23 -5 -23 -21q0 -6 5 -16l116 -233l64 150l-50 97q-5 10 -10.5 14.5t-13.5 6.5l-24 6v15h304v-15z" />
    <glyph glyph-name="wcircumflex" unicode="&#x175;" horiz-adv-x="924" 
d="M627 581l-11 -15q-73 25 -149 69q-76 -44 -149 -69l-11 15q72 59 134 137h52q59 -74 134 -137zM634 465q-23 -5 -23 -19q0 -6 5 -16l116 -233l118 254q1 2 1 6q0 5 -5 7t-15 4l-26 3v15h115v-15l-26 -4q-12 -2 -17 -5t-10 -14l-203 -466h-18l-177 337l-147 -337h-18
l-242 462q-5 9 -11.5 13t-16.5 6l-30 8v15h306v-15l-18 -4q-23 -5 -23 -21q0 -6 5 -16l116 -233l64 150l-50 97q-5 10 -10.5 14.5t-13.5 6.5l-24 6v15h304v-15z" />
    <glyph glyph-name="wdieresis" unicode="&#x1e85;" horiz-adv-x="924" 
d="M297.5 594q-21.5 21 -21.5 52t21.5 52t55.5 21t55.5 -21t21.5 -52t-21.5 -52t-55.5 -21t-55.5 21zM535.5 594q-21.5 21 -21.5 52t21.5 52t55.5 21t55.5 -21t21.5 -52t-21.5 -52t-55.5 -21t-55.5 21zM634 465q-23 -5 -23 -19q0 -6 5 -16l116 -233l118 254q1 2 1 6
q0 5 -5 7t-15 4l-26 3v15h115v-15l-26 -4q-12 -2 -17 -5t-10 -14l-203 -466h-18l-177 337l-147 -337h-18l-242 462q-5 9 -11.5 13t-16.5 6l-30 8v15h306v-15l-18 -4q-23 -5 -23 -21q0 -6 5 -16l116 -233l64 150l-50 97q-5 10 -10.5 14.5t-13.5 6.5l-24 6v15h304v-15z" />
    <glyph glyph-name="wgrave" unicode="&#x1e81;" horiz-adv-x="924" 
d="M421 649.5q49 -37.5 58 -44.5l38 -28l-5 -11q-50 8 -116.5 26.5t-109.5 38.5q1 28 17 52t39 35q30 -31 79 -68.5zM634 465q-23 -5 -23 -19q0 -6 5 -16l116 -233l118 254q1 2 1 6q0 5 -5 7t-15 4l-26 3v15h115v-15l-26 -4q-12 -2 -17 -5t-10 -14l-203 -466h-18l-177 337
l-147 -337h-18l-242 462q-5 9 -11.5 13t-16.5 6l-30 8v15h306v-15l-18 -4q-23 -5 -23 -21q0 -6 5 -16l116 -233l64 150l-50 97q-5 10 -10.5 14.5t-13.5 6.5l-24 6v15h304v-15z" />
    <glyph glyph-name="yacute" unicode="&#xfd;" horiz-adv-x="582" 
d="M529 683q16 -24 17 -52q-43 -20 -109.5 -38.5t-116.5 -26.5l-5 11l38 28q9 7 58 44.5t79 68.5q23 -11 39 -35zM292 465q-23 -5 -23 -19q0 -6 5 -16l116 -233l109 254q3 6 3 10q0 6 -13 7l-26 3v15h115v-15l-26 -4q-12 -2 -17 -5t-10 -14l-195 -448q-40 -93 -65.5 -136.5
t-57 -67t-84.5 -36.5l-54 152q68 3 129 22.5t105 49.5l-241 460q-5 9 -11.5 13t-16.5 6l-30 8v15h314v-15z" />
    <glyph glyph-name="ycircumflex" unicode="&#x177;" horiz-adv-x="582" 
d="M541 581l-11 -15q-73 25 -149 69q-76 -44 -149 -69l-11 15q72 59 134 137h52q59 -74 134 -137zM292 465q-23 -5 -23 -19q0 -6 5 -16l116 -233l109 254q3 6 3 10q0 6 -13 7l-26 3v15h115v-15l-26 -4q-12 -2 -17 -5t-10 -14l-195 -448q-40 -93 -65.5 -136.5t-57 -67
t-84.5 -36.5l-54 152q68 3 129 22.5t105 49.5l-241 460q-5 9 -11.5 13t-16.5 6l-30 8v15h314v-15z" />
    <glyph glyph-name="ydieresis" unicode="&#xff;" horiz-adv-x="582" 
d="M156.5 594q-21.5 21 -21.5 52t21.5 52t55.5 21t55.5 -21t21.5 -52t-21.5 -52t-55.5 -21t-55.5 21zM394.5 594q-21.5 21 -21.5 52t21.5 52t55.5 21t55.5 -21t21.5 -52t-21.5 -52t-55.5 -21t-55.5 21zM292 465q-23 -5 -23 -19q0 -6 5 -16l116 -233l109 254q3 6 3 10
q0 6 -13 7l-26 3v15h115v-15l-26 -4q-12 -2 -17 -5t-10 -14l-195 -448q-40 -93 -65.5 -136.5t-57 -67t-84.5 -36.5l-54 152q68 3 129 22.5t105 49.5l-241 460q-5 9 -11.5 13t-16.5 6l-30 8v15h314v-15z" />
    <glyph glyph-name="ygrave" unicode="&#x1ef3;" horiz-adv-x="582" 
d="M280 649.5q49 -37.5 58 -44.5l38 -28l-5 -11q-50 8 -116.5 26.5t-109.5 38.5q1 28 17 52t39 35q30 -31 79 -68.5zM292 465q-23 -5 -23 -19q0 -6 5 -16l116 -233l109 254q3 6 3 10q0 6 -13 7l-26 3v15h115v-15l-26 -4q-12 -2 -17 -5t-10 -14l-195 -448
q-40 -93 -65.5 -136.5t-57 -67t-84.5 -36.5l-54 152q68 3 129 22.5t105 49.5l-241 460q-5 9 -11.5 13t-16.5 6l-30 8v15h314v-15z" />
    <glyph glyph-name="zacute" unicode="&#x17a;" horiz-adv-x="564" 
d="M430 683q16 -24 17 -52q-43 -20 -109.5 -38.5t-116.5 -26.5l-5 11l38 28q9 7 58 44.5t79 68.5q23 -11 39 -35zM371 25q46 0 70.5 10t38.5 32.5t28 67.5h20v-135h-496v20l291 441h-110q-46 0 -70.5 -9.5t-38.5 -31t-28 -65.5h-20v131h470v-20l-291 -441h136z" />
    <glyph glyph-name="zcaron" unicode="&#x17e;" horiz-adv-x="564" 
d="M132 703l11 15q73 -25 149 -69q76 44 149 69l11 -15q-75 -63 -134 -137h-52q-62 78 -134 137zM371 25q46 0 70.5 10t38.5 32.5t28 67.5h20v-135h-496v20l291 441h-110q-46 0 -70.5 -9.5t-38.5 -31t-28 -65.5h-20v131h470v-20l-291 -441h136z" />
    <glyph glyph-name="zdotaccent" unicode="&#x17c;" horiz-adv-x="564" 
d="M229 588q-24 19 -24 56t24 56t63 19t63 -19t24 -56t-24 -56t-63 -19t-63 19zM371 25q46 0 70.5 10t38.5 32.5t28 67.5h20v-135h-496v20l291 441h-110q-46 0 -70.5 -9.5t-38.5 -31t-28 -65.5h-20v131h470v-20l-291 -441h136z" />
    <glyph glyph-name="IJ" unicode="&#x132;" horiz-adv-x="1008" 
d="M86.5 665q-4.5 4 -19.5 7l-37 8v20h326v-20l-37 -8q-15 -3 -19.5 -7t-4.5 -15v-600q0 -11 4.5 -15t19.5 -7l37 -8v-20h-326v20l37 8q15 3 19.5 7t4.5 15v600q0 11 -4.5 15zM680 31q21 16 31 57.5t10 117.5v443q0 11 -4.5 15t-19.5 7l-43 9v20h332v-20l-37 -8
q-15 -3 -19.5 -7t-4.5 -15v-424q0 -126 -80.5 -182t-213.5 -56q-42 0 -96.5 11.5t-96.5 30.5l23 176h26q13 -78 31.5 -119.5t43 -56.5t61.5 -15q36 0 57 16z" />
    <glyph glyph-name="ij" unicode="&#x133;" horiz-adv-x="758" 
d="M110 583.5q-28 21.5 -28 62.5t28 62.5t75 21.5t75 -21.5t28 -62.5t-28 -62.5t-75 -21.5t-75 21.5zM500 583.5q-28 21.5 -28 62.5t28 62.5t75 21.5t75 -21.5t28 -62.5t-28 -62.5t-75 -21.5t-75 21.5zM26 18l35 8q15 3 19.5 7t4.5 15v378q0 11 -4.5 15t-19.5 7l-35 8v18
l240 30h19v-456q0 -11 4.5 -15t19.5 -7l35 -8v-18h-318v18zM470.5 441q-4.5 4 -19.5 7l-35 8v18l240 30h19v-535q0 -107 -44 -158t-151 -51q-106 0 -163 52l13 19q18 -16 41 -25.5t47 -9.5q31 0 44 20.5t13 81.5v528q0 11 -4.5 15z" />
    <glyph glyph-name="acute" unicode="&#xb4;" horiz-adv-x="440" 
d="M318 683q16 -24 17 -52q-43 -20 -109.5 -38.5t-116.5 -26.5l-5 11l38 28q9 7 58 44.5t79 68.5q23 -11 39 -35z" />
    <glyph glyph-name="tilde" unicode="&#x2dc;" horiz-adv-x="440" 
d="M260.5 573q-26.5 9 -93.5 36l-36 14q-9 4 -23 4q-12 0 -23 -5t-18 -14l-24 -30l-12 5q15 39 26.5 63t31 43t46.5 19q18 0 44.5 -9t93.5 -36l36 -14q9 -4 23 -4q12 0 23 5t18 14l24 30l12 -5q-15 -39 -26.5 -63t-31 -43t-46.5 -19q-18 0 -44.5 9z" />
    <glyph glyph-name="dieresis" unicode="&#xa8;" horiz-adv-x="440" 
d="M45.5 594q-21.5 21 -21.5 52t21.5 52t55.5 21t55.5 -21t21.5 -52t-21.5 -52t-55.5 -21t-55.5 21zM283.5 594q-21.5 21 -21.5 52t21.5 52t55.5 21t55.5 -21t21.5 -52t-21.5 -52t-55.5 -21t-55.5 21z" />
    <glyph glyph-name="macron" unicode="&#xaf;" horiz-adv-x="440" 
d="M410 608v-24h-380v24h380z" />
    <glyph glyph-name="breve" unicode="&#x2d8;" horiz-adv-x="440" 
d="M118 606.5q-34 40.5 -36 112.5h20q10 -40 35.5 -58t82.5 -18t82.5 18t35.5 58h20q-2 -72 -36 -112.5t-102 -40.5t-102 40.5z" />
    <glyph glyph-name="ring" unicode="&#x2da;" horiz-adv-x="440" 
d="M301.5 732q32.5 -24 32.5 -71t-32.5 -71t-81.5 -24t-81.5 24t-32.5 71t32.5 71t81.5 24t81.5 -24zM253 602.5q10 19.5 10 58.5t-10 58.5t-33 19.5t-33 -19.5t-10 -58.5t10 -58.5t33 -19.5t33 19.5z" />
    <glyph glyph-name="hungarumlaut" unicode="&#x2dd;" horiz-adv-x="440" 
d="M190 723q22 -19 30 -45q-39 -30 -94.5 -61.5t-102.5 -52.5l-8 9l24 31q75 97 104 143q25 -5 47 -24zM395 723q22 -19 30 -45q-39 -30 -94.5 -61.5t-102.5 -52.5l-8 9l24 31q75 97 104 143q25 -5 47 -24z" />
    <glyph glyph-name="dotaccent" unicode="&#x2d9;" horiz-adv-x="440" 
d="M157 588q-24 19 -24 56t24 56t63 19t63 -19t24 -56t-24 -56t-63 -19t-63 19z" />
    <glyph glyph-name="cedilla" unicode="&#xb8;" horiz-adv-x="440" 
d="M238 0l-4 -36q65 -3 101.5 -24.5t36.5 -62.5q0 -42 -34.5 -63.5t-86.5 -21.5q-25 0 -52 6t-43 14l7 18q28 -13 69 -13q29 0 42.5 9.5t13.5 32.5q0 29 -21.5 43.5t-61.5 21.5l11 76h22z" />
    <glyph glyph-name="ogonek" unicode="&#x2db;" horiz-adv-x="440" 
d="M218 -205q-52 0 -79 19t-27 55q0 51 41 84.5t106 50.5h22q-38 -16 -54.5 -42.5t-16.5 -67.5q0 -31 13.5 -45t44.5 -14q24 0 53 23l7 -11q-46 -52 -110 -52z" />
    <glyph glyph-name="uni0326" unicode="&#x326;" 
d="M-226 -207q-38 0 -57 20.5t-19 52.5t21.5 54t58.5 22q39 0 61.5 -21.5t22.5 -62.5q0 -56 -32 -109.5t-82 -91.5l-18 17q33 34 45.5 60t13.5 60q-5 -1 -15 -1z" />
    <glyph glyph-name="ellipsis" unicode="&#x2026;" horiz-adv-x="804" 
d="M74.5 16q-24.5 24 -24.5 58t24.5 58t59.5 24t59.5 -24t24.5 -58t-24.5 -58t-59.5 -24t-59.5 24zM342.5 16q-24.5 24 -24.5 58t24.5 58t59.5 24t59.5 -24t24.5 -58t-24.5 -58t-59.5 -24t-59.5 24zM610.5 16q-24.5 24 -24.5 58t24.5 58t59.5 24t59.5 -24t24.5 -58
t-24.5 -58t-59.5 -24t-59.5 24z" />
    <glyph glyph-name="uni00AD" unicode="&#xad;" horiz-adv-x="312" 
d="M40 264v28h232v-28h-232z" />
    <glyph glyph-name="exclamdown" unicode="&#xa1;" horiz-adv-x="284" 
d="M201.5 472q24.5 -24 24.5 -58t-24.5 -58t-59.5 -24t-59.5 24t-24.5 58t24.5 58t59.5 24t59.5 -24zM236 -187q-11 -17 -35.5 -26t-58.5 -9t-58.5 9t-35.5 26l78 454h32z" />
    <glyph glyph-name="questiondown" unicode="&#xbf;" horiz-adv-x="566" 
d="M364.5 472q24.5 -24 24.5 -58t-24.5 -58t-59.5 -24t-59.5 24t-24.5 58t24.5 58t59.5 24t59.5 -24zM238 -58q0 -116 114 -116q55 0 93.5 14t84.5 46l12 -19q-61 -44 -124 -67.5t-158 -23.5q-103 0 -157.5 39.5t-54.5 117.5q0 93 64.5 139.5t165.5 63.5l13 131h28l11 -131
q-92 -73 -92 -194z" />
    <glyph glyph-name="quoteleft" unicode="&#x2018;" horiz-adv-x="296" 
d="M161 562q38 0 57.5 -21.5t19.5 -53.5q0 -34 -22.5 -57t-61.5 -23q-40 0 -64 22.5t-24 65.5q0 58 35 117.5t86 99.5l20 -21q-65 -69 -65 -130q7 1 19 1z" />
    <glyph glyph-name="quoteright" unicode="&#x2019;" horiz-adv-x="296" 
d="M135 553q-38 0 -57.5 21.5t-19.5 53.5q0 34 22.5 57t61.5 23q40 0 64 -22.5t24 -65.5q0 -58 -35 -117.5t-86 -99.5l-20 21q65 69 65 130q-7 -1 -19 -1z" />
    <glyph glyph-name="quotedblleft" unicode="&#x201c;" horiz-adv-x="530" 
d="M161 562q38 0 57.5 -21.5t19.5 -53.5q0 -34 -22.5 -57t-61.5 -23q-40 0 -64 22.5t-24 65.5q0 58 35 117.5t86 99.5l20 -21q-65 -69 -65 -130q7 1 19 1zM395 562q38 0 57.5 -21.5t19.5 -53.5q0 -34 -22.5 -57t-61.5 -23q-40 0 -64 22.5t-24 65.5q0 58 35 117.5t86 99.5
l20 -21q-65 -69 -65 -130q7 1 19 1z" />
    <glyph glyph-name="quotedblright" unicode="&#x201d;" horiz-adv-x="530" 
d="M135 553q-38 0 -57.5 21.5t-19.5 53.5q0 34 22.5 57t61.5 23q40 0 64 -22.5t24 -65.5q0 -58 -35 -117.5t-86 -99.5l-20 21q65 69 65 130q-7 -1 -19 -1zM369 553q-38 0 -57.5 21.5t-19.5 53.5q0 34 22.5 57t61.5 23q40 0 64 -22.5t24 -65.5q0 -58 -35 -117.5t-86 -99.5
l-20 21q65 69 65 130q-7 -1 -19 -1z" />
    <glyph glyph-name="quotesinglbase" unicode="&#x201a;" horiz-adv-x="296" 
d="M135 1q-38 0 -57.5 21.5t-19.5 53.5q0 34 22.5 57t61.5 23q40 0 64 -22.5t24 -65.5q0 -58 -35 -117.5t-86 -99.5l-20 21q65 69 65 130q-7 -1 -19 -1z" />
    <glyph glyph-name="quotedblbase" unicode="&#x201e;" horiz-adv-x="530" 
d="M135 1q-38 0 -57.5 21.5t-19.5 53.5q0 34 22.5 57t61.5 23q40 0 64 -22.5t24 -65.5q0 -58 -35 -117.5t-86 -99.5l-20 21q65 69 65 130q-7 -1 -19 -1zM369 1q-38 0 -57.5 21.5t-19.5 53.5q0 34 22.5 57t61.5 23q40 0 64 -22.5t24 -65.5q0 -58 -35 -117.5t-86 -99.5l-20 21
q65 69 65 130q-7 -1 -19 -1z" />
    <glyph glyph-name="guilsinglleft" unicode="&#x2039;" horiz-adv-x="300" 
d="M224 461l16 -14q-72 -85 -72 -170t72 -170l-16 -14l-170 169v30z" />
    <glyph glyph-name="guilsinglright" unicode="&#x203a;" horiz-adv-x="300" 
d="M76 93l-16 14q72 85 72 170t-72 170l16 14l170 -169v-30z" />
    <glyph glyph-name="guillemotleft" unicode="&#xab;" horiz-adv-x="486" 
d="M224 461l16 -14q-72 -85 -72 -170t72 -170l-16 -14l-170 169v30zM410 461l16 -14q-72 -85 -72 -170t72 -170l-16 -14l-170 169v30z" />
    <glyph glyph-name="guillemotright" unicode="&#xbb;" horiz-adv-x="486" 
d="M76 93l-16 14q72 85 72 170t-72 170l16 14l170 -169v-30zM262 93l-16 14q72 85 72 170t-72 170l16 14l170 -169v-30z" />
    <glyph glyph-name="endash" unicode="&#x2013;" horiz-adv-x="532" 
d="M40 264v28h452v-28h-452z" />
    <glyph glyph-name="emdash" unicode="&#x2014;" horiz-adv-x="712" 
d="M40 264v28h632v-28h-632z" />
    <glyph glyph-name="bullet" unicode="&#x2022;" horiz-adv-x="386" 
d="M126.5 165.5q-30.5 17.5 -48.5 47t-18 65.5t18 65.5t48.5 47t66.5 17.5t66.5 -17.5t48.5 -47t18 -65.5t-18 -65.5t-48.5 -47t-66.5 -17.5t-66.5 17.5z" />
    <glyph glyph-name="periodcentered" unicode="&#xb7;" horiz-adv-x="268" 
d="M74.5 220q-24.5 24 -24.5 58t24.5 58t59.5 24t59.5 -24t24.5 -58t-24.5 -58t-59.5 -24t-59.5 24z" />
    <glyph glyph-name="uni2219" unicode="&#x2219;" horiz-adv-x="340" 
d="M240 297v-140h-140v140h140z" />
    <glyph glyph-name="dagger" unicode="&#x2020;" horiz-adv-x="514" 
d="M455 568q7 -18 7 -51t-7 -51l-185 40l60 -501q-30 -11 -73 -11t-73 11l59 501l-184 -40q-7 18 -7 51t7 51l183 -40l-50 227q21 11 65 11t65 -11l-51 -227z" />
    <glyph glyph-name="daggerdbl" unicode="&#x2021;" horiz-adv-x="514" 
d="M455 568q7 -18 7 -51t-7 -51l-184 40l42 -236l-42 -236l184 40q7 -18 7 -51t-7 -51l-184 40l51 -227q-21 -11 -65 -11t-65 11l50 227l-183 -40q-7 18 -7 51t7 51l184 -40l-43 236l43 236l-184 -40q-7 18 -7 51t7 51l183 -40l-50 227q21 11 65 11t65 -11l-51 -227z" />
    <glyph glyph-name="section" unicode="&#xa7;" horiz-adv-x="580" 
d="M248.5 719.5q-26.5 -16.5 -26.5 -52.5q0 -25 11 -42t38 -32.5t78 -33.5q64 -23 101 -46t54.5 -54t17.5 -77q0 -56 -43.5 -93t-119.5 -66q60 -26 93 -48t48.5 -51.5t15.5 -74.5q0 -70 -65.5 -109.5t-184.5 -39.5q-47 0 -106 11t-91 25l14 136h15q36 -148 162 -148
q106 0 106 72q0 36 -28.5 59.5t-104.5 50.5q-65 24 -103 46.5t-57 54t-19 78.5q0 55 45.5 90.5t126.5 64.5q-60 26 -92.5 47t-47 49t-14.5 70q0 75 65 114.5t185 39.5q45 0 93 -7t84 -17l-14 -126h-15q-15 68 -48 97t-94 29q-53 0 -79.5 -16.5zM193 307q12 -15 37.5 -28
t79.5 -35q8 -4 24 -10q61 35 61 84q0 23 -10.5 38.5t-36 29.5t-76.5 35l-23 9q-31 -17 -49.5 -37t-18.5 -48q0 -23 12 -38z" />
    <glyph glyph-name="paragraph" unicode="&#xb6;" horiz-adv-x="504" 
d="M397 670q-26 0 -36 -9.5t-10 -34.5v-647q0 -74 -21 -106.5t-82 -32.5q-41 0 -59 5v30q24 -4 51 -4q45 0 62 24t17 84v269h-23q-124 0 -180 54.5t-56 171.5t56 171.5t180 54.5h170v-30h-69z" />
    <glyph glyph-name="brokenbar" unicode="&#xa6;" horiz-adv-x="250" 
d="M140 782v-364h-30v364h30zM140 262v-364h-30v364h30z" />
    <glyph glyph-name="copyright" unicode="&#xa9;" horiz-adv-x="838" 
d="M105 531.5q47 82.5 129.5 131t184.5 48.5t184.5 -48.5t129.5 -131t47 -181.5t-47 -181.5t-129.5 -131t-184.5 -48.5t-184.5 48.5t-129.5 131t-47 181.5t47 181.5zM127.5 182q43.5 -77 120.5 -122t171 -45t171 45t120.5 122t43.5 168t-43.5 168t-120.5 122t-171 45
t-171 -45t-120.5 -122t-43.5 -168t43.5 -168zM592 519l-8 -104h-14q-16 60 -38.5 88.5t-69.5 28.5q-52 0 -72.5 -41t-20.5 -122q0 -66 8.5 -106.5t32 -61.5t67.5 -21q33 0 58 11.5t54 33.5l10 -15q-31 -31 -70 -48t-96 -17q-101 0 -160.5 52t-59.5 155q0 97 60.5 148
t174.5 51q88 0 144 -32z" />
    <glyph glyph-name="registered" unicode="&#xae;" horiz-adv-x="614" 
d="M85 583.5q33 58.5 91.5 92.5t130.5 34t130.5 -34t91.5 -92.5t33 -128.5t-33 -128.5t-91.5 -92.5t-130.5 -34t-130.5 34t-91.5 92.5t-33 128.5t33 128.5zM101.5 336.5q30.5 -54.5 84.5 -86t121 -31.5t121 31.5t84.5 86t30.5 118.5t-30.5 118.5t-84.5 86t-121 31.5
t-121 -31.5t-84.5 -86t-30.5 -118.5t30.5 -118.5zM185 584l-14 3v10h116q78 0 110.5 -16t32.5 -56q0 -29 -19 -45.5t-60 -22.5q35 -2 51.5 -15t22.5 -45l4 -24q1 -6 3 -16.5t4.5 -13t7.5 -2.5q12 0 18 13l10 -8q-14 -25 -56 -25q-37 0 -53 13.5t-23 50.5l-5 29
q-5 24 -10.5 31.5t-24.5 8.5h-18v-106q0 -9 9 -10l14 -3v-10h-134v10l14 3q9 1 9 10v226q0 9 -9 10zM282 468h8q33 0 44 12.5t11 44.5q0 33 -11 45.5t-44 12.5h-8v-115z" />
    <glyph glyph-name="trademark" unicode="&#x2122;" horiz-adv-x="968" 
d="M381 592q-10 34 -19.5 52t-27.5 28.5t-49 10.5h-12v-313q0 -6 2.5 -8t10.5 -4l21 -4v-14h-190v14l21 4q8 2 10 3.5t2 8.5v313h-11q-31 0 -49 -10.5t-27.5 -28.5t-19.5 -52h-13v108h364v-108h-13zM489 370q0 -6 2.5 -8t10.5 -4l21 -4v-14h-87v14l21 4q8 2 10 3.5t2 8.5
v300q0 7 -2 8.5t-10 3.5l-21 4v14h143l99 -215l92 215h156v-14l-21 -4q-8 -2 -10.5 -4t-2.5 -8v-300q0 -6 2.5 -8t10.5 -4l21 -4v-14h-190v14l21 4q8 2 10 3.5t2 8.5v278l-130 -308h-16l-134 295v-265z" />
    <glyph glyph-name="currency" unicode="&#xa4;" horiz-adv-x="570" 
d="M385 450l62 74l23 -20l-64 -76q18 -21 27.5 -47t9.5 -54q0 -57 -37 -102l64 -75l-23 -20l-62 74q-43 -35 -100 -35t-100 35l-62 -74l-23 20l63 75q-36 44 -36 102q0 59 36 101l-63 76l23 20l62 -74q43 35 100 35t100 -35zM350 214.5q30 17.5 47 47.5t17 65t-17 65
t-47 47.5t-65 17.5t-65 -17.5t-47 -47.5t-17 -65t17 -65t47 -47.5t65 -17.5t65 17.5z" />
    <glyph glyph-name="Euro" unicode="&#x20ac;" horiz-adv-x="742" 
d="M85 294q-3 27 -3 56t3 56h-69v28h72q24 143 125 210.5t249 67.5q72 0 124.5 -12.5t95.5 -34.5l-14 -170h-26q-29 88 -69 138t-110 50q-75 0 -113 -60.5t-46 -188.5h224v-28h-225q-1 -18 -1 -56t1 -56h225v-28h-224q8 -128 46 -188.5t114 -60.5q70 0 111.5 51t70.5 137h26
l14 -170q-94 -47 -223 -47q-148 0 -249.5 67t-125.5 211h-72v28h69z" />
    <glyph glyph-name="cent" unicode="&#xa2;" horiz-adv-x="638" 
d="M348 -12q-141 0 -219.5 65t-78.5 196q0 124 82 186.5t242 62.5h19v88h30v-90q90 -6 156 -38l-12 -131h-19q-20 65 -47.5 99.5t-77.5 42.5v-437q81 3 154 53l13 -19q-75 -58 -167 -72v-94h-30v90q-28 -2 -45 -2zM286.5 96q28.5 -57 106.5 -63v439h-1q-73 0 -103.5 -51
t-30.5 -151q0 -117 28.5 -174z" />
    <glyph glyph-name="sterling" unicode="&#xa3;" horiz-adv-x="668" 
d="M102 396q-29 67 -29 120q0 99 84.5 147.5t223.5 48.5q67 0 124 -9t92 -27l-14 -152h-23q-16 58 -34 91.5t-52 52t-91 18.5q-71 0 -102 -30t-31 -86q0 -38 11.5 -72t33.5 -80l10 -22h167v-28h-156q22 -52 22 -98q0 -36 -22.5 -69.5t-60.5 -60.5h317q11 0 15 4.5t7 19.5
l6 25h20v-101q0 -45 -23 -66.5t-63 -21.5h-469l-5 23q71 17 110 56.5t39 89.5q0 21 -13 49t-39 74q-31 53 -42 76h-75v28h62z" />
    <glyph glyph-name="florin" unicode="&#x192;" horiz-adv-x="663" 
d="M244 386l33 180q15 83 73.5 123.5t176.5 40.5q96 0 154 -30l-36 -131h-21l-6 35q-6 41 -12 60.5t-20.5 30.5t-43.5 11q-36 0 -49.5 -37t-20.5 -106q-1 -8 -2.5 -23t-3.5 -25l-24 -129h152l-5 -26h-151l-72 -403q-15 -83 -73.5 -123.5t-175.5 -40.5q-53 0 -91.5 8.5
t-61.5 21.5l35 131h21l6 -33q6 -41 12 -61t21 -31.5t44 -11.5q35 0 48 37t20 105q1 8 2.5 23.5t3.5 25.5l63 352h-65l5 26h64z" />
    <glyph glyph-name="yen" unicode="&#xa5;" horiz-adv-x="722" 
d="M244 310l-168 342q-7 12 -13 17.5t-16 6.5l-39 4v20h325v-20l-40 -4q-14 -1 -14 -12q0 -6 4 -13l156 -334l174 336q2 6 2 7q0 7 -6 11.5t-14 5.5l-47 4v19h166v-20l-31 -3q-16 -1 -22 -6.5t-14 -18.5l-178 -342h131v-28h-140v-76h140v-28h-140v-128q0 -11 4.5 -15
t19.5 -7l37 -8v-20h-326v20l37 8q15 3 19.5 7t4.5 15v128h-140v28h140v76h-140v28h128z" />
    <glyph glyph-name="ordfeminine" unicode="&#xaa;" horiz-adv-x="464" 
d="M275 370q-8 8 -8 27v3q-47 -45 -130 -45q-46 0 -75.5 21t-29.5 63q0 62 57 86.5t178 27.5v51q0 38 -14 53.5t-52 15.5q-31 0 -58.5 -9t-56.5 -27l-10 17q70 52 181 52q152 0 152 -119v-188q0 -8 3.5 -10.5t13.5 -5.5l24 -5v-16h-148q-19 0 -27 8zM267 426v105
q-39 -3 -59 -11.5t-27 -25t-7 -45.5q0 -26 9.5 -37t30.5 -11q26 0 53 25z" />
    <glyph glyph-name="ordmasculine" unicode="&#xba;" horiz-adv-x="510" 
d="M417.5 664q54.5 -42 54.5 -134t-54.5 -134t-162.5 -42t-162.5 42t-54.5 134t54.5 134t162.5 42t162.5 -42zM297.5 391q14.5 16 19 48t4.5 91t-4.5 91t-19 48t-42.5 16t-42.5 -16t-19 -48t-4.5 -91t4.5 -91t19 -48t42.5 -16t42.5 16z" />
    <glyph glyph-name="uni00B9" unicode="&#xb9;" horiz-adv-x="310" 
d="M38 821v16q95 10 172 39l15 -5v-343q0 -7 3 -10.5t10 -4.5l40 -7v-16h-242v16l45 7q9 2 12 5t3 11v292h-58z" />
    <glyph glyph-name="uni00B2" unicode="&#xb2;" horiz-adv-x="388" 
d="M278 661.5q-56 -46.5 -140 -86.5h166q8 0 11.5 3t4.5 10l4 20h16v-118h-321l-5 13q105 67 148 135.5t43 132.5q0 35 -14.5 53t-46.5 18q-31 0 -55.5 -9t-55.5 -28l-11 18q79 53 173 53q71 0 105 -28t34 -76q0 -64 -56 -110.5z" />
    <glyph glyph-name="uni00B3" unicode="&#xb3;" horiz-adv-x="376" 
d="M196.5 524q18.5 20 18.5 67q0 43 -16.5 66t-54.5 23h-31v22h32q32 0 46.5 17.5t14.5 56.5q0 69 -67 69q-29 0 -52.5 -7.5t-51.5 -22.5l-12 17q69 44 163 44q68 0 108.5 -24t40.5 -69q0 -69 -92 -91q48 -5 75.5 -28t27.5 -65q0 -63 -47.5 -89t-141.5 -26q-81 0 -135 23
l8 94h16q10 -34 19.5 -53.5t27.5 -31.5t49 -12q36 0 54.5 20z" />
    <glyph glyph-name="fraction" unicode="&#x2044;" horiz-adv-x="430" 
d="M430 700l-400 -700h-30l400 700h30z" />
    <glyph glyph-name="uni2215" unicode="&#x2215;" horiz-adv-x="150" 
d="M290 700l-400 -700h-30l400 700h30z" />
    <glyph glyph-name="onehalf" unicode="&#xbd;" horiz-adv-x="850" 
d="M38 651v16q95 10 172 39l15 -5v-343q0 -7 3 -10.5t10 -4.5l40 -7v-16h-242v16l45 7q9 2 12 5t3 11v292h-58zM615 700l-400 -700h-30l400 700h30zM740 171.5q-56 -46.5 -140 -86.5h166q8 0 11.5 3t4.5 10l4 20h16v-118h-321l-5 13q105 67 148 135.5t43 132.5
q0 35 -14.5 53t-46.5 18q-31 0 -55.5 -9t-55.5 -28l-11 18q80 53 173 53q71 0 105 -28t34 -76q0 -64 -56 -110.5z" />
    <glyph glyph-name="uni2153" unicode="&#x2153;" horiz-adv-x="850" 
d="M38 651v16q95 10 172 39l15 -5v-343q0 -7 3 -10.5t10 -4.5l40 -7v-16h-242v16l45 7q9 2 12 5t3 11v292h-58zM619 700l-400 -700h-30l400 700h30zM670.5 34q18.5 20 18.5 67q0 43 -16.5 66t-54.5 23h-31v22h32q32 0 46.5 17.5t14.5 56.5q0 69 -67 69q-29 0 -52.5 -7.5
t-51.5 -22.5l-12 17q69 44 163 44q68 0 108.5 -24t40.5 -69q0 -69 -92 -91q48 -5 75.5 -28t27.5 -65q0 -63 -47.5 -89t-141.5 -26q-81 0 -135 23l8 94h16q10 -34 19.5 -53.5t27.5 -31.5t49 -12q36 0 54.5 20z" />
    <glyph glyph-name="onequarter" unicode="&#xbc;" horiz-adv-x="850" 
d="M38 651v16q95 10 172 39l15 -5v-343q0 -7 3 -10.5t10 -4.5l40 -7v-16h-242v16l45 7q9 2 12 5t3 11v292h-58zM664 700l-400 -700h-30l400 700h30zM466 86l-4 20l257 274h56v-272h51v-22h-51v-49q0 -7 3 -10.5t10 -4.5l36 -6v-16h-232v16l39 6q9 2 12 5t3 11v48h-180z
M646 108v161l-152 -161h152z" />
    <glyph glyph-name="oneeighth" unicode="&#x215b;" horiz-adv-x="850" 
d="M38 651v16q95 10 172 39l15 -5v-343q0 -7 3 -10.5t10 -4.5l40 -7v-16h-242v16l45 7q9 2 12 5t3 11v292h-58zM614 700l-400 -700h-30l400 700h30zM492.5 140q22.5 25 65.5 35q-37 22 -55 49t-18 56q0 51 41.5 78.5t113.5 27.5q65 0 108 -22t43 -64q0 -64 -91 -80l17 -7
q54 -23 76.5 -48.5t22.5 -63.5q0 -58 -49.5 -82.5t-121.5 -24.5q-82 0 -128.5 22t-46.5 66q0 33 22.5 58zM578.5 283.5q9.5 -12.5 22 -19t45.5 -20.5l30 -13q31 27 31 76q0 58 -69 58t-69 -48q0 -21 9.5 -33.5zM567 91q0 -39 18.5 -57.5t61.5 -18.5q75 0 75 51q0 23 -17 36
t-62 33l-54 25q-22 -22 -22 -69z" />
    <glyph glyph-name="uni2154" unicode="&#x2154;" horiz-adv-x="850" 
d="M278 491.5q-56 -46.5 -140 -86.5h166q8 0 11.5 3t4.5 10l4 20h16v-118h-321l-5 13q105 67 148 135.5t43 132.5q0 35 -14.5 53t-46.5 18q-31 0 -55.5 -9t-55.5 -28l-11 18q79 53 173 53q71 0 105 -28t34 -76q0 -64 -56 -110.5zM644 700l-400 -700h-30l400 700h30z
M670.5 34q18.5 20 18.5 67q0 43 -16.5 66t-54.5 23h-31v22h32q32 0 46.5 17.5t14.5 56.5q0 69 -67 69q-29 0 -52.5 -7.5t-51.5 -22.5l-12 17q69 44 163 44q68 0 108.5 -24t40.5 -69q0 -69 -92 -91q48 -5 75.5 -28t27.5 -65q0 -63 -47.5 -89t-141.5 -26q-81 0 -135 23l8 94
h16q10 -34 19.5 -53.5t27.5 -31.5t49 -12q36 0 54.5 20z" />
    <glyph glyph-name="threequarters" unicode="&#xbe;" horiz-adv-x="850" 
d="M196.5 354q18.5 20 18.5 67q0 43 -16.5 66t-54.5 23h-31v22h32q32 0 46.5 17.5t14.5 56.5q0 69 -67 69q-29 0 -52.5 -7.5t-51.5 -22.5l-12 17q69 44 163 44q68 0 108.5 -24t40.5 -69q0 -69 -92 -91q48 -5 75.5 -28t27.5 -65q0 -63 -47.5 -89t-141.5 -26q-81 0 -135 23
l8 94h16q10 -34 19.5 -53.5t27.5 -31.5t49 -12q36 0 54.5 20zM680 700l-400 -700h-30l400 700h30zM466 86l-4 20l257 274h56v-272h51v-22h-51v-49q0 -7 3 -10.5t10 -4.5l36 -6v-16h-232v16l39 6q9 2 12 5t3 11v48h-180zM646 108v161l-152 -161h152z" />
    <glyph glyph-name="threeeighths" unicode="&#x215c;" horiz-adv-x="850" 
d="M196.5 354q18.5 20 18.5 67q0 43 -16.5 66t-54.5 23h-31v22h32q32 0 46.5 17.5t14.5 56.5q0 69 -67 69q-29 0 -52.5 -7.5t-51.5 -22.5l-12 17q69 44 163 44q68 0 108.5 -24t40.5 -69q0 -69 -92 -91q48 -5 75.5 -28t27.5 -65q0 -63 -47.5 -89t-141.5 -26q-81 0 -135 23
l8 94h16q10 -34 19.5 -53.5t27.5 -31.5t49 -12q36 0 54.5 20zM629 700l-400 -700h-30l400 700h30zM492.5 140q22.5 25 65.5 35q-37 22 -55 49t-18 56q0 51 41.5 78.5t113.5 27.5q65 0 108 -22t43 -64q0 -64 -91 -80l17 -7q54 -23 76.5 -48.5t22.5 -63.5q0 -58 -49.5 -82.5
t-121.5 -24.5q-82 0 -128.5 22t-46.5 66q0 33 22.5 58zM578.5 283.5q9.5 -12.5 22 -19t45.5 -20.5l30 -13q31 27 31 76q0 58 -69 58t-69 -48q0 -21 9.5 -33.5zM567 91q0 -39 18.5 -57.5t61.5 -18.5q75 0 75 51q0 23 -17 36t-62 33l-54 25q-22 -22 -22 -69z" />
    <glyph glyph-name="fiveeighths" unicode="&#x215d;" horiz-adv-x="850" 
d="M297 341q-47 -27 -140 -27q-79 0 -133 23l8 94h16q10 -35 19 -54t26.5 -31t48.5 -12q36 0 53.5 21t17.5 69q0 50 -16.5 74.5t-66.5 24.5q-33 0 -70 -13h-22l14 190h264v-85h-250l-6 -83q54 16 117 16q87 0 127 -30t40 -89q0 -61 -47 -88zM629 700l-400 -700h-30l400 700
h30zM492.5 140q22.5 25 65.5 35q-37 22 -55 49t-18 56q0 51 41.5 78.5t113.5 27.5q65 0 108 -22t43 -64q0 -64 -91 -80l17 -7q54 -23 76.5 -48.5t22.5 -63.5q0 -58 -49.5 -82.5t-121.5 -24.5q-82 0 -128.5 22t-46.5 66q0 33 22.5 58zM578.5 283.5q9.5 -12.5 22 -19
t45.5 -20.5l30 -13q31 27 31 76q0 58 -69 58t-69 -48q0 -21 9.5 -33.5zM567 91q0 -39 18.5 -57.5t61.5 -18.5q75 0 75 51q0 23 -17 36t-62 33l-54 25q-22 -22 -22 -69z" />
    <glyph glyph-name="seveneighths" unicode="&#x215e;" horiz-adv-x="850" 
d="M143.5 469.5q55.5 79.5 123.5 145.5h-199q-8 0 -11.5 -3t-4.5 -10l-4 -20h-16v118h299l5 -13q-57 -84 -87 -173.5t-45 -193.5h-129q13 70 68.5 149.5zM584 700l-400 -700h-30l400 700h30zM492.5 140q22.5 25 65.5 35q-37 22 -55 49t-18 56q0 51 41.5 78.5t113.5 27.5
q65 0 108 -22t43 -64q0 -64 -91 -80l17 -7q54 -23 76.5 -48.5t22.5 -63.5q0 -58 -49.5 -82.5t-121.5 -24.5q-82 0 -128.5 22t-46.5 66q0 33 22.5 58zM578.5 283.5q9.5 -12.5 22 -19t45.5 -20.5l30 -13q31 27 31 76q0 58 -69 58t-69 -48q0 -21 9.5 -33.5zM567 91
q0 -39 18.5 -57.5t61.5 -18.5q75 0 75 51q0 23 -17 36t-62 33l-54 25q-22 -22 -22 -69z" />
    <glyph glyph-name="perthousand" unicode="&#x2030;" horiz-adv-x="1216" 
d="M331.5 663q44.5 -45 44.5 -121t-44.5 -121t-123.5 -45t-123.5 45t-44.5 121t44.5 121t123.5 45t123.5 -45zM624 700l-400 -700h-30l400 700h30zM251.5 429.5q11.5 35.5 11.5 112.5t-11.5 112.5t-43.5 35.5t-43.5 -35.5t-11.5 -112.5t11.5 -112.5t43.5 -35.5t43.5 35.5z
M733.5 279q44.5 -45 44.5 -121t-44.5 -121t-123.5 -45t-123.5 45t-44.5 121t44.5 121t123.5 45t123.5 -45zM1131.5 279q44.5 -45 44.5 -121t-44.5 -121t-123.5 -45t-123.5 45t-44.5 121t44.5 121t123.5 45t123.5 -45zM653.5 45.5q11.5 35.5 11.5 112.5t-11.5 112.5
t-43.5 35.5t-43.5 -35.5t-11.5 -112.5t11.5 -112.5t43.5 -35.5t43.5 35.5zM1051.5 45.5q11.5 35.5 11.5 112.5t-11.5 112.5t-43.5 35.5t-43.5 -35.5t-11.5 -112.5t11.5 -112.5t43.5 -35.5t43.5 35.5z" />
    <glyph glyph-name="minus" unicode="&#x2212;" horiz-adv-x="570" 
d="M74 314v28h422v-28h-422z" />
    <glyph glyph-name="plusminus" unicode="&#xb1;" horiz-adv-x="570" 
d="M300 314v-197h-30v197h-196v28h196v197h30v-197h196v-28h-196zM74 0v26h422v-26h-422z" />
    <glyph glyph-name="multiply" unicode="&#xd7;" horiz-adv-x="570" 
d="M306 328l160 -160l-21 -21l-160 160l-160 -160l-21 21l160 160l-160 160l21 21l160 -160l160 160l21 -21z" />
    <glyph glyph-name="divide" unicode="&#xf7;" horiz-adv-x="572" 
d="M226.5 442q-24.5 24 -24.5 58t24.5 58t59.5 24t59.5 -24t24.5 -58t-24.5 -58t-59.5 -24t-59.5 24zM496 342v-28h-422v28h422zM345.5 214q24.5 -24 24.5 -58t-24.5 -58t-59.5 -24t-59.5 24t-24.5 58t24.5 58t59.5 24t59.5 -24z" />
    <glyph glyph-name="notequal" unicode="&#x2260;" horiz-adv-x="570" 
d="M241 224l-97 -166l-26 15l88 151h-132v28h149l89 152h-238v28h254l98 166l26 -15l-89 -151h133v-28h-149l-89 -152h238v-28h-255z" />
    <glyph glyph-name="approxequal" unicode="&#x2248;" horiz-adv-x="572" 
d="M445.5 433.5q15.5 18.5 31.5 53.5l17 -9q-11 -51 -44.5 -91t-81.5 -40q-18 0 -41 9.5t-57 27.5q-40 20 -63.5 29.5t-43.5 9.5q-23 0 -38.5 -18.5t-31.5 -53.5l-17 9q11 51 44.5 91t81.5 40q18 0 41 -9.5t57 -27.5q40 -20 63.5 -29.5t43.5 -9.5q23 0 38.5 18.5z
M445.5 263.5q15.5 18.5 31.5 53.5l17 -9q-11 -51 -44.5 -91t-81.5 -40q-18 0 -41 9.5t-57 27.5q-40 20 -63.5 29.5t-43.5 9.5q-23 0 -38.5 -18.5t-31.5 -53.5l-17 9q11 51 44.5 91t81.5 40q18 0 41 -9.5t57 -27.5q40 -20 63.5 -29.5t43.5 -9.5q23 0 38.5 18.5z" />
    <glyph glyph-name="lessequal" unicode="&#x2264;" horiz-adv-x="570" 
d="M454 510l16 -27l-347 -185l347 -185l-16 -27l-368 202v20zM86 0v26h386v-26h-386z" />
    <glyph glyph-name="greaterequal" unicode="&#x2265;" horiz-adv-x="570" 
d="M116 86l-16 27l347 185l-347 185l16 27l368 -202v-20zM98 0v26h386v-26h-386z" />
    <glyph glyph-name="logicalnot" unicode="&#xac;" horiz-adv-x="570" 
d="M462 171v143h-388v28h418v-171h-30z" />
    <glyph glyph-name="Delta" unicode="&#x2206;" horiz-adv-x="666" 
d="M624 0h-582l279 712h37zM274 520l-190 -490h354z" />
    <glyph glyph-name="mu" unicode="&#xb5;" horiz-adv-x="750" 
d="M24 -208l35 8q15 3 19.5 7t4.5 15v604q0 11 -4.5 15t-19.5 7l-35 8v18l242 30h17v-378q0 -45 14.5 -64t48.5 -19q60 0 121 50v333q0 11 -4.5 15t-19.5 7l-35 8v18l242 30h17v-456q0 -11 4.5 -15t19.5 -7l35 -8v-18h-203q-29 0 -41.5 12.5t-12.5 39.5v11
q-33 -27 -80.5 -48t-105.5 -26v-167q0 -11 4.5 -15t19.5 -7l35 -8v-18h-318v18z" />
    <glyph glyph-name="pi" unicode="&#x3c0;" horiz-adv-x="742" 
d="M716 468l-35 -8q-15 -3 -19.5 -7t-4.5 -15v-390q0 -11 4.5 -15t19.5 -7l35 -8v-18h-312v18l33 8q15 3 19.5 7t4.5 15v412h-180v-412q0 -11 4.5 -15t19.5 -7l33 -8v-18h-312v18l35 8q15 3 19.5 7t4.5 15v390q0 11 -4.5 15t-19.5 7l-35 8v18h690v-18z" />
    <glyph glyph-name="degree" unicode="&#xb0;" horiz-adv-x="372" 
d="M286.5 672.5q37.5 -37.5 37.5 -98.5q0 -60 -37.5 -98t-100.5 -38q-62 0 -100 38t-38 98q0 61 38 98.5t100 37.5q63 0 100.5 -37.5zM266 494.5q30 30.5 30 79.5t-30 79.5t-80 30.5t-80 -30.5t-30 -79.5t30 -79.5t80 -30.5t80 30.5z" />
    <glyph glyph-name="uni2113" unicode="&#x2113;" horiz-adv-x="550" 
d="M109 482q0 107 61 167.5t173 60.5q76 0 115.5 -36t39.5 -93q0 -75 -51.5 -143t-147.5 -136v-135q0 -74 12.5 -104.5t50.5 -30.5q45 0 75.5 32t40.5 88h30q-26 -162 -206 -162q-74 0 -131 46.5t-62 148.5l-78 -42l-15 24l93 51v264zM460 576q0 45 -20 70t-55 25
q-36 0 -54.5 -15t-25 -48t-6.5 -94v-173q161 125 161 235z" />
    <glyph glyph-name="estimated" unicode="&#x212e;" horiz-adv-x="856" 
d="M187 331v-185q0 -19 8 -29q43 -49 104.5 -72.5t135.5 -23.5q158 0 252 109h58q-55 -65 -136 -102t-175 -37q-108 0 -198.5 48t-143 130.5t-52.5 179.5q0 98 51.5 180.5t140.5 130.5t198 48t198 -48t140.5 -130.5t51.5 -180.5v-14h-628q-5 0 -5 -4zM670.5 572.5
q-2.5 7.5 -8.5 14.5q-93 91 -231 91q-141 0 -235 -97q-9 -9 -9 -29v-187q0 -6 5 -6h476q5 0 5 6v186q0 14 -2.5 21.5z" />
    <glyph glyph-name="eng" unicode="&#x14b;" horiz-adv-x="750" 
d="M454.5 424q-14.5 19 -48.5 19q-60 0 -123 -50v-345q0 -11 4.5 -15.5t18.5 -7.5l34 -7v-18h-316v18l35 8q15 3 19.5 7t4.5 15v378q0 11 -4.5 15t-19.5 7l-35 8v18l240 30h17v-81q38 31 93 53t122 22q93 0 133 -39t40 -117v-373q0 -107 -44 -158t-151 -51q-106 0 -163 52
l13 19q18 -16 41 -25.5t47 -9.5q31 0 44 20.5t13 81.5v462q0 45 -14.5 64z" />
    <glyph glyph-name="Eng" unicode="&#x14a;" horiz-adv-x="744" 
d="M617.5 -188.5q-39.5 -41.5 -109.5 -41.5q-34 0 -65 9.5t-56 25.5l14 28q21 -14 49 -22.5t57 -8.5q55 0 86.5 34t31.5 124v35l-506 640v-586q0 -11 4.5 -14.5t18.5 -6.5l36 -8v-20h-152v20l37 8q15 3 19.5 7t4.5 15v600q0 11 -4.5 15t-19.5 7l-37 8v20h277l322 -406v357
q0 11 -4.5 14.5t-18.5 6.5l-36 8v20h152v-20l-37 -8q-15 -3 -19.5 -7t-4.5 -15v-691q0 -106 -39.5 -147.5z" />
    <glyph glyph-name="infinity" unicode="&#x221e;" horiz-adv-x="680" 
d="M421 213.5q-40 19.5 -95 58.5q-42 -37 -79 -57.5t-81 -20.5q-47 0 -76.5 27t-29.5 68q0 43 27.5 69.5t82.5 26.5q52 0 93.5 -19t93.5 -56q41 36 77.5 55.5t79.5 19.5q47 0 76.5 -27t29.5 -68q0 -43 -27.5 -69.5t-82.5 -26.5q-49 0 -89 19.5zM576 252.5q16 18.5 16 47.5
q0 34 -21.5 52t-62.5 18q-39 0 -72.5 -17t-70.5 -48q52 -36 85.5 -53.5t74.5 -17.5q35 0 51 18.5zM246 226.5q34 17.5 73 50.5q-46 33 -83 50t-82 17q-35 0 -50.5 -18t-15.5 -47q0 -34 22 -52t62 -18t74 17.5z" />
    <glyph glyph-name="partialdiff" unicode="&#x2202;" horiz-adv-x="702" 
d="M420 416q-16 117 -69.5 182.5t-163.5 90.5l8 23q152 -17 254.5 -78.5t151.5 -153t49 -199.5q0 -86 -38 -152.5t-109 -104t-168 -37.5q-89 0 -155 29t-102 83.5t-36 129.5q0 62 29 110.5t85.5 75.5t135.5 27q67 0 128 -26zM424 384q-36 19 -81 19q-66 0 -91 -50.5
t-25 -144.5t26 -144.5t79 -50.5q59 0 78.5 61.5t19.5 165.5q0 80 -6 144z" />
    <glyph glyph-name="integral" unicode="&#x222b;" horiz-adv-x="535" 
d="M211.5 679q43.5 51 150.5 51q106 0 163 -52l-13 -19q-18 16 -41 25.5t-47 9.5q-31 0 -44 -20.5t-13 -81.5v-623q0 -107 -43.5 -158t-150.5 -51q-106 0 -163 52l13 19q18 -16 41 -25.5t47 -9.5q31 0 44 20.5t13 81.5v623q0 107 43.5 158z" />
    <glyph glyph-name="radical" unicode="&#x221a;" horiz-adv-x="654" 
d="M321 0h-58l-178 379h-53v26h215q21 0 31.5 -6t18.5 -23l79 -170l208 494h30z" />
    <glyph glyph-name="summation" unicode="&#x2211;" horiz-adv-x="674" 
d="M257 364l-213 316v20h555v-195h-25q-21 65 -39.5 98t-51.5 50t-93 17h-134l203 -306l-209 -334h157q60 0 93 17t51.5 50t39.5 98h25v-195h-576v20z" />
    <glyph glyph-name="product" unicode="&#x220f;" horiz-adv-x="824" 
d="M796 682l-35 -8q-15 -3 -19.5 -7t-4.5 -15v-830q0 -11 4.5 -15t19.5 -7l35 -8v-18h-318v18l35 8q15 3 19.5 7t4.5 15v848h-250v-848q0 -11 4.5 -15t19.5 -7l35 -8v-18h-318v18l35 8q15 3 19.5 7t4.5 15v830q0 11 -4.5 15t-19.5 7l-35 8v18h768v-18z" />
    <glyph glyph-name="lozenge" unicode="&#x25ca;" horiz-adv-x="572" 
d="M528 351l-233 -362h-18l-233 361l233 362h18zM286 675l-208 -325l208 -324l208 325z" />
    <glyph glyph-name="uniF8FF" unicode="&#xf8ff;" horiz-adv-x="600" 
d="M505 714v-714h-411v714h411zM454 51v612h-309v-612h309z" />
    <glyph glyph-name="zero.inferior" unicode="&#x2080;" horiz-adv-x="464" 
d="M374 165.5q54 -50.5 54 -145.5t-54 -145.5t-142 -50.5t-142 50.5t-54 145.5t54 145.5t142 50.5t142 -50.5zM282 -113.5q13 40.5 13 133.5t-13 133.5t-50 40.5t-50 -40.5t-13 -133.5t13 -133.5t50 -40.5t50 40.5z" />
    <glyph glyph-name="one.inferior" unicode="&#x2081;" horiz-adv-x="310" 
d="M38 161v16q95 10 172 39l15 -5v-343q0 -7 3 -10.5t10 -4.5l40 -7v-16h-242v16l45 7q9 2 12 5t3 11v292h-58z" />
    <glyph glyph-name="two.inferior" unicode="&#x2082;" horiz-adv-x="388" 
d="M278 1.5q-56 -46.5 -140 -86.5h166q8 0 11.5 3t4.5 10l4 20h16v-118h-321l-5 13q105 67 148 135.5t43 132.5q0 35 -14.5 53t-46.5 18q-31 0 -55.5 -9t-55.5 -28l-11 18q79 53 173 53q71 0 105 -28t34 -76q0 -64 -56 -110.5z" />
    <glyph glyph-name="three.inferior" unicode="&#x2083;" horiz-adv-x="376" 
d="M196.5 -136q18.5 20 18.5 67q0 43 -16.5 66t-54.5 23h-31v22h32q32 0 46.5 17.5t14.5 56.5q0 69 -67 69q-29 0 -52.5 -7.5t-51.5 -22.5l-12 17q69 44 163 44q68 0 108.5 -24t40.5 -69q0 -69 -92 -91q48 -5 75.5 -28t27.5 -65q0 -63 -47.5 -89t-141.5 -26q-81 0 -135 23
l8 94h16q10 -34 19.5 -53.5t27.5 -31.5t49 -12q36 0 54.5 20z" />
    <glyph glyph-name="four.inferior" unicode="&#x2084;" horiz-adv-x="408" 
d="M24 -84l-4 20l257 274h56v-272h51v-22h-51v-49q0 -7 3 -10.5t10 -4.5l36 -6v-16h-232v16l39 6q9 2 12 5t3 11v48h-180zM204 -62v161l-152 -161h152z" />
    <glyph glyph-name="five.inferior" unicode="&#x2085;" horiz-adv-x="376" 
d="M297 -149q-47 -27 -140 -27q-79 0 -133 23l8 94h16q10 -35 19 -54t26.5 -31t48.5 -12q36 0 53.5 21t17.5 69q0 50 -16.5 74.5t-66.5 24.5q-33 0 -70 -13h-22l14 190h264v-85h-250l-6 -83q54 16 117 16q87 0 127 -30t40 -89q0 -61 -47 -88z" />
    <glyph glyph-name="six.inferior" unicode="&#x2086;" horiz-adv-x="422" 
d="M217 151q-31 -37 -42 -93q29 13 71 13q70 0 109 -30.5t39 -87.5q0 -59 -47.5 -94t-125.5 -35q-84 0 -133.5 44t-49.5 115q0 191 265 234l5 -12q-60 -17 -91 -54zM171 36q-4 -31 -4 -75q0 -57 11.5 -86t44.5 -29q56 0 56 98q0 51 -12.5 76.5t-49.5 25.5q-27 0 -46 -10z
" />
    <glyph glyph-name="seven.inferior" unicode="&#x2087;" horiz-adv-x="366" 
d="M143.5 -20.5q55.5 79.5 123.5 145.5h-199q-8 0 -11.5 -3t-4.5 -10l-4 -20h-16v118h299l5 -13q-57 -84 -87 -173.5t-45 -193.5h-129q13 70 68.5 149.5z" />
    <glyph glyph-name="eight.inferior" unicode="&#x2088;" horiz-adv-x="414" 
d="M56.5 -30q22.5 25 65.5 35q-37 22 -55 49t-18 56q0 51 41.5 78.5t113.5 27.5q65 0 108 -22t43 -64q0 -64 -91 -80l17 -7q54 -23 76.5 -48.5t22.5 -63.5q0 -58 -49.5 -82.5t-121.5 -24.5q-82 0 -128.5 22t-46.5 66q0 33 22.5 58zM142.5 113.5q9.5 -12.5 22 -19t45.5 -20.5
l30 -13q31 27 31 76q0 58 -69 58t-69 -48q0 -21 9.5 -33.5zM131 -79q0 -39 18.5 -57.5t61.5 -18.5q75 0 75 51q0 23 -17 36t-62 33l-54 25q-22 -22 -22 -69z" />
    <glyph glyph-name="nine.inferior" unicode="&#x2089;" horiz-adv-x="420" 
d="M204.5 -111q31.5 37 42.5 93q-29 -13 -71 -13q-70 0 -109 30.5t-39 87.5q0 59 47.5 94t125.5 35q84 0 133.5 -44t49.5 -115q0 -191 -265 -234l-5 12q59 17 90.5 54zM250 3q5 40 5 76q0 57 -11.5 86t-44.5 29q-56 0 -56 -98q0 -51 12.5 -76.5t49.5 -25.5q27 0 45 9z" />
    <glyph glyph-name="zero.superior" unicode="&#x2070;" horiz-adv-x="464" 
d="M374 825.5q54 -50.5 54 -145.5t-54 -145.5t-142 -50.5t-142 50.5t-54 145.5t54 145.5t142 50.5t142 -50.5zM282 546.5q13 40.5 13 133.5t-13 133.5t-50 40.5t-50 -40.5t-13 -133.5t13 -133.5t50 -40.5t50 40.5z" />
    <glyph glyph-name="four.superior" unicode="&#x2074;" horiz-adv-x="408" 
d="M24 576l-4 20l257 274h56v-272h51v-22h-51v-49q0 -7 3 -10.5t10 -4.5l36 -6v-16h-232v16l39 6q9 2 12 5t3 11v48h-180zM204 598v161l-152 -161h152z" />
    <glyph glyph-name="five.superior" unicode="&#x2075;" horiz-adv-x="376" 
d="M297 511q-47 -27 -140 -27q-79 0 -133 23l8 94h16q10 -35 19 -54t26.5 -31t48.5 -12q36 0 53.5 21t17.5 69q0 50 -16.5 74.5t-66.5 24.5q-33 0 -70 -13h-22l14 190h264v-85h-250l-6 -83q54 16 117 16q87 0 127 -30t40 -89q0 -61 -47 -88z" />
    <glyph glyph-name="six.superior" unicode="&#x2076;" horiz-adv-x="422" 
d="M217 811q-31 -37 -42 -93q29 13 71 13q70 0 109 -30.5t39 -87.5q0 -59 -47.5 -94t-125.5 -35q-84 0 -133.5 44t-49.5 115q0 191 265 234l5 -12q-60 -17 -91 -54zM171 696q-4 -31 -4 -75q0 -57 11.5 -86t44.5 -29q56 0 56 98q0 51 -12.5 76.5t-49.5 25.5q-27 0 -46 -10z
" />
    <glyph glyph-name="seven.superior" unicode="&#x2077;" horiz-adv-x="366" 
d="M143.5 639.5q55.5 79.5 123.5 145.5h-199q-8 0 -11.5 -3t-4.5 -10l-4 -20h-16v118h299l5 -13q-57 -84 -87 -173.5t-45 -193.5h-129q13 70 68.5 149.5z" />
    <glyph glyph-name="eight.superior" unicode="&#x2078;" horiz-adv-x="414" 
d="M56.5 630q22.5 25 65.5 35q-37 22 -55 49t-18 56q0 51 41.5 78.5t113.5 27.5q65 0 108 -22t43 -64q0 -64 -91 -80l17 -7q54 -23 76.5 -48.5t22.5 -63.5q0 -58 -49.5 -82.5t-121.5 -24.5q-82 0 -128.5 22t-46.5 66q0 33 22.5 58zM142.5 773.5q9.5 -12.5 22 -19t45.5 -20.5
l30 -13q31 27 31 76q0 58 -69 58t-69 -48q0 -21 9.5 -33.5zM131 581q0 -39 18.5 -57.5t61.5 -18.5q75 0 75 51q0 23 -17 36t-62 33l-54 25q-22 -22 -22 -69z" />
    <glyph glyph-name="nine.superior" unicode="&#x2079;" horiz-adv-x="420" 
d="M204.5 549q31.5 37 42.5 93q-29 -13 -71 -13q-70 0 -109 30.5t-39 87.5q0 59 47.5 94t125.5 35q84 0 133.5 -44t49.5 -115q0 -191 -265 -234l-5 12q59 17 90.5 54zM250 663q5 40 5 76q0 57 -11.5 86t-44.5 29q-56 0 -56 -98q0 -51 12.5 -76.5t49.5 -25.5q27 0 45 9z" />
    <glyph glyph-name="lira" unicode="&#x20a4;" horiz-adv-x="668" 
d="M92 396q-19 67 -19 120q0 99 84.5 147.5t223.5 48.5q67 0 124 -9t92 -27l-14 -152h-23q-16 58 -34 91.5t-52 52t-91 18.5q-71 0 -102 -30t-31 -86q0 -38 10 -71.5t30 -81.5q2 -7 8 -21h174v-28h-163q16 -46 19 -88h144v-28h-145q-4 -59 -42 -112h287q11 0 15 4.5t7 19.5
l6 25h20v-101q0 -45 -23 -66.5t-63 -21.5h-469l-5 63q45 11 67 30t27 39t5 47q0 23 -16 73h-103v28h93l-11 29q-8 19 -22 59h-60v28h52z" />
    <glyph glyph-name="peseta" unicode="&#x20a7;" horiz-adv-x="764" 
d="M87 504v146q0 11 -4.5 15t-19.5 7l-37 8v20h287q131 0 210 -18t118 -60.5t42 -117.5h61v-30h-61q-3 -75 -42 -117.5t-118 -60.5t-210 -18h-22v-227q0 -11 4.5 -15t19.5 -7l43 -9v-20h-332v20l37 8q15 3 19.5 7t4.5 15v424h-61v30h61zM291 504h183q-2 91 -35.5 128.5
t-116.5 37.5h-31v-166zM410.5 324.5q32.5 16.5 47 52.5t16.5 97h-183v-166h31q56 0 88.5 16.5z" />
    <glyph glyph-name="colonmonetary" unicode="&#x20a1;" horiz-adv-x="742" 
d="M56 360q0 182 105 267t278 85l32 -1l34 89h32l-35 -91q47 -4 90 -14l40 105h32l-42 -112q26 -7 56 -21l-14 -172h-28q-23 65 -48 104l-202 -535q46 -26 114 -26q55 0 96 17t82 49l20 -22q-44 -41 -111.5 -67.5t-152.5 -26.5q-35 0 -75 5l-35 -93h-32l37 98q-45 7 -85 26
l-47 -124h-32l52 137q-161 89 -161 323zM288 225l172 457l-20 1q-91 0 -127.5 -73.5t-36.5 -223.5q0 -100 12 -161zM360 81l207 547q-34 35 -77 48l-189 -501q20 -61 59 -94z" />
    <glyph glyph-name="figuredash" unicode="&#x2012;" horiz-adv-x="492" 
d="M40 264v28h412v-28h-412z" />
    <glyph glyph-name="uni018F" unicode="&#x18f;" horiz-adv-x="814" 
d="M649.5 623.5q108.5 -88.5 108.5 -283.5q0 -181 -107 -266.5t-281 -85.5q-170 0 -245 72.5t-75 182.5q0 60 7 84h481q-2 168 -54 251.5t-177 83.5q-55 0 -99.5 -18t-84.5 -50l-20 22q44 41 114.5 68.5t155.5 27.5q168 0 276.5 -88.5zM495.5 89.5q40.5 72.5 42.5 207.5
h-264v-138q0 -48 8 -78t31.5 -47t68.5 -17q73 0 113.5 72.5z" />
    <glyph glyph-name="Ohorn" unicode="&#x1a0;" horiz-adv-x="858" 
d="M838 736q0 -74 -125 -127q85 -91 85 -259q0 -191 -101 -276.5t-270 -85.5t-270 85.5t-101 276.5q0 190 101.5 276t269.5 86q170 0 265 -82q26 17 37 38t11 48q0 30 -16.5 45t-51.5 22l20 30q146 0 146 -77zM520.5 50q32.5 33 44.5 104t12 196t-12 196t-44.5 104t-93.5 33
t-93.5 -33t-44.5 -104t-12 -196t12 -196t44.5 -104t93.5 -33t93.5 33z" />
    <glyph glyph-name="ohorn" unicode="&#x1a1;" horiz-adv-x="730" 
d="M710 542q0 -67 -104 -118q68 -63 68 -181q0 -129 -80.5 -192t-231.5 -63t-231.5 63t-80.5 192t80.5 192t231.5 63q137 0 216 -52q34 30 34 76q0 30 -16.5 45t-51.5 22l20 30q146 0 146 -77zM266.5 106q8.5 -48 30.5 -70t65 -22t65 22t30.5 70t8.5 137t-8.5 137t-30.5 70
t-65 22t-65 -22t-30.5 -70t-8.5 -137t8.5 -137z" />
    <glyph glyph-name="Uhorn" unicode="&#x1af;" horiz-adv-x="778" 
d="M717.5 685.5q12.5 21.5 12.5 50.5q0 30 -16.5 45t-51.5 22l20 30q146 0 146 -77q0 -45 -43.5 -79.5t-109.5 -58.5v-358q-2 -126 -68 -199t-213 -73q-160 0 -236.5 65t-76.5 211v386q0 11 -4.5 15t-19.5 7l-37 8v20h324v-20l-36 -8q-14 -2 -18.5 -6t-4.5 -15v-405
q0 -85 12 -132t46.5 -69.5t101.5 -22.5q96 0 147 63t51 167v448h32v-55q30 19 42.5 40.5z" />
    <glyph glyph-name="uhorn" unicode="&#x1b0;" horiz-adv-x="820" 
d="M820 542q0 -82 -157 -140v-354q0 -11 4.5 -15t19.5 -7l35 -8v-18h-203q-29 0 -41.5 12.5t-12.5 39.5v11q-36 -31 -91 -53t-122 -22q-93 0 -133 39t-40 117v282q0 11 -4.5 15t-19.5 7l-35 8v18l242 30h17v-378q0 -45 14.5 -64t48.5 -19q60 0 121 50v333q0 11 -4.5 15
t-19.5 7l-35 8v18l242 30h17v-75q32 19 45.5 41.5t13.5 51.5q0 30 -16.5 45t-51.5 22l20 30q146 0 146 -77z" />
    <glyph glyph-name="uni01CD" unicode="&#x1cd;" horiz-adv-x="760" 
d="M215 897l11 15q73 -25 149 -69q76 44 149 69l11 -15q-75 -63 -134 -137h-52q-62 78 -134 137zM420 20l43 4q14 2 14 11q0 5 -3 12l-66 146h-232l-60 -146q-3 -7 -3 -12q0 -9 14 -11l43 -4v-20h-152v20l37 4q12 1 17 6t11 18l277 663h32l293 -663q6 -13 11 -18t17 -6
l37 -4v-20h-330v20zM395 223l-108 239l-99 -239h207z" />
    <glyph glyph-name="uni01CE" unicode="&#x1ce;" horiz-adv-x="644" 
d="M162 703l11 15q73 -25 149 -69q76 44 149 69l11 -15q-75 -63 -134 -137h-52q-62 78 -134 137zM378.5 11.5q-11.5 11.5 -11.5 38.5v5q-67 -65 -191 -65q-65 0 -101.5 29.5t-36.5 91.5t36.5 97t106.5 50t186 18v73q0 56 -22 80.5t-77 24.5q-46 0 -85.5 -12.5t-80.5 -37.5
l-13 19q48 34 115.5 54.5t151.5 20.5q113 0 161 -44.5t48 -128.5v-277q0 -11 4.5 -15t19.5 -7l35 -8v-18h-206q-28 0 -39.5 11.5zM367 87v162q-56 -4 -85 -17.5t-39.5 -38.5t-10.5 -68q0 -38 13.5 -55t42.5 -17q43 0 79 34z" />
    <glyph glyph-name="uni01CF" unicode="&#x1cf;" horiz-adv-x="386" 
d="M33 897l11 15q73 -25 149 -69q76 44 149 69l11 -15q-75 -63 -134 -137h-52q-62 78 -134 137zM86.5 665q-4.5 4 -19.5 7l-37 8v20h326v-20l-37 -8q-15 -3 -19.5 -7t-4.5 -15v-600q0 -11 4.5 -15t19.5 -7l37 -8v-20h-326v20l37 8q15 3 19.5 7t4.5 15v600q0 11 -4.5 15z" />
    <glyph glyph-name="uni01D0" unicode="&#x1d0;" horiz-adv-x="370" 
d="M25 703l11 15q73 -25 149 -69q76 44 149 69l11 -15q-75 -63 -134 -137h-52q-62 78 -134 137zM26 18l35 8q15 3 19.5 7t4.5 15v378q0 11 -4.5 15t-19.5 7l-35 8v18l240 30h19v-456q0 -11 4.5 -15t19.5 -7l35 -8v-18h-318v18z" />
    <glyph glyph-name="uni01D1" unicode="&#x1d1;" horiz-adv-x="854" 
d="M267 897l11 15q73 -25 149 -69q76 44 149 69l11 -15q-75 -63 -134 -137h-52q-62 78 -134 137zM697 626.5q101 -85.5 101 -276.5t-101 -276.5t-270 -85.5t-270 85.5t-101 276.5q0 190 101.5 276t269.5 86q169 0 270 -85.5zM520.5 50q32.5 33 44.5 104t12 196t-12 196
t-44.5 104t-93.5 33t-93.5 -33t-44.5 -104t-12 -196t12 -196t44.5 -104t93.5 -33t93.5 33z" />
    <glyph glyph-name="uni01D2" unicode="&#x1d2;" horiz-adv-x="724" 
d="M202 703l11 15q73 -25 149 -69q76 44 149 69l11 -15q-75 -63 -134 -137h-52q-62 78 -134 137zM593.5 51q-80.5 -63 -231.5 -63t-231.5 63t-80.5 192t80.5 192t231.5 63t231.5 -63t80.5 -192t-80.5 -192zM266.5 106q8.5 -48 30.5 -70t65 -22t65 22t30.5 70t8.5 137
t-8.5 137t-30.5 70t-65 22t-65 -22t-30.5 -70t-8.5 -137t8.5 -137z" />
    <glyph glyph-name="uni01D3" unicode="&#x1d3;" horiz-adv-x="754" 
d="M307 897l11 15q73 -25 149 -69q76 44 149 69l11 -15q-75 -63 -134 -137h-52q-62 78 -134 137zM607 61q-66 -73 -213 -73q-160 0 -236.5 65t-76.5 211v386q0 11 -4.5 15t-19.5 7l-37 8v20h324v-20l-36 -8q-14 -3 -18.5 -6.5t-4.5 -14.5v-405q0 -85 12 -132t46.5 -69.5
t101.5 -22.5q96 0 147 63t51 167v398q0 11 -4.5 15t-19.5 7l-37 8v20h152v-20l-36 -8q-14 -3 -18.5 -6.5t-4.5 -14.5v-391q-2 -126 -68 -199z" />
    <glyph glyph-name="uni01D4" unicode="&#x1d4;" horiz-adv-x="746" 
d="M213 703l11 15q73 -25 149 -69q76 44 149 69l11 -15q-75 -63 -134 -137h-52q-62 78 -134 137zM458.5 441q-4.5 4 -19.5 7l-35 8v18l242 30h17v-456q0 -11 4.5 -15t19.5 -7l35 -8v-18h-203q-29 0 -41.5 12.5t-12.5 39.5v11q-36 -31 -91 -53t-122 -22q-93 0 -133 39
t-40 117v282q0 11 -4.5 15t-19.5 7l-35 8v18l242 30h17v-378q0 -45 14.5 -64t48.5 -19q60 0 121 50v333q0 11 -4.5 15z" />
    <glyph glyph-name="uni01D5" unicode="&#x1d5;" horiz-adv-x="754" 
d="M655 971v-24h-380v24h380zM295.5 789.5q-20.5 19.5 -20.5 47.5t20.5 47.5t48.5 19.5t48.5 -19.5t20.5 -47.5t-20.5 -47.5t-48.5 -19.5t-48.5 19.5zM537.5 789.5q-20.5 19.5 -20.5 47.5t20.5 47.5t48.5 19.5t48.5 -19.5t20.5 -47.5t-20.5 -47.5t-48.5 -19.5t-48.5 19.5z
M607 61q-66 -73 -213 -73q-160 0 -236.5 65t-76.5 211v386q0 11 -4.5 15t-19.5 7l-37 8v20h324v-20l-36 -8q-14 -3 -18.5 -6.5t-4.5 -14.5v-405q0 -85 12 -132t46.5 -69.5t101.5 -22.5q96 0 147 63t51 167v398q0 11 -4.5 15t-19.5 7l-37 8v20h152v-20l-36 -8
q-14 -3 -18.5 -6.5t-4.5 -14.5v-391q-2 -126 -68 -199z" />
    <glyph glyph-name="uni01D6" unicode="&#x1d6;" horiz-adv-x="746" 
d="M563 780v-24h-380v24h380zM203.5 598.5q-20.5 19.5 -20.5 47.5t20.5 47.5t48.5 19.5t48.5 -19.5t20.5 -47.5t-20.5 -47.5t-48.5 -19.5t-48.5 19.5zM445.5 598.5q-20.5 19.5 -20.5 47.5t20.5 47.5t48.5 19.5t48.5 -19.5t20.5 -47.5t-20.5 -47.5t-48.5 -19.5t-48.5 19.5z
M458.5 441q-4.5 4 -19.5 7l-35 8v18l242 30h17v-456q0 -11 4.5 -15t19.5 -7l35 -8v-18h-203q-29 0 -41.5 12.5t-12.5 39.5v11q-36 -31 -91 -53t-122 -22q-93 0 -133 39t-40 117v282q0 11 -4.5 15t-19.5 7l-35 8v18l242 30h17v-378q0 -45 14.5 -64t48.5 -19q60 0 121 50v333
q0 11 -4.5 15z" />
    <glyph glyph-name="uni01D7" unicode="&#x1d7;" horiz-adv-x="754" 
d="M569.5 1043q18.5 -14 26.5 -36q-87 -78 -146 -108l-11 10q61 89 91 150q21 -2 39.5 -16zM295.5 789.5q-20.5 19.5 -20.5 47.5t20.5 47.5t48.5 19.5t48.5 -19.5t20.5 -47.5t-20.5 -47.5t-48.5 -19.5t-48.5 19.5zM537.5 789.5q-20.5 19.5 -20.5 47.5t20.5 47.5t48.5 19.5
t48.5 -19.5t20.5 -47.5t-20.5 -47.5t-48.5 -19.5t-48.5 19.5zM607 61q-66 -73 -213 -73q-160 0 -236.5 65t-76.5 211v386q0 11 -4.5 15t-19.5 7l-37 8v20h324v-20l-36 -8q-14 -3 -18.5 -6.5t-4.5 -14.5v-405q0 -85 12 -132t46.5 -69.5t101.5 -22.5q96 0 147 63t51 167v398
q0 11 -4.5 15t-19.5 7l-37 8v20h152v-20l-36 -8q-14 -3 -18.5 -6.5t-4.5 -14.5v-391q-2 -126 -68 -199z" />
    <glyph glyph-name="uni01D8" unicode="&#x1d8;" horiz-adv-x="746" 
d="M477.5 852q18.5 -14 26.5 -36q-87 -78 -146 -108l-11 10q61 89 91 150q21 -2 39.5 -16zM203.5 598.5q-20.5 19.5 -20.5 47.5t20.5 47.5t48.5 19.5t48.5 -19.5t20.5 -47.5t-20.5 -47.5t-48.5 -19.5t-48.5 19.5zM445.5 598.5q-20.5 19.5 -20.5 47.5t20.5 47.5t48.5 19.5
t48.5 -19.5t20.5 -47.5t-20.5 -47.5t-48.5 -19.5t-48.5 19.5zM458.5 441q-4.5 4 -19.5 7l-35 8v18l242 30h17v-456q0 -11 4.5 -15t19.5 -7l35 -8v-18h-203q-29 0 -41.5 12.5t-12.5 39.5v11q-36 -31 -91 -53t-122 -22q-93 0 -133 39t-40 117v282q0 11 -4.5 15t-19.5 7l-35 8
v18l242 30h17v-378q0 -45 14.5 -64t48.5 -19q60 0 121 50v333q0 11 -4.5 15z" />
    <glyph glyph-name="uni01D9" unicode="&#x1d9;" horiz-adv-x="754" 
d="M309 1050l11 15q88 -28 145 -61q57 33 145 61l11 -15q-76 -60 -130 -119h-52q-66 73 -130 119zM295.5 789.5q-20.5 19.5 -20.5 47.5t20.5 47.5t48.5 19.5t48.5 -19.5t20.5 -47.5t-20.5 -47.5t-48.5 -19.5t-48.5 19.5zM537.5 789.5q-20.5 19.5 -20.5 47.5t20.5 47.5
t48.5 19.5t48.5 -19.5t20.5 -47.5t-20.5 -47.5t-48.5 -19.5t-48.5 19.5zM607 61q-66 -73 -213 -73q-160 0 -236.5 65t-76.5 211v386q0 11 -4.5 15t-19.5 7l-37 8v20h324v-20l-36 -8q-14 -3 -18.5 -6.5t-4.5 -14.5v-405q0 -85 12 -132t46.5 -69.5t101.5 -22.5q96 0 147 63
t51 167v398q0 11 -4.5 15t-19.5 7l-37 8v20h152v-20l-36 -8q-14 -3 -18.5 -6.5t-4.5 -14.5v-391q-2 -126 -68 -199z" />
    <glyph glyph-name="uni01DA" unicode="&#x1da;" horiz-adv-x="746" 
d="M217 859l11 15q88 -28 145 -61q57 33 145 61l11 -15q-76 -60 -130 -119h-52q-66 73 -130 119zM203.5 598.5q-20.5 19.5 -20.5 47.5t20.5 47.5t48.5 19.5t48.5 -19.5t20.5 -47.5t-20.5 -47.5t-48.5 -19.5t-48.5 19.5zM445.5 598.5q-20.5 19.5 -20.5 47.5t20.5 47.5
t48.5 19.5t48.5 -19.5t20.5 -47.5t-20.5 -47.5t-48.5 -19.5t-48.5 19.5zM458.5 441q-4.5 4 -19.5 7l-35 8v18l242 30h17v-456q0 -11 4.5 -15t19.5 -7l35 -8v-18h-203q-29 0 -41.5 12.5t-12.5 39.5v11q-36 -31 -91 -53t-122 -22q-93 0 -133 39t-40 117v282q0 11 -4.5 15
t-19.5 7l-35 8v18l242 30h17v-378q0 -45 14.5 -64t48.5 -19q60 0 121 50v333q0 11 -4.5 15z" />
    <glyph glyph-name="uni01DB" unicode="&#x1db;" horiz-adv-x="754" 
d="M495 909l-11 -10q-59 30 -146 108q8 22 26.5 36t39.5 16q30 -61 91 -150zM295.5 789.5q-20.5 19.5 -20.5 47.5t20.5 47.5t48.5 19.5t48.5 -19.5t20.5 -47.5t-20.5 -47.5t-48.5 -19.5t-48.5 19.5zM537.5 789.5q-20.5 19.5 -20.5 47.5t20.5 47.5t48.5 19.5t48.5 -19.5
t20.5 -47.5t-20.5 -47.5t-48.5 -19.5t-48.5 19.5zM607 61q-66 -73 -213 -73q-160 0 -236.5 65t-76.5 211v386q0 11 -4.5 15t-19.5 7l-37 8v20h324v-20l-36 -8q-14 -3 -18.5 -6.5t-4.5 -14.5v-405q0 -85 12 -132t46.5 -69.5t101.5 -22.5q96 0 147 63t51 167v398q0 11 -4.5 15
t-19.5 7l-37 8v20h152v-20l-36 -8q-14 -3 -18.5 -6.5t-4.5 -14.5v-391q-2 -126 -68 -199z" />
    <glyph glyph-name="uni01DC" unicode="&#x1dc;" horiz-adv-x="746" 
d="M403 718l-11 -10q-59 30 -146 108q8 22 26.5 36t39.5 16q30 -61 91 -150zM203.5 598.5q-20.5 19.5 -20.5 47.5t20.5 47.5t48.5 19.5t48.5 -19.5t20.5 -47.5t-20.5 -47.5t-48.5 -19.5t-48.5 19.5zM445.5 598.5q-20.5 19.5 -20.5 47.5t20.5 47.5t48.5 19.5t48.5 -19.5
t20.5 -47.5t-20.5 -47.5t-48.5 -19.5t-48.5 19.5zM458.5 441q-4.5 4 -19.5 7l-35 8v18l242 30h17v-456q0 -11 4.5 -15t19.5 -7l35 -8v-18h-203q-29 0 -41.5 12.5t-12.5 39.5v11q-36 -31 -91 -53t-122 -22q-93 0 -133 39t-40 117v282q0 11 -4.5 15t-19.5 7l-35 8v18l242 30
h17v-378q0 -45 14.5 -64t48.5 -19q60 0 121 50v333q0 11 -4.5 15z" />
    <glyph glyph-name="Gcaron" unicode="&#x1e6;" horiz-adv-x="790" 
d="M295 897l11 15q73 -25 149 -69q76 44 149 69l11 -15q-75 -63 -134 -137h-52q-62 78 -134 137zM299 180.5q23 -77.5 75.5 -113.5t141.5 -36h32v246h-99v30h273v-263q-22 -4 -52.5 -11.5t-46.5 -11.5q-66 -17 -105.5 -25t-73.5 -8q-107 0 -194 36.5t-140.5 119.5t-53.5 216
q0 181 109 266.5t287 85.5q74 0 143.5 -13t108.5 -32l-14 -172h-28q-28 85 -76.5 136.5t-132.5 51.5q-95 0 -136 -74.5t-41 -222.5q0 -128 23 -205.5z" />
    <glyph glyph-name="gcaron" unicode="&#x1e7;" horiz-adv-x="692" 
d="M186 703l11 15q73 -25 149 -69q76 44 149 69l11 -15q-75 -63 -134 -137h-52q-62 78 -134 137zM522 490q-28 0 -45 -11q127 -36 127 -144q0 -87 -69 -125.5t-195 -38.5q-71 0 -123 13q-31 -2 -54.5 -10.5t-23.5 -22.5q0 -15 13 -22.5t41 -12t93 -10.5l170 -16
q72 -7 114.5 -22.5t62 -45t19.5 -77.5q0 -64 -46.5 -105.5t-119.5 -60.5t-156 -19q-119 0 -195.5 32.5t-76.5 98.5q0 42 33 65t87 30q-114 27 -114 107q0 87 106 106q-94 41 -94 136q0 87 68.5 124t195.5 37q61 -2 106 -10q29 44 81 72.5t125 28.5l-24 -115h-11l-25 7
q-40 11 -70 11zM403.5 229.5q16.5 33.5 16.5 105.5q0 69 -16.5 102.5t-63.5 33.5t-63.5 -33.5t-16.5 -102.5q0 -72 16.5 -105.5t63.5 -33.5t63.5 33.5zM208 -20q-13 -28 -13 -71q0 -62 30 -92t112 -30q96 0 149 23.5t53 69.5q0 26 -10.5 39.5t-34.5 21t-71 12.5l-141 16
q-53 7 -74 11z" />
    <glyph glyph-name="uni0251" unicode="&#x251;" horiz-adv-x="738" 
d="M117 438q65 60 176 60q101 0 168 -47v32l181 21h17v-456q0 -11 4.5 -15t19.5 -7l35 -8v-18h-206q-28 0 -39.5 11.5t-11.5 38.5v1q-61 -61 -168 -61q-111 0 -176 63t-65 196q0 129 65 189zM459 83v339q-45 34 -102 34q-55 0 -77 -48t-22 -159q0 -79 8.5 -125.5t29 -68.5
t56.5 -22q57 0 107 50z" />
    <glyph glyph-name="uni0259" unicode="&#x259;" horiz-adv-x="658" 
d="M53 230h349q-1 72 -14.5 121t-49.5 77.5t-101 28.5q-47 0 -83.5 -14t-75.5 -40l-13 19q93 76 246 76q138 0 217.5 -66.5t79.5 -194.5q0 -121 -81 -185t-227 -64q-83 0 -140 26t-84.5 69.5t-27.5 96.5q0 27 5 50zM380.5 58q20.5 46 21.5 146h-168v-75q0 -61 14.5 -89
t57.5 -28q54 0 74.5 46z" />
    <glyph glyph-name="uni210A" unicode="&#x210a;" horiz-adv-x="737" 
d="M557.5 -185q-97.5 -55 -232.5 -55q-76 0 -139 11t-98 27l14 146h19q18 -79 66.5 -119.5t118.5 -40.5q54 0 85.5 15.5t47.5 56t16 115.5v91q-62 -56 -162 -56q-110 0 -175.5 62t-65.5 189q0 123 65.5 182t175.5 59q99 0 164 -45v30l181 21h17v-505q0 -129 -97.5 -184z
M455 95v330q-47 31 -98 31q-54 0 -76.5 -47t-22.5 -152q0 -110 20.5 -159t73.5 -49t103 46z" />
    <glyph glyph-name="uni02BB" unicode="&#x2bb;" horiz-adv-x="296" 
d="M161 562q38 0 57.5 -21.5t19.5 -53.5q0 -34 -22.5 -57t-61.5 -23q-40 0 -64 22.5t-24 65.5q0 58 35 117.5t86 99.5l20 -21q-65 -69 -65 -130q7 1 19 1z" />
    <glyph glyph-name="uni02BC" unicode="&#x2bc;" horiz-adv-x="296" 
d="M135 553q-38 0 -57.5 21.5t-19.5 53.5q0 34 22.5 57t61.5 23q40 0 64 -22.5t24 -65.5q0 -58 -35 -117.5t-86 -99.5l-20 21q65 69 65 130q-7 -1 -19 -1z" />
    <glyph glyph-name="uni02BE" unicode="&#x2be;" 
d="M-25.5 597q12.5 21 12.5 64t-12.5 64t-38.5 21v18q54 0 91 -26t37 -77t-37 -77t-91 -26v18q26 0 38.5 21z" />
    <glyph glyph-name="uni02BF" unicode="&#x2bf;" 
d="M-27 584q-37 26 -37 77t37 77t91 26v-18q-26 0 -38.5 -21t-12.5 -64t12.5 -64t38.5 -21v-18q-54 0 -91 26z" />
    <glyph glyph-name="circumflex" unicode="&#x2c6;" horiz-adv-x="440" 
d="M380 581l-11 -15q-73 25 -149 69q-76 -44 -149 -69l-11 15q72 59 134 137h52q59 -74 134 -137z" />
    <glyph glyph-name="caron" unicode="&#x2c7;" horiz-adv-x="440" 
d="M60 703l11 15q73 -25 149 -69q76 44 149 69l11 -15q-75 -63 -134 -137h-52q-62 78 -134 137z" />
    <glyph glyph-name="uni02C8" unicode="&#x2c8;" 
d="M20 546h-40v164h40v-164z" />
    <glyph glyph-name="uni02C9" unicode="&#x2c9;" horiz-adv-x="440" 
d="M370 604v-30h-300v30h300z" />
    <glyph glyph-name="uni02CA" unicode="&#x2ca;" 
d="M-104 573l-7 12l169 142l53 -91z" />
    <glyph glyph-name="uni02CB" unicode="&#x2cb;" 
d="M111 585l-7 -12l-215 63l53 91z" />
    <glyph glyph-name="uni02CC" unicode="&#x2cc;" 
d="M20 -224h-40v164h40v-164z" />
    <glyph glyph-name="gravecomb" unicode="&#x300;" 
d="M-200 649.5q49 -37.5 58 -44.5l38 -28l-5 -11q-50 8 -116.5 26.5t-109.5 38.5q1 28 17 52t39 35q30 -31 79 -68.5z" />
    <glyph glyph-name="acutecomb" unicode="&#x301;" 
d="M-124 683q16 -24 17 -52q-43 -20 -109.5 -38.5t-116.5 -26.5l-5 11l38 28q9 7 58 44.5t79 68.5q23 -11 39 -35z" />
    <glyph glyph-name="uni0302" unicode="&#x302;" 
d="M160 581l-11 -15q-73 25 -149 69q-76 -44 -149 -69l-11 15q72 59 134 137h52q59 -74 134 -137z" />
    <glyph glyph-name="tildecomb" unicode="&#x303;" 
d="M-178.5 573q-26.5 9 -93.5 36l-36 14q-9 4 -23 4q-12 0 -23 -5t-18 -14l-24 -30l-12 5q15 39 26.5 63t31 43t46.5 19q18 0 44.5 -9t93.5 -36l36 -14q9 -4 23 -4q12 0 23 5t18 14l24 30l12 -5q-15 -39 -26.5 -63t-31 -43t-46.5 -19q-18 0 -44.5 9z" />
    <glyph glyph-name="uni0304" unicode="&#x304;" 
d="M190 608v-24h-380v24h380z" />
    <glyph glyph-name="uni0306" unicode="&#x306;" 
d="M-102 606.5q-34 40.5 -36 112.5h20q10 -40 35.5 -58t82.5 -18t82.5 18t35.5 58h20q-2 -72 -36 -112.5t-102 -40.5t-102 40.5z" />
    <glyph glyph-name="uni0307" unicode="&#x307;" 
d="M-63 588q-24 19 -24 56t24 56t63 19t63 -19t24 -56t-24 -56t-63 -19t-63 19z" />
    <glyph glyph-name="uni0308" unicode="&#x308;" 
d="M-174.5 594q-21.5 21 -21.5 52t21.5 52t55.5 21t55.5 -21t21.5 -52t-21.5 -52t-55.5 -21t-55.5 21zM63.5 594q-21.5 21 -21.5 52t21.5 52t55.5 21t55.5 -21t21.5 -52t-21.5 -52t-55.5 -21t-55.5 21z" />
    <glyph glyph-name="hookabovecomb" unicode="&#x309;" 
d="M-258 566l-6 49q22 14 32 31.5t10 42.5q0 36 -39 36q-20 0 -34 -3.5t-32 -10.5l-7 20q54 26 115 26q43 0 69 -17t26 -53q0 -63 -102 -87l-4 -34h-28z" />
    <glyph glyph-name="uni030A" unicode="&#x30a;" 
d="M81.5 732q32.5 -24 32.5 -71t-32.5 -71t-81.5 -24t-81.5 24t-32.5 71t32.5 71t81.5 24t81.5 -24zM33 602.5q10 19.5 10 58.5t-10 58.5t-33 19.5t-33 -19.5t-10 -58.5t10 -58.5t33 -19.5t33 19.5z" />
    <glyph glyph-name="uni030B" unicode="&#x30b;" 
d="M37 723q22 -19 30 -45q-39 -30 -94.5 -61.5t-102.5 -52.5l-8 9l24 31q75 97 104 143q25 -5 47 -24zM242 723q22 -19 30 -45q-39 -30 -94.5 -61.5t-102.5 -52.5l-8 9l24 31q75 97 104 143q25 -5 47 -24z" />
    <glyph glyph-name="uni030C" unicode="&#x30c;" 
d="M-160 703l11 15q73 -25 149 -69q76 44 149 69l11 -15q-75 -63 -134 -137h-52q-62 78 -134 137z" />
    <glyph glyph-name="uni031B" unicode="&#x31b;" 
d="M99 542q0 -47 -47 -82.5t-118 -59.5l-10 20q43 20 60 44.5t17 57.5q0 30 -16.5 45t-51.5 22l20 30q146 0 146 -77z" />
    <glyph glyph-name="dotbelowcomb" unicode="&#x323;" 
d="M-340 -188.5q-23 19.5 -23 55.5t23 55.5t60 19.5t60 -19.5t23 -55.5t-23 -55.5t-60 -19.5t-60 19.5z" />
    <glyph glyph-name="uni0324" unicode="&#x324;" 
d="M-454.5 -183q-21.5 21 -21.5 52t21.5 52t55.5 21t55.5 -21t21.5 -52t-21.5 -52t-55.5 -21t-55.5 21zM-216.5 -183q-21.5 21 -21.5 52t21.5 52t55.5 21t55.5 -21t21.5 -52t-21.5 -52t-55.5 -21t-55.5 21z" />
    <glyph glyph-name="uni0326.1" 
d="M-6 -207q-38 0 -57 20.5t-19 52.5t21.5 54t58.5 22q39 0 61.5 -21.5t22.5 -62.5q0 -56 -32 -109.5t-82 -91.5l-18 17q33 34 45.5 60t13.5 60q-5 -1 -15 -1z" />
    <glyph glyph-name="uni0327" unicode="&#x327;" 
d="M11 0l-4 -36q65 -3 101.5 -24.5t36.5 -62.5q0 -42 -34.5 -63.5t-86.5 -21.5q-25 0 -52 6t-43 14l7 18q28 -13 69 -13q29 0 42.5 9.5t13.5 32.5q0 29 -21.5 43.5t-61.5 21.5l11 76h22z" />
    <glyph glyph-name="uni0328" unicode="&#x328;" 
d="M-41 -205q-52 0 -79 19t-27 55q0 51 41 84.5t106 50.5h22q-38 -16 -54.5 -42.5t-16.5 -67.5q0 -31 13.5 -45t44.5 -14q24 0 53 23l7 -11q-46 -52 -110 -52z" />
    <glyph glyph-name="uni032E" unicode="&#x32e;" 
d="M-102 -153.5q-34 40.5 -36 112.5h20q10 -40 35.5 -58t82.5 -18t82.5 18t35.5 58h20q-2 -72 -36 -112.5t-102 -40.5t-102 40.5z" />
    <glyph glyph-name="uni0331" unicode="&#x331;" 
d="M190 -86v-24h-380v24h380z" />
    <glyph glyph-name="uni0E01" unicode="&#xe01;" horiz-adv-x="762" 
d="M475 58v349q0 48 -8 73.5t-29 36.5t-61 11q-45 0 -90 -10v-469q0 -11 4.5 -15t19.5 -7l31 -6v-21h-314v21l33 6q15 3 19.5 7t4.5 15v263q0 43 26 73.5t72 42.5v13l-129 24v16q164 77 346 77q149 0 213 -44.5t64 -135.5v-329q0 -11 4.5 -15t19.5 -7l33 -6v-21h-206
q-53 0 -53 58z" />
    <glyph glyph-name="uni0E02" unicode="&#xe02;" horiz-adv-x="730" 
d="M144.5 37.5q-63.5 49.5 -63.5 143.5v91q0 28 10.5 47.5t31.5 45.5q22 26 33.5 47.5t11.5 52.5q0 30 -10.5 44.5t-37.5 14.5q-31 0 -48.5 -16.5t-17.5 -48.5q0 -18 3 -33h-27q-6 15 -6 35q0 45 33.5 71t132.5 26q158 0 158 -106q0 -23 -7.5 -41.5t-23.5 -43.5
q-16 -26 -25 -47.5t-9 -49.5v-122q0 -51 6 -78.5t23.5 -40.5t52.5 -13t52 13t23 40.5t6 78.5v387l181 23h21v-377q0 -94 -63 -143.5t-220 -49.5t-220.5 49.5z" />
    <glyph glyph-name="uni0E03" unicode="&#xe03;" horiz-adv-x="732" 
d="M291 69.5q6 -27.5 23.5 -40.5t52.5 -13t52 13t23 40.5t6 78.5v387l181 23h21v-377q0 -94 -63 -143.5t-220 -49.5t-220.5 49.5t-63.5 143.5v66q0 37 17.5 62t59.5 44l21 9q74 33 109 57.5t35 60.5v9h-11q-24 -37 -73 -63t-118 -26q-54 0 -77.5 34.5t-23.5 99.5h26
q0 -48 13.5 -73.5t39.5 -25.5q17 0 27 11.5t24 37.5q16 31 31.5 46.5t42.5 15.5h76q55 -22 55 -84q0 -33 -10.5 -59.5t-30.5 -60.5q-16 -28 -23.5 -45.5t-7.5 -36.5v-112q0 -51 6 -78.5z" />
    <glyph glyph-name="uni0E04" unicode="&#xe04;" horiz-adv-x="786" 
d="M705.5 34q4.5 -4 19.5 -7l33 -6v-21h-206q-53 0 -53 58v333q0 55 -7.5 83.5t-30 42t-68.5 13.5t-68.5 -13.5t-30 -42t-7.5 -83.5v-121q27 29 53.5 46t62.5 17q25 0 42 -10v-135h-16q-63 33 -84 42.5t-32 9.5q-26 0 -26 -24v-167q0 -11 4.5 -15t19.5 -7l31 -6v-21h-314v21
l33 6q15 3 19.5 7t4.5 15v308q0 99 70.5 150t237.5 51t237.5 -51t70.5 -150v-308q0 -11 4.5 -15z" />
    <glyph glyph-name="uni0E05" unicode="&#xe05;" horiz-adv-x="802" 
d="M721.5 34q4.5 -4 19.5 -7l33 -6v-21h-206q-53 0 -53 58v388q0 33 -10 48t-35 15q-23 0 -37 -18.5t-14 -52.5v-16h-36v16q0 34 -14 52.5t-37 18.5q-25 0 -35 -15t-10 -48v-176q26 28 55 45.5t65 17.5q25 0 42 -10v-135h-16q-61 32 -84 42t-34 10q-13 0 -20.5 -6.5
t-7.5 -17.5v-167q0 -11 4.5 -15t19.5 -7l31 -6v-21h-314v21l33 6q15 3 19.5 7t4.5 15v340q0 84 43.5 126.5t138.5 42.5q107 0 134 -63q27 63 134 63q95 0 138.5 -42.5t43.5 -126.5v-340q0 -11 4.5 -15z" />
    <glyph glyph-name="uni0E06" unicode="&#xe06;" horiz-adv-x="779" 
d="M358.5 61.5q31.5 -17.5 71.5 -17.5q38 0 51.5 21.5t13.5 78.5v335q0 11 -4.5 15t-19.5 7l-34 6v21l239 30h21v-402q0 -85 -46.5 -126.5t-155.5 -41.5q-67 0 -117.5 26t-80.5 62q0 -34 -16 -55t-47 -21h-194v21l33 6q15 3 19.5 7t4.5 15v198q0 37 17 62.5t57 43.5
q62 28 90 42.5t48 35.5t20 49v9h-11q-24 -37 -73 -63t-118 -26q-54 0 -77.5 34.5t-23.5 99.5h26q0 -48 13.5 -73.5t39.5 -25.5q17 0 27 11.5t24 37.5q16 31 31.5 46.5t42.5 15.5h76q55 -22 55 -84q0 -32 -8.5 -57t-26.5 -63q-14 -27 -20.5 -45t-6.5 -37v-153
q28 -28 59.5 -45.5z" />
    <glyph glyph-name="uni0E07" unicode="&#xe07;" horiz-adv-x="692" 
d="M579 488.5q61 -69.5 61 -200.5q0 -108 -31 -173.5t-95.5 -95t-169.5 -29.5q-60 0 -112.5 9t-89.5 26l-114 353l171 42l123 -397h12q55 0 75 64t20 197q0 118 -24.5 174.5t-78.5 56.5q-32 0 -60 -16l-16 30q22 12 61 20.5t85 8.5q122 0 183 -69.5z" />
    <glyph glyph-name="uni0E08" unicode="&#xe08;" horiz-adv-x="674" 
d="M30 274v29h177q21 0 31 -9t16 -29l68 -239q46 5 68.5 70t22.5 181q0 122 -40 178.5t-131 56.5q-52 0 -100.5 -12.5t-88.5 -35.5l-18 26q56 32 119 50t160 18q151 0 230.5 -68t79.5 -207q0 -133 -75 -208t-221 -75h-179l-80 274h-39z" />
    <glyph glyph-name="uni0E09" unicode="&#xe09;" horiz-adv-x="716" 
d="M635.5 33q4.5 -4 19.5 -7l33 -6v-20h-224q-33 0 -33 32v29q-25 -33 -62 -52t-104 -19q-92 0 -137 37t-45 116v111q0 11 -4.5 15t-19.5 7l-33 6v21h259v-179q0 -50 10 -68t43 -18q27 0 50.5 18t40.5 45v262q0 60 -16 92t-52.5 44.5t-102.5 12.5q-53 0 -105.5 -13
t-91.5 -35l-18 26q54 31 121.5 49.5t165.5 18.5q155 0 228 -51.5t73 -173.5v-285q0 -11 4.5 -15z" />
    <glyph glyph-name="uni0E0A" unicode="&#xe0a;" horiz-adv-x="734" 
d="M588.5 37.5q-63.5 -49.5 -221.5 -49.5t-222 49.5t-64 143.5v91q0 28 10.5 47.5t31.5 45.5q22 26 33.5 47.5t11.5 52.5q0 30 -10.5 44.5t-37.5 14.5q-31 0 -48.5 -16.5t-17.5 -48.5q0 -18 3 -33h-27q-6 15 -6 35q0 45 33.5 71t132.5 26q158 0 158 -106q0 -23 -7.5 -41.5
t-23.5 -43.5q-16 -26 -25 -47.5t-9 -49.5v-122q0 -51 6.5 -78.5t24 -40.5t53.5 -13t53.5 13t23.5 40.5t6 78.5v83q0 51 -4 78.5t-14.5 39.5t-29.5 12h-33v28h38q29 0 40 14t11 44v96l193 23h9v-80q0 -51 -29.5 -81t-78.5 -37q52 -7 76 -38.5t24 -97.5v-51
q0 -94 -63.5 -143.5z" />
    <glyph glyph-name="uni0E0B" unicode="&#xe0b;" horiz-adv-x="734" 
d="M100.5 309q17.5 25 59.5 44l21 9q74 33 109 57.5t35 60.5v9h-11q-24 -37 -73 -63t-118 -26q-54 0 -77.5 34.5t-23.5 99.5h26q0 -48 13.5 -73.5t39.5 -25.5q17 0 27 11.5t24 37.5q16 31 31.5 46.5t42.5 15.5h76q55 -22 55 -84q0 -33 -10.5 -59.5t-30.5 -60.5
q-16 -28 -23.5 -45.5t-7.5 -36.5v-112q0 -51 6.5 -78.5t24 -40.5t53.5 -13t53.5 13t23.5 40.5t6 78.5v83q0 51 -4 78.5t-14.5 39.5t-29.5 12h-29v28h34q29 0 40 14t11 44v96l193 23h9v-80q0 -51 -29.5 -81t-78.5 -37q52 -7 76 -38.5t24 -97.5v-51q0 -94 -63.5 -143.5
t-221.5 -49.5t-222 49.5t-64 143.5v66q0 37 17.5 62z" />
    <glyph glyph-name="uni0E0C" unicode="&#xe0c;" horiz-adv-x="1134" 
d="M845.5 494q-4.5 4 -19.5 7l-34 6v21l239 30h21v-410q0 -79 -43.5 -119.5t-143.5 -40.5q-124 0 -198 88l-23 -76h-177v407q0 48 -8 73.5t-28 36.5t-58 11q-41 0 -86 -10v-382q0 -57 5.5 -79t30.5 -22q14 0 29.5 9t28.5 26l19 -17q-41 -63 -142 -63q-92 0 -137 51.5
t-45 160.5q0 96 26.5 150t80.5 76v13l-129 24v16q164 77 342 77q146 0 209.5 -44.5t63.5 -135.5v-271q30 -30 57.5 -47.5t64.5 -17.5q35 0 47 20t12 70v347q0 11 -4.5 15z" />
    <glyph glyph-name="uni0E0D" unicode="&#xe0d;" horiz-adv-x="1119" 
d="M459 480.5q-8 25.5 -28 36.5t-58 11q-41 0 -86 -10v-382q0 -57 5.5 -79t30.5 -22q14 0 29.5 9t28.5 26l19 -17q-41 -63 -142 -63q-92 0 -137 51.5t-45 160.5q0 96 26.5 150t80.5 76v13l-129 24v16q164 77 342 77q146 0 209.5 -44.5t63.5 -135.5v-184q0 -71 18.5 -98.5
t64.5 -27.5t64.5 28t18.5 98v285q0 11 -4.5 15t-19.5 7l-34 6v21l239 30h21v-332q0 -88 -56 -133q31 -16 49 -47t18 -72q0 -66 -67 -103t-185 -37q-91 0 -165 20.5t-112 62.5l100 87h7l19 -23q49 -60 103 -84.5t125 -24.5q65 0 109 29t44 77q0 72 -61 104q-68 -44 -213 -44
q-154 0 -219.5 47.5t-65.5 140.5v181q0 48 -8 73.5z" />
    <glyph glyph-name="uni0E0E" unicode="&#xe0e;" horiz-adv-x="783" 
d="M282.5 24.5q-38.5 -34.5 -124.5 -34.5q-58 0 -91 15t-56 46l18 18q14 -18 27 -26.5t29 -8.5q18 0 26 11.5t8 47.5v219q0 43 26 73.5t72 42.5v13l-138 24v16q165 77 350 77q145 0 208.5 -44.5t63.5 -135.5v-514q0 -56 -56 -85t-133 -29h-10q-94 82 -147.5 111.5
t-91.5 29.5q-71 0 -71 -67q0 -30 14 -39.5t42 -9.5q30 0 56 16l10 -19q-42 -28 -116 -28q-130 0 -130 89q0 95 135 95q76 0 142 -33.5t154 -112.5v625q0 47 -8 73t-28 37t-57 11q-40 0 -85 -9v-388q0 -72 -38.5 -106.5z" />
    <glyph glyph-name="uni0E0F" unicode="&#xe0f;" horiz-adv-x="783" 
d="M499 -207v614q0 47 -8 73t-28 37t-57 11q-40 0 -85 -9v-388q0 -72 -38.5 -106.5t-124.5 -34.5q-58 0 -91 15t-56 46l18 18q14 -18 27 -26.5t29 -8.5q18 0 26 11.5t8 47.5v219q0 43 26 73.5t72 42.5v13l-138 24v16q165 77 350 77q145 0 208.5 -44.5t63.5 -135.5v-514
q0 -56 -56 -85t-133 -29h-10l-99 116l-57 -62q-30 -33 -53 -46.5t-67 -13.5q-69 0 -107.5 31.5t-38.5 81.5q0 14 5 36h153q-4 -17 -4 -40q0 -28 10.5 -45.5t33.5 -17.5q15 0 26.5 9.5t28.5 27.5l59 66h22z" />
    <glyph glyph-name="uni0E10" unicode="&#xe10;" horiz-adv-x="678" 
d="M32 274v29h177q21 0 31 -9t16 -29l68 -239q46 5 68.5 70t22.5 181q0 122 -40 178.5t-131 56.5q-52 0 -100.5 -12.5t-88.5 -35.5l-18 26q56 32 119 50t160 18q113 0 186 -39q5 20 5 39q0 31 -9 52h111q43 0 43 -42q0 -62 -107 -78q81 -69 81 -207q0 -79 -27 -138.5
t-80 -95.5q48 -18 77 -55.5t29 -89.5q0 -55 -35.5 -82.5t-93.5 -27.5h-91l-54 66q-40 -36 -74 -54t-79 -18q-88 0 -121.5 35.5t-33.5 113.5h148q0 -116 45 -116q21 0 43.5 14t52.5 41l66 61h23l94 -114q40 2 61 21.5t21 60.5q0 47 -26 81t-76 49q-67 -35 -165 -35h-179
l-80 274h-39z" />
    <glyph glyph-name="uni0E11" unicode="&#xe11;" horiz-adv-x="790" 
d="M709.5 34q4.5 -4 19.5 -7l33 -6v-21h-206q-53 0 -53 58v364q0 41 -10.5 58t-30.5 17q-25 0 -61 -24t-102 -74v-350q0 -11 4.5 -15t19.5 -7l31 -6v-21h-314v21l33 6q15 3 19.5 7t4.5 15v166q0 31 11.5 57t45.5 59q24 23 50 42t82 56q12 9 27 18v42h-11q-59 -89 -181 -89
q-54 0 -77.5 34.5t-23.5 99.5h26q0 -48 13.5 -73.5t39.5 -25.5q17 0 27 11.5t24 37.5q16 31 31.5 46.5t42.5 15.5h76q45 -12 45 -64v-13q61 43 109 66t108 23q74 0 108.5 -38.5t34.5 -113.5v-357q0 -11 4.5 -15z" />
    <glyph glyph-name="uni0E12" unicode="&#xe12;" horiz-adv-x="1189" 
d="M500.5 494.5q-8.5 15.5 -31.5 15.5q-22 0 -37 -19t-15 -53v-21h-36v21q0 34 -14 53t-36 19q-36 0 -53.5 -55.5t-17.5 -176.5q0 -113 21.5 -180.5t87.5 -67.5q34 0 62 19l12 -24q-24 -16 -55.5 -25.5t-78.5 -9.5q-130 0 -193.5 66.5t-63.5 200.5q0 139 63 220t175 81
q42 0 69.5 -15.5t41.5 -49.5q18 33 53 49t94 16q85 0 124 -37.5t39 -112.5v-299q29 -29 59.5 -47t70.5 -18q38 0 51 21t13 79v335q0 11 -4.5 15t-19.5 7l-33 6v21l238 30h21v-402q0 -85 -46 -126.5t-155 -41.5q-66 0 -116.5 26t-80.5 62l-23 -76h-177v446q0 33 -8.5 48.5z
" />
    <glyph glyph-name="uni0E13" unicode="&#xe13;" horiz-adv-x="1134" 
d="M1056.5 34q4.5 -4 19.5 -7l33 -6v-21h-224q-33 0 -33 32v34q-32 -33 -79 -55.5t-108 -22.5q-105 0 -151.5 42t-46.5 126v251q0 48 -8 73.5t-28 36.5t-58 11q-41 0 -86 -10v-382q0 -57 5.5 -79t30.5 -22q14 0 29.5 9t28.5 26l19 -17q-41 -63 -142 -63q-92 0 -137 51.5
t-45 160.5q0 96 26.5 150t80.5 76v13l-129 24v16q164 77 342 77q146 0 209.5 -44.5t63.5 -135.5v-234q0 -56 16 -78.5t57 -22.5q33 0 58.5 15.5t49.5 41.5v379q0 11 -4.5 15t-19.5 7l-34 6v21l239 30h21v-509q0 -11 4.5 -15z" />
    <glyph glyph-name="uni0E14" unicode="&#xe14;" horiz-adv-x="776" 
d="M431 49l12 -24q-24 -16 -55.5 -25.5t-78.5 -9.5q-257 0 -257 259q0 160 90.5 234.5t244.5 74.5q167 0 235.5 -48t68.5 -142v-320q0 -11 4.5 -15t19.5 -7l33 -6v-20h-206q-53 0 -53 57v350q0 69 -20.5 95t-72.5 26q-59 0 -88.5 -33t-38.5 -85.5t-9 -131.5
q0 -115 23 -181.5t86 -66.5q34 0 62 19z" />
    <glyph glyph-name="uni0E15" unicode="&#xe15;" horiz-adv-x="796" 
d="M500.5 494.5q-8.5 15.5 -31.5 15.5q-22 0 -37 -19t-15 -53v-21h-36v21q0 34 -14 53t-36 19q-36 0 -53.5 -55.5t-17.5 -176.5q0 -113 21.5 -180.5t87.5 -67.5q34 0 62 19l12 -24q-24 -16 -55.5 -25.5t-78.5 -9.5q-130 0 -193.5 66.5t-63.5 200.5q0 139 63 220t175 81
q42 0 69.5 -15.5t41.5 -49.5q18 33 53 49t94 16q85 0 124 -37.5t39 -112.5v-360q0 -11 4.5 -15t19.5 -7l33 -6v-20h-206q-53 0 -53 57v389q0 33 -8.5 48.5z" />
    <glyph glyph-name="uni0E16" unicode="&#xe16;" horiz-adv-x="764" 
d="M293 57q6 -22 32 -22q15 0 30 9.5t32 29.5l19 -17q-24 -33 -58 -50t-88 -17q-95 0 -139.5 51.5t-44.5 160.5q0 96 26.5 150t80.5 76v13l-129 24v16q164 77 347 77q149 0 213.5 -44.5t64.5 -135.5v-329q0 -11 4.5 -15t19.5 -7l33 -6v-21h-206q-53 0 -53 58v349
q0 48 -8.5 73.5t-29.5 36.5t-61 11q-46 0 -91 -10v-382q0 -57 6 -79z" />
    <glyph glyph-name="uni0E17" unicode="&#xe17;" horiz-adv-x="780" 
d="M390 529.5q58 28.5 141 28.5q164 0 164 -148v-362q0 -11 4.5 -15t19.5 -7l33 -6v-20h-206q-53 0 -53 57v373q0 42 -13 58t-41 16q-41 0 -80 -24t-70 -56v-376q0 -11 4.5 -15t19.5 -7l31 -6v-20h-314v20l33 6q15 3 19.5 7t4.5 15v431q0 11 -4.5 15t-19.5 7l-33 6v21
l238 30h19v-99q45 42 103 70.5z" />
    <glyph glyph-name="uni0E18" unicode="&#xe18;" horiz-adv-x="690" 
d="M262 20h58q44 0 67 7t33 26t10 57v159q0 29 -11.5 39.5t-43.5 10.5h-298q-19 38 -19 80q0 87 78 123t225 36q72 0 136.5 -7.5t97.5 -17.5l-8 -126h-68q-23 46 -42.5 71.5t-45.5 38t-65 12.5q-56 0 -81.5 -24.5t-25.5 -82.5v-73h175q73 0 115 -12t60.5 -39.5t18.5 -75.5
v-105q0 -68 -72.5 -98.5t-210.5 -30.5q-45 0 -86 5t-103 15q-61 11 -90 13v230h196v-231z" />
    <glyph glyph-name="uni0E19" unicode="&#xe19;" horiz-adv-x="766" 
d="M481 32v34q-31 -32 -82.5 -55t-114.5 -23q-109 0 -155 41.5t-46 126.5v323q0 11 -4.5 15t-19.5 7l-33 6v21l238 30h21v-414q0 -58 15 -80.5t58 -22.5q36 0 65.5 16.5t55.5 42.5v379q0 11 -4.5 15t-19.5 7l-33 6v21l238 30h21v-509q0 -11 4.5 -15t19.5 -7l33 -6v-21h-224
q-33 0 -33 32z" />
    <glyph glyph-name="uni0E1A" unicode="&#xe1a;" horiz-adv-x="767" 
d="M657 71.5q-28 -40.5 -94 -62t-179 -21.5t-179 21.5t-94 62t-28 102.5v305q0 11 -4.5 15t-19.5 7l-33 6v21l238 30h21v-414q0 -50 8 -76.5t29.5 -38t61.5 -11.5t61.5 11.5t29.5 38.5t8 76v335q0 11 -4.5 15t-19.5 7l-33 6v21l238 30h21v-384q0 -62 -28 -102.5z" />
    <glyph glyph-name="uni0E1B" unicode="&#xe1b;" horiz-adv-x="767" 
d="M657 71.5q-28 -40.5 -94 -62t-179 -21.5t-179 21.5t-94 62t-28 102.5v305q0 11 -4.5 15t-19.5 7l-33 6v21l238 30h21v-414q0 -50 8 -76.5t29.5 -38t61.5 -11.5t61.5 11.5t29.5 38.5t8 76v589l181 23h21v-582q0 -62 -28 -102.5z" />
    <glyph glyph-name="uni0E1C" unicode="&#xe1c;" horiz-adv-x="864" 
d="M782 560v-385q0 -103 -51.5 -145t-151.5 -42q-74 0 -106.5 25t-40.5 66q-8 -41 -40.5 -66t-108.5 -25q-101 0 -153 42t-52 145v199q0 74 18.5 114t56 55t100.5 15q54 0 88 -17t58 -50l-19 -17q-17 20 -32 29.5t-30 9.5q-26 0 -32 -22t-6 -79v-262q0 -68 13 -95t50 -27
q71 0 71 139v148h36v-148q0 -139 69 -139q36 0 48.5 27t12.5 95v387l181 23h21z" />
    <glyph glyph-name="uni0E1D" unicode="&#xe1d;" horiz-adv-x="864" 
d="M782 756v-581q0 -103 -51.5 -145t-151.5 -42q-74 0 -106.5 25t-40.5 66q-8 -41 -40.5 -66t-108.5 -25q-101 0 -153 42t-52 145v199q0 74 18.5 114t56 55t100.5 15q54 0 88 -17t58 -50l-19 -17q-17 20 -32 29.5t-30 9.5q-26 0 -32 -22t-6 -79v-262q0 -68 13 -95t50 -27
q71 0 71 139v148h36v-148q0 -139 69 -139q36 0 48.5 27t12.5 95v583l181 23h21z" />
    <glyph glyph-name="uni0E1E" unicode="&#xe1e;" horiz-adv-x="864" 
d="M47 519l-33 6v21h250l56 -366l97 280h29l97 -281l51 326q3 22 13.5 31.5t36.5 9.5h206v-21l-33 -6q-22 -3 -25 -21l-81 -498h-134l-146 418l-144 -418h-134l-81 498q-3 18 -25 21z" />
    <glyph glyph-name="uni0E1F" unicode="&#xe1f;" horiz-adv-x="854" 
d="M47 519l-33 6v21h250l55 -362l93 276h29l103 -271l58 544l181 23h21l-82 -756h-134l-161 419l-140 -419h-134l-81 498q-3 18 -25 21z" />
    <glyph glyph-name="uni0E20" unicode="&#xe20;" horiz-adv-x="786" 
d="M56 42.5q13 -8.5 29 -8.5q18 0 26 11.5t8 47.5v219q0 43 26 73.5t72 42.5v13l-138 24v16q165 77 350 77q145 0 208.5 -44.5t63.5 -135.5v-330q0 -11 4.5 -15t19.5 -7l33 -6v-20h-206q-53 0 -53 57v350q0 47 -8 73t-28 37t-57 11q-40 0 -85 -9v-388q0 -72 -38.5 -106.5
t-124.5 -34.5q-58 0 -91 15t-56 46l18 18q14 -18 27 -26.5z" />
    <glyph glyph-name="uni0E21" unicode="&#xe21;" horiz-adv-x="767" 
d="M348.5 62q30.5 -18 70.5 -18q38 0 51 21t13 79v335q0 11 -4.5 15t-19.5 7l-33 6v21l238 30h21v-402q0 -85 -46 -126.5t-155 -41.5q-66 0 -116.5 26t-80.5 62q0 -34 -16 -55t-47 -21h-194v21l33 6q15 3 19.5 7t4.5 15v430q0 11 -4.5 15t-19.5 7l-33 6v21l238 30h21v-449
q29 -29 59.5 -47z" />
    <glyph glyph-name="uni0E22" unicode="&#xe22;" horiz-adv-x="744" 
d="M257 317q15 -13 39 -13h112v-30h-112q-46 0 -46 -54v-76q0 -50 8.5 -76.5t31 -38t65.5 -11.5t65.5 11.5t31 38.5t8.5 76v393l193 23h9v-386q0 -62 -28.5 -102.5t-96 -62t-182.5 -21.5q-114 0 -179 20.5t-90.5 58t-25.5 92.5q0 115 137 134q-66 11 -98.5 42t-32.5 86
q0 65 50.5 99t129.5 34q46 0 76 -11t59 -33l-18 -21q-12 10 -29 17.5t-31 7.5q-36 0 -48.5 -20.5t-12.5 -66.5v-69q0 -28 15 -41z" />
    <glyph glyph-name="uni0E23" unicode="&#xe23;" horiz-adv-x="634" 
d="M376 33q35 17 35 52q0 32 -15 51.5t-45 34.5t-93 38q-77 29 -118.5 49.5t-66.5 52.5t-25 82q0 85 79.5 125t205.5 40q55 0 110 -9t100 -25l-8 -144h-21q-20 82 -65 116t-112 34q-54 0 -84 -17.5t-30 -53.5q0 -26 14 -43t44 -32t93 -39q84 -32 125.5 -54t64 -54t22.5 -84
q0 -54 -26 -89.5t-92.5 -55.5t-183.5 -20q-54 0 -117 8.5t-101 24.5l8 146h21q26 -86 72 -118.5t113 -32.5q61 0 96 17z" />
    <glyph glyph-name="uni0E24" unicode="&#xe24;" horiz-adv-x="764" 
d="M468.5 480.5q-8.5 25.5 -29.5 36.5t-61 11q-46 0 -91 -10v-382q0 -57 6 -79t32 -22q15 0 30 9.5t32 29.5l19 -17q-24 -33 -58 -50t-88 -17q-95 0 -139.5 51.5t-44.5 160.5q0 96 26.5 150t80.5 76v13l-129 24v16q164 77 347 77q149 0 213.5 -44.5t64.5 -135.5v-557
q0 -11 4.5 -15t19.5 -7l33 -6v-21h-320v21l37 6q14 2 19 6.5t5 16.5v585q0 48 -8.5 73.5z" />
    <glyph glyph-name="uni0E25" unicode="&#xe25;" horiz-adv-x="692" 
d="M303.5 271.5q-35.5 -19.5 -49.5 -52.5t-14 -87q0 -91 64 -91q19 0 35 12l12 -21q-55 -44 -150 -44q-165 0 -165 138q0 65 38 107t119 65t212 30v67q0 63 -29 89t-88 26q-56 0 -101.5 -12t-90.5 -36l-18 26q114 70 285 70q122 0 183 -41.5t61 -141.5v-326q0 -11 4.5 -15
t19.5 -7l33 -6v-21h-206q-53 0 -53 58v240q-66 -7 -101.5 -26.5z" />
    <glyph glyph-name="uni0E26" unicode="&#xe26;" horiz-adv-x="786" 
d="M705.5 -194q4.5 -4 19.5 -7l33 -6v-21h-320v21l37 6q14 2 19 6.5t5 16.5v585q0 47 -8 73t-28 37t-57 11q-40 0 -85 -9v-388q0 -72 -38.5 -106.5t-124.5 -34.5q-58 0 -91 15t-56 46l18 18q14 -18 27 -26.5t29 -8.5q18 0 26 11.5t8 47.5v219q0 43 26 73.5t72 42.5v13
l-138 24v16q165 77 350 77q145 0 208.5 -44.5t63.5 -135.5v-557q0 -11 4.5 -15z" />
    <glyph glyph-name="uni0E27" unicode="&#xe27;" horiz-adv-x="652" 
d="M505.5 58q-94.5 -68 -247.5 -68q-54 0 -102.5 10.5t-81.5 26.5l12 146h19q19 -78 54.5 -116t94.5 -38q69 0 102 63.5t33 194.5q0 122 -38.5 178.5t-124.5 56.5q-95 0 -178 -48l-18 26q56 32 116.5 50t151.5 18q145 0 223.5 -68.5t78.5 -206.5q0 -157 -94.5 -225z" />
    <glyph glyph-name="uni0E28" unicode="&#xe28;" horiz-adv-x="788" 
d="M705.5 34q4.5 -4 19.5 -7l33 -6v-21h-206q-53 0 -53 58v333q0 55 -7.5 83.5t-30 42t-68.5 13.5t-68.5 -13.5t-30 -42t-7.5 -83.5v-121q27 29 53.5 46t62.5 17q25 0 42 -10v-135h-16q-63 33 -84 42.5t-32 9.5q-26 0 -26 -24v-167q0 -11 4.5 -15t19.5 -7l31 -6v-21h-314v21
l33 6q15 3 19.5 7t4.5 15v308q0 99 70.5 150t237.5 51q125 0 202 -37q4 16 4 37q0 31 -9 52h111q43 0 43 -42q0 -61 -102 -77q59 -50 59 -134v-308q0 -11 4.5 -15z" />
    <glyph glyph-name="uni0E29" unicode="&#xe29;" horiz-adv-x="780" 
d="M377.5 336q6.5 9 18.5 16l93 -31v158q0 11 -4.5 15t-19.5 7l-33 6v21l238 30h21v-246h73v-24h-73v-114q0 -93 -69 -139.5t-235 -46.5t-235 46.5t-69 139.5v305q0 11 -4.5 15t-19.5 7l-33 6v21l238 30h21v-414q0 -49 9 -76t30.5 -38.5t62.5 -11.5q40 0 62 11.5t31 38.5
t9 76v144h-125v24q7 15 13.5 24z" />
    <glyph glyph-name="uni0E2A" unicode="&#xe2a;" horiz-adv-x="694" 
d="M303.5 271.5q-35.5 -19.5 -49.5 -52.5t-14 -87q0 -91 64 -91q19 0 35 12l12 -21q-55 -44 -150 -44q-165 0 -165 138q0 65 38 107t119 65t212 30v67q0 63 -29 89t-88 26q-56 0 -101.5 -12t-90.5 -36l-18 26q114 70 285 70q93 0 153 -32q3 15 3 31q0 32 -9 53h111
q43 0 43 -42q0 -59 -101 -77q44 -46 44 -120v-322q0 -11 4.5 -15t19.5 -7l33 -6v-21h-206q-53 0 -53 58v240q-66 -7 -101.5 -26.5z" />
    <glyph glyph-name="uni0E2B" unicode="&#xe2b;" horiz-adv-x="758" 
d="M415 362q42 8 58 38.5t16 89.5q0 25 -12 50q21 8 51 14t59 6q55 0 77.5 -22.5t22.5 -67.5q0 -49 -42.5 -86.5t-144.5 -47.5q66 -6 102.5 -19.5t53.5 -42t17 -79.5v-147q0 -11 4.5 -15t19.5 -7l33 -6v-20h-206q-53 0 -53 57v152q0 55 -13.5 81t-50.5 31q-27 4 -118 4v-277
q0 -11 4.5 -15t19.5 -7l31 -6v-20h-314v20l33 6q15 3 19.5 7t4.5 15v431q0 11 -4.5 15t-19.5 7l-33 6v21l238 30h21v-203q91 0 126 7z" />
    <glyph glyph-name="uni0E2C" unicode="&#xe2c;" horiz-adv-x="854" 
d="M47 519l-33 6v21h250l55 -362l93 276h29l103 -271l29 265q3 26 3 45q0 37 -12 52t-40 15h-55v28h61q37 0 54.5 15t21.5 51l10 91h197l-6 -67q-4 -44 -37 -74t-83 -40q42 -6 62 -33t20 -81q0 -26 -2 -41l-45 -415h-134l-161 419l-140 -419h-134l-81 498q-3 18 -25 21z" />
    <glyph glyph-name="uni0E2D" unicode="&#xe2d;" horiz-adv-x="682" 
d="M554 60.5q-76 -72.5 -251 -72.5q-43 0 -81.5 5.5t-93.5 16.5q-60 11 -74 13v248h276v-28h-82v-223h35q72 0 104 67.5t32 181.5q0 81 -15 132.5t-52.5 78t-103.5 26.5q-50 0 -91.5 -12t-83.5 -37l-18 26q55 35 117 55t154 20q150 0 227 -74.5t77 -214.5q0 -136 -76 -208.5
z" />
    <glyph glyph-name="uni0E2E" unicode="&#xe2e;" horiz-adv-x="684" 
d="M556 60.5q-76 -72.5 -251 -72.5q-43 0 -81.5 5.5t-93.5 16.5q-60 11 -74 13v248h276v-28h-82v-223h35q72 0 104 67.5t32 181.5q0 81 -15 132.5t-52.5 78t-103.5 26.5q-50 0 -91.5 -12t-83.5 -37l-18 26q55 35 117 55t154 20q102 0 177 -42q6 20 6 43q0 30 -9 51h111
q43 0 43 -42q0 -33 -30 -52.5t-84 -26.5q44 -38 67 -94t23 -126q0 -136 -76 -208.5z" />
    <glyph glyph-name="uni0E2F" unicode="&#xe2f;" horiz-adv-x="704" 
d="M623.5 33q4.5 -4 19.5 -7l33 -6v-20h-318v20l37 6q14 2 19 6.5t5 16.5v297q-29 -41 -71.5 -64.5t-105.5 -23.5q-96 0 -139 42t-43 126v120h194v-132q0 -41 3.5 -61t15 -29t35.5 -9t49.5 17t42.5 45.5t17 61.5v107h202v-498q0 -11 4.5 -15z" />
    <glyph glyph-name="uni0E30" unicode="&#xe30;" horiz-adv-x="402" 
d="M356 478l-51 -140h-162q-40 0 -66.5 24.5t-26.5 69.5q0 16 5 39l15 66h24v-20q1 -19 11.5 -25t37.5 -6h207zM356 186l-51 -140h-162q-40 0 -66.5 24.5t-26.5 69.5q0 16 5 39l15 66h24v-20q1 -19 11.5 -25t37.5 -6h207z" />
    <glyph glyph-name="uni0E31" unicode="&#xe31;" 
d="M45 726q-126 -80 -303 -80q-99 0 -145 21t-46 71q0 75 89 75q43 0 80 -14v-68q0 -27 14.5 -39.5t55.5 -12.5q140 0 241 66z" />
    <glyph glyph-name="uni0E32" unicode="&#xe32;" horiz-adv-x="552" 
d="M204 21l37 6q14 2 19 6.5t5 16.5v346q0 66 -21.5 89.5t-73.5 23.5q-73 0 -145 -46l-17 25q106 70 254 70q110 0 157.5 -44t47.5 -138v-327q0 -11 4.5 -15t19.5 -7l33 -6v-21h-320v21z" />
    <glyph glyph-name="uni0E33" unicode="&#xe33;" horiz-adv-x="552" 
d="M-105 798.5q40 -20.5 40 -67.5t-40 -67.5t-98 -20.5t-98 20.5t-40 67.5t40 67.5t98 20.5t98 -20.5zM-172 683q10 15 10 48t-10 48t-31 15t-31 -15t-10 -48t10 -48t31 -15t31 15zM204 21l37 6q14 2 19 6.5t5 16.5v346q0 66 -21.5 89.5t-73.5 23.5q-73 0 -145 -46l-17 25
q106 70 254 70q110 0 157.5 -44t47.5 -138v-327q0 -11 4.5 -15t19.5 -7l33 -6v-21h-320v21z" />
    <glyph glyph-name="uni0E34" unicode="&#xe34;" 
d="M-632 700q15 31 53 52t93 26l404 -102v-24h-550v48z" />
    <glyph glyph-name="uni0E35" unicode="&#xe35;" 
d="M-632 700q15 31 53 52t93 26l254 -85v119h150v-160h-550v48z" />
    <glyph glyph-name="uni0E36" unicode="&#xe36;" 
d="M-92.5 781.5q25.5 -18.5 25.5 -55.5t-25.5 -55.5t-63.5 -18.5h-476v48q15 31 53 52t93 26l249 -85q-8 14 -8 33q0 37 25.5 55.5t63.5 18.5t63.5 -18.5zM-132.5 682q6.5 14 6.5 44t-6.5 44t-23.5 14t-23.5 -14t-6.5 -44t6.5 -44t23.5 -14t23.5 14z" />
    <glyph glyph-name="uni0E37" unicode="&#xe37;" 
d="M-579 752q38 21 93 26l186 -62v96h82v-111h54v111h82v-160h-550v48q15 31 53 52z" />
    <glyph glyph-name="uni0E38" unicode="&#xe38;" 
d="M-361 -110v30h192q28 0 39.5 -11.5t11.5 -38.5v-143h-178v163h-65z" />
    <glyph glyph-name="uni0E39" unicode="&#xe39;" 
d="M-556 -110v30h171q28 0 39.5 -11.5t11.5 -38.5v-111h30q29 0 41 7t12 24v130h163v-110q0 -34 -14.5 -50.5t-59 -23.5t-138.5 -7q-112 0 -197 22v139h-59z" />
    <glyph glyph-name="uni0E3A" unicode="&#xe3a;" 
d="M-239.5 -228q-26.5 26 -26.5 63t26.5 63t64.5 26t64.5 -26t26.5 -63t-26.5 -63t-64.5 -26t-64.5 26z" />
    <glyph glyph-name="uni0E3F" unicode="&#xe3f;" horiz-adv-x="748" 
d="M362 800h30v-101q100 -4 158.5 -21.5t85 -51.5t26.5 -88q0 -80 -47.5 -118t-151.5 -49q88 -7 140.5 -26.5t77.5 -58t25 -102.5q0 -65 -32.5 -104.5t-100.5 -58t-181 -21.5v-100h-30v100h-336v20l37 8q15 3 19.5 7t4.5 15v600q0 11 -4.5 15t-19.5 7l-37 8v20h336v100z
M362 384v285q-6 1 -18 1h-57v-286h75zM392 664v-273q78 26 78 147q0 104 -78 126zM287 30h75v324h-75v-324zM478.5 302q-25.5 40 -86.5 49v-317q112 21 112 150q0 78 -25.5 118z" />
    <glyph glyph-name="uni0E40" unicode="&#xe40;" horiz-adv-x="384" 
d="M267 558h21v-494q0 -16 5.5 -21.5t23.5 -7.5l37 -4v-23q-66 -14 -122 -14q-57 0 -88 10.5t-42.5 33t-11.5 61.5v436z" />
    <glyph glyph-name="uni0E41" unicode="&#xe41;" horiz-adv-x="734" 
d="M267 558h21v-494q0 -16 5.5 -21.5t23.5 -7.5l37 -4v-23q-66 -14 -122 -14q-57 0 -88 10.5t-42.5 33t-11.5 61.5v436zM617 558h21v-494q0 -16 5.5 -21.5t23.5 -7.5l37 -4v-23q-66 -14 -122 -14q-57 0 -88 10.5t-42.5 33t-11.5 61.5v436z" />
    <glyph glyph-name="uni0E42" unicode="&#xe42;" horiz-adv-x="444" 
d="M343.5 42.5q5.5 -5.5 23.5 -7.5l37 -4v-23q-66 -14 -122 -14q-57 0 -88 10.5t-42.5 33t-11.5 61.5v549q0 24 -5.5 34t-24.5 17l-146 60v29q33 52 107 83.5t154 31.5q26 0 59 -14t85 -40q35 -19 54.5 -27.5t31.5 -9.5l65 32l12 -20l-165 -94q-32 0 -68.5 26t-80.5 68
q-4 4 -19.5 17.5t-25 20t-14.5 6.5q-33 0 -75 -16.5t-60 -36.5q-11 -13 -11 -23q0 -20 36 -35l216 -91q36 -15 54.5 -35.5t18.5 -59.5v-507q0 -16 5.5 -21.5z" />
    </font>
</defs>
</svg>
