<?xml version="1.0" standalone="no"?>
<!DOCTYPE svg PUBLIC "-//W3C//DTD SVG 1.1//EN" "http://www.w3.org/Graphics/SVG/1.1/DTD/svg11.dtd" >
<svg xmlns="http://www.w3.org/2000/svg" xmlns:xlink="http://www.w3.org/1999/xlink" version="1.1">
<metadata>
Created by FontForge 20170924 at Wed Jul 10 05:23:27 2019
 By www-data
Copyright 2019 The Red Hat Project Authors (https://github.com/RedHatOfficial/RedHatFont)
</metadata>
<defs>
<font id="RedHatDisplay-Black" horiz-adv-x="611" >
  <font-face 
    font-family="Red Hat Display Black"
    font-weight="900"
    font-stretch="normal"
    units-per-em="1000"
    panose-1="2 1 10 3 4 2 1 6 3 3"
    ascent="800"
    descent="-200"
    x-height="529"
    cap-height="700"
    bbox="-72 -295 1153 1007"
    underline-thickness="50"
    underline-position="-125"
    unicode-range="U+000D-FFFD"
  />
<missing-glyph horiz-adv-x="514" 
d="M60 -100v850h394v-850h-394z" />
    <glyph glyph-name=".notdef" horiz-adv-x="514" 
d="M60 -100v850h394v-850h-394z" />
    <glyph glyph-name="NULL" horiz-adv-x="195" 
 />
    <glyph glyph-name="NULL" horiz-adv-x="195" 
 />
    <glyph glyph-name="CR" unicode="&#xd;" horiz-adv-x="195" 
 />
    <glyph glyph-name="space" unicode=" " horiz-adv-x="195" 
 />
    <glyph glyph-name="nbspace" unicode="&#xa0;" horiz-adv-x="195" 
 />
    <glyph glyph-name="A" unicode="A" horiz-adv-x="753" 
d="M-7 0l287 700h197l283 -700h-186l-64 169h-273l-65 -169h-179zM289 306h170l-84 224z" />
    <glyph glyph-name="B" unicode="B" horiz-adv-x="705" 
d="M58 700h347q53 0 98 -14.5t77 -40.5t50 -62.5t18 -79.5t-21.5 -80.5t-58.5 -63.5q46 -25 74 -65t28 -88q0 -92 -69 -149t-179 -57h-364v700zM394 559h-164v-138h164q37 0 59.5 19t22.5 50t-22.5 50t-59.5 19zM409 141q40 0 63.5 20t23.5 54t-23.5 54t-63.5 20h-179v-148
h179z" />
    <glyph glyph-name="C" unicode="C" horiz-adv-x="716" 
d="M415 149q51 0 94.5 22t78.5 65l113 -111q-49 -61 -128.5 -98t-163.5 -37q-79 0 -148.5 28t-119.5 76t-79 114t-29 142t29 142.5t79.5 114.5t119.5 76t148 28q43 0 86 -10t82 -27.5t72 -43t57 -56.5l-116 -114q-37 46 -82.5 69.5t-98.5 23.5q-42 0 -78.5 -15.5t-63 -42.5
t-42 -64.5t-15.5 -80.5t15.5 -79.5t43 -63.5t65 -42.5t81.5 -15.5z" />
    <glyph glyph-name="D" unicode="D" horiz-adv-x="745" 
d="M58 0v700h284q77 0 145 -27.5t117.5 -74.5t78.5 -111.5t29 -138.5q0 -72 -29 -136t-78.5 -111t-117.5 -74t-145 -27h-284zM338 548h-108v-396h108q41 0 77 15t62.5 41.5t41.5 62.5t15 77q0 42 -15 78.5t-41.5 63.5t-62.5 42.5t-77 15.5z" />
    <glyph glyph-name="E" unicode="E" horiz-adv-x="657" 
d="M58 0v700h552v-149h-380v-126h251v-144h-251v-132h384v-149h-556z" />
    <glyph glyph-name="F" unicode="F" horiz-adv-x="652" 
d="M58 0v700h556v-149h-384v-131h256v-144h-256v-276h-172z" />
    <glyph glyph-name="G" unicode="G" horiz-adv-x="796" 
d="M763 354q0 -79 -27 -146t-74 -115.5t-112.5 -76t-141.5 -27.5q-79 0 -147.5 28t-119 76.5t-79.5 114.5t-29 142t29 142t79 114.5t118 76.5t146 28q89 0 168 -37t129 -100l-121 -109q-34 43 -79 65.5t-97 22.5q-42 0 -78 -15.5t-61.5 -42.5t-40.5 -64.5t-15 -80.5
q0 -44 15.5 -81.5t42 -65t63.5 -43t80 -15.5q60 0 105.5 30.5t60.5 79.5h-189v149h375v-50z" />
    <glyph glyph-name="H" unicode="H" horiz-adv-x="748" 
d="M58 0v700h172v-269h288v269h172v-700h-172v274h-288v-274h-172z" />
    <glyph glyph-name="I" unicode="I" horiz-adv-x="288" 
d="M58 0v700h172v-700h-172z" />
    <glyph glyph-name="J" unicode="J" horiz-adv-x="658" 
d="M610 275q0 -63 -21.5 -116t-60.5 -90.5t-94.5 -58t-122.5 -20.5q-110 0 -186.5 56t-107.5 160l159 59q19 -61 52.5 -90t83.5 -29q56 0 91 37t35 97v420h172v-425z" />
    <glyph glyph-name="K" unicode="K" horiz-adv-x="729" 
d="M58 0v700h172v-306l283 306h208l-324 -329l342 -371h-228l-281 321v-321h-172z" />
    <glyph glyph-name="L" unicode="L" horiz-adv-x="637" 
d="M58 0v700h172v-548h369v-152h-541z" />
    <glyph glyph-name="M" unicode="M" horiz-adv-x="896" 
d="M446 50l-230 429v-479h-158v700h217l173 -330l173 330h217v-700h-162v477z" />
    <glyph glyph-name="N" unicode="N" horiz-adv-x="758" 
d="M58 700h162l318 -406v406h162v-700h-152l-328 422v-422h-162v700z" />
    <glyph glyph-name="O" unicode="O" horiz-adv-x="814" 
d="M781 350q0 -75 -29 -141.5t-79 -115t-119 -76.5t-147 -28t-147 28t-119 76.5t-79 115t-29 141.5t29 141.5t79 115t119 76.5t147 28t147 -28t119 -76.5t79 -115t29 -141.5zM604 350q0 43 -15 80.5t-41.5 64.5t-62.5 42.5t-78 15.5t-78 -15.5t-62.5 -42.5t-41.5 -64.5
t-15 -80.5t15 -80.5t41.5 -64.5t62.5 -42.5t78 -15.5t78 15.5t62.5 42.5t41.5 64.5t15 80.5z" />
    <glyph glyph-name="P" unicode="P" horiz-adv-x="695" 
d="M58 0v700h369q51 0 95 -17t75.5 -47.5t49.5 -72t18 -90.5q0 -47 -18 -88t-50 -70.5t-75.5 -46.5t-94.5 -17h-197v-251h-172zM407 553h-177v-160h177q37 0 60.5 22t23.5 57q0 36 -23.5 58.5t-60.5 22.5z" />
    <glyph glyph-name="Q" unicode="Q" horiz-adv-x="814" 
d="M781 350q0 -73 -27.5 -137.5t-75.5 -113.5l68 -86l-146 -54l-46 58q-34 -13 -70.5 -20.5t-76.5 -7.5q-78 0 -147 28t-119 76.5t-79 115t-29 141.5t29 141.5t79 115t119 76.5t147 28t147 -28t119 -76.5t79 -115t29 -141.5zM529 289l42 -54q16 24 24.5 53.5t8.5 61.5
q0 43 -15 80.5t-41.5 64.5t-62.5 42.5t-78 15.5t-78 -15.5t-62.5 -42.5t-41.5 -64.5t-15 -80.5t15 -80.5t41.5 -64.5t62.5 -42.5t78 -15.5q10 0 21 1t21 3l-66 84z" />
    <glyph glyph-name="R" unicode="R" horiz-adv-x="693" 
d="M58 0v700h358q54 0 99.5 -16.5t78 -46t51 -70.5t18.5 -90q0 -66 -36 -118t-95 -79l153 -280h-192l-132 255h-131v-255h-172zM400 553h-170v-158h170q40 0 64.5 22t24.5 57t-24.5 57t-64.5 22z" />
    <glyph glyph-name="S" unicode="S" horiz-adv-x="644" 
d="M0 107l96 125q63 -51 118 -74t115 -23q59 0 92.5 18t33.5 50q0 29 -22.5 45t-74.5 25l-154 27q-85 15 -131 65t-46 127q0 101 76.5 159.5t210.5 58.5q78 0 157.5 -27t136.5 -73l-91 -127q-55 43 -107.5 63t-107.5 20q-52 0 -82.5 -16.5t-30.5 -44.5q0 -26 19.5 -40.5
t63.5 -21.5l145 -24q101 -16 153.5 -67t52.5 -132q0 -106 -82.5 -168t-224.5 -62q-84 0 -167.5 31t-148.5 86z" />
    <glyph glyph-name="T" unicode="T" horiz-adv-x="666" 
d="M18 548v152h630v-152h-229v-548h-172v548h-229z" />
    <glyph glyph-name="U" unicode="U" horiz-adv-x="733" 
d="M685 305q0 -71 -23 -129.5t-64.5 -99.5t-100.5 -63.5t-131 -22.5t-131.5 22t-100.5 63t-63.5 99.5t-22.5 130.5v395h172v-395q0 -71 40.5 -113.5t106.5 -42.5t106 42.5t40 113.5v395h172v-395z" />
    <glyph glyph-name="V" unicode="V" horiz-adv-x="753" 
d="M276 0l-283 700h186l199 -521l203 521h179l-287 -700h-197z" />
    <glyph glyph-name="W" unicode="W" horiz-adv-x="969" 
d="M361 0h-182l-156 700h177l85 -432l122 432h161l122 -432l85 432h171l-156 -700h-182l-123 446z" />
    <glyph glyph-name="X" unicode="X" horiz-adv-x="724" 
d="M192 0h-197l265 361l-253 339h205l150 -211l150 211h197l-249 -339l270 -361h-205l-167 234z" />
    <glyph glyph-name="Y" unicode="Y" horiz-adv-x="732" 
d="M280 0v261l-290 439h198l183 -287l184 287h187l-290 -439v-261h-172z" />
    <glyph glyph-name="Z" unicode="Z" horiz-adv-x="622" 
d="M20 0v116l362 435h-359v149h583v-116l-361 -435h364v-149h-589z" />
    <glyph glyph-name="Aacute" unicode="&#xc1;" horiz-adv-x="753" 
d="M0 0zM-7 0l287 700h197l283 -700h-186l-64 169h-273l-65 -169h-179zM289 306h170l-84 224zM389 918h181l-140 -136h-129z" />
    <glyph glyph-name="Abreve" unicode="&#x102;" horiz-adv-x="753" 
d="M0 0zM-7 0l287 700h197l283 -700h-186l-64 169h-273l-65 -169h-179zM289 306h170l-84 224zM377 863q31 0 53 19t34 57l97 -25q-17 -67 -65 -103.5t-119 -36.5t-119 36.5t-65 103.5l97 25q13 -39 34.5 -57.5t52.5 -18.5z" />
    <glyph glyph-name="Acircumflex" unicode="&#xc2;" horiz-adv-x="753" 
d="M0 0zM-7 0l287 700h197l283 -700h-186l-64 169h-273l-65 -169h-179zM289 306h170l-84 224zM446 780l-70 71l-70 -71h-129l119 141h164l119 -141h-133z" />
    <glyph glyph-name="Adieresis" unicode="&#xc4;" horiz-adv-x="753" 
d="M0 0zM-7 0l287 700h197l283 -700h-186l-64 169h-273l-65 -169h-179zM289 306h170l-84 224zM259 773q-36 0 -60.5 24t-24.5 58q0 35 24 58.5t61 23.5t61 -23.5t24 -58.5q0 -34 -24.5 -58t-60.5 -24zM495 773q-36 0 -60.5 24t-24.5 58q0 35 24 58.5t61 23.5t61 -23.5
t24 -58.5q0 -34 -24.5 -58t-60.5 -24z" />
    <glyph glyph-name="AE" unicode="&#xc6;" horiz-adv-x="994" 
d="M-7 0l287 700h671v-149h-412l48 -126h241v-144h-186l51 -132h258v-149h-377l-64 169h-273l-65 -169h-179zM289 306h170l-84 224z" />
    <glyph glyph-name="Agrave" unicode="&#xc0;" horiz-adv-x="753" 
d="M0 0zM-7 0l287 700h197l283 -700h-186l-64 169h-273l-65 -169h-179zM289 306h170l-84 224zM371 918l87 -136h-130l-139 136h182z" />
    <glyph glyph-name="Amacron" unicode="&#x100;" horiz-adv-x="753" 
d="M0 0zM-7 0l287 700h197l283 -700h-186l-64 169h-273l-65 -169h-179zM289 306h170l-84 224zM548 899v-104h-335v104h335z" />
    <glyph glyph-name="Aogonek" unicode="&#x104;" horiz-adv-x="753" 
d="M-7 0l287 700h197l283 -700q-43 -25 -63.5 -49t-20.5 -49q0 -19 12.5 -30t34.5 -11q9 0 19 3t17 8l21 -70q-17 -10 -40 -16.5t-47 -6.5q-49 0 -78.5 26t-29.5 68q0 37 21 68t66 59h-98l-64 169h-273l-65 -169h-179zM289 306h170l-84 224z" />
    <glyph glyph-name="Aring" unicode="&#xc5;" horiz-adv-x="753" 
d="M0 0zM-7 0l287 700h197l283 -700h-186l-64 169h-273l-65 -169h-179zM289 306h170l-84 224zM377 756q-54 0 -91 37t-37 90q0 51 37 87.5t91 36.5q53 0 90.5 -36.5t37.5 -87.5q0 -53 -37.5 -90t-90.5 -37zM377 822q25 0 41.5 18t16.5 43q0 24 -17 41t-41 17t-41 -17
t-17 -41q0 -26 16.5 -43.5t41.5 -17.5z" />
    <glyph glyph-name="Atilde" unicode="&#xc3;" horiz-adv-x="753" 
d="M0 0zM-7 0l287 700h197l283 -700h-186l-64 169h-273l-65 -169h-179zM289 306h170l-84 224zM272 769l-97 21q14 66 44.5 98t77.5 32q21 0 41.5 -7.5t39.5 -16.5t36 -16.5t30 -7.5q16 0 26 11.5t17 40.5l95 -21q-13 -66 -43.5 -98t-77.5 -32q-21 0 -41 7.5t-39 16.5
t-36.5 16.5t-31.5 7.5q-16 0 -25.5 -12t-15.5 -40z" />
    <glyph glyph-name="Cacute" unicode="&#x106;" horiz-adv-x="716" 
d="M33 0zM415 149q51 0 94.5 22t78.5 65l113 -111q-49 -61 -128.5 -98t-163.5 -37q-79 0 -148.5 28t-119.5 76t-79 114t-29 142t29 142.5t79.5 114.5t119.5 76t148 28q43 0 86 -10t82 -27.5t72 -43t57 -56.5l-116 -114q-37 46 -82.5 69.5t-98.5 23.5q-42 0 -78.5 -15.5
t-63 -42.5t-42 -64.5t-15.5 -80.5t15.5 -79.5t43 -63.5t65 -42.5t81.5 -15.5zM420 918h181l-140 -136h-129z" />
    <glyph glyph-name="Ccaron" unicode="&#x10c;" horiz-adv-x="716" 
d="M33 0zM415 149q51 0 94.5 22t78.5 65l113 -111q-49 -61 -128.5 -98t-163.5 -37q-79 0 -148.5 28t-119.5 76t-79 114t-29 142t29 142.5t79.5 114.5t119.5 76t148 28q43 0 86 -10t82 -27.5t72 -43t57 -56.5l-116 -114q-37 46 -82.5 69.5t-98.5 23.5q-42 0 -78.5 -15.5
t-63 -42.5t-42 -64.5t-15.5 -80.5t15.5 -79.5t43 -63.5t65 -42.5t81.5 -15.5zM339 921l70 -71l70 71h129l-119 -141h-164l-119 141h133z" />
    <glyph glyph-name="Ccedilla" unicode="&#xc7;" horiz-adv-x="716" 
d="M415 149q51 0 94.5 22t78.5 65l113 -111q-44 -55 -114 -90.5t-145 -42.5l-10 -34q44 -4 69.5 -29t25.5 -63q0 -44 -40 -74.5t-99 -30.5q-39 0 -71 11.5t-59 35.5l51 54q18 -13 37.5 -20.5t38.5 -7.5q25 0 38 9t13 25q0 15 -13.5 24t-35.5 9h-47l27 91q-72 7 -133.5 37.5
t-105.5 78t-69.5 109.5t-25.5 133q0 76 29 142.5t79.5 114.5t119.5 76t148 28q43 0 86 -10t82 -27.5t72 -43t57 -56.5l-116 -114q-37 46 -82.5 69.5t-98.5 23.5q-42 0 -78.5 -15.5t-63 -42.5t-42 -64.5t-15.5 -80.5t15.5 -79.5t43 -63.5t65 -42.5t81.5 -15.5z" />
    <glyph glyph-name="Ccircumflex" unicode="&#x108;" horiz-adv-x="716" 
d="M33 0zM415 149q51 0 94.5 22t78.5 65l113 -111q-49 -61 -128.5 -98t-163.5 -37q-79 0 -148.5 28t-119.5 76t-79 114t-29 142t29 142.5t79.5 114.5t119.5 76t148 28q43 0 86 -10t82 -27.5t72 -43t57 -56.5l-116 -114q-37 46 -82.5 69.5t-98.5 23.5q-42 0 -78.5 -15.5
t-63 -42.5t-42 -64.5t-15.5 -80.5t15.5 -79.5t43 -63.5t65 -42.5t81.5 -15.5zM477 780l-70 71l-70 -71h-129l119 141h164l119 -141h-133z" />
    <glyph glyph-name="Cdotaccent" unicode="&#x10a;" horiz-adv-x="716" 
d="M33 0zM415 149q51 0 94.5 22t78.5 65l113 -111q-49 -61 -128.5 -98t-163.5 -37q-79 0 -148.5 28t-119.5 76t-79 114t-29 142t29 142.5t79.5 114.5t119.5 76t148 28q43 0 86 -10t82 -27.5t72 -43t57 -56.5l-116 -114q-37 46 -82.5 69.5t-98.5 23.5q-42 0 -78.5 -15.5
t-63 -42.5t-42 -64.5t-15.5 -80.5t15.5 -79.5t43 -63.5t65 -42.5t81.5 -15.5zM408 773q-36 0 -60.5 24t-24.5 58q0 35 24 58.5t61 23.5t61 -23.5t24 -58.5q0 -34 -24.5 -58t-60.5 -24z" />
    <glyph glyph-name="Dcaron" unicode="&#x10e;" horiz-adv-x="745" 
d="M58 0zM58 0v700h284q77 0 145 -27.5t117.5 -74.5t78.5 -111.5t29 -138.5q0 -72 -29 -136t-78.5 -111t-117.5 -74t-145 -27h-284zM338 548h-108v-396h108q41 0 77 15t62.5 41.5t41.5 62.5t15 77q0 42 -15 78.5t-41.5 63.5t-62.5 42.5t-77 15.5zM304 921l70 -71l70 71h129
l-119 -141h-164l-119 141h133z" />
    <glyph glyph-name="Dcroat" unicode="&#x110;" horiz-adv-x="780" 
d="M93 0v283h-75v135h75v282h284q77 0 145 -27.5t117.5 -74.5t78.5 -111.5t29 -138.5q0 -72 -29 -136t-78.5 -111t-117.5 -74t-145 -27h-284zM373 548h-108v-130h156v-135h-156v-131h108q41 0 77 15t62.5 41.5t41.5 62.5t15 77q0 42 -15 78.5t-41.5 63.5t-62.5 42.5
t-77 15.5z" />
    <glyph glyph-name="Eacute" unicode="&#xc9;" horiz-adv-x="657" 
d="M58 0zM58 0v700h552v-149h-380v-126h251v-144h-251v-132h384v-149h-556zM358 918h181l-140 -136h-129z" />
    <glyph glyph-name="Ebreve" unicode="&#x114;" horiz-adv-x="657" 
d="M58 0zM58 0v700h552v-149h-380v-126h251v-144h-251v-132h384v-149h-556zM346 863q31 0 53 19t34 57l97 -25q-17 -67 -65 -103.5t-119 -36.5t-119 36.5t-65 103.5l97 25q13 -39 34.5 -57.5t52.5 -18.5z" />
    <glyph glyph-name="Ecaron" unicode="&#x11a;" horiz-adv-x="657" 
d="M58 0zM58 0v700h552v-149h-380v-126h251v-144h-251v-132h384v-149h-556zM277 921l70 -71l70 71h129l-119 -141h-164l-119 141h133z" />
    <glyph glyph-name="Ecircumflex" unicode="&#xca;" horiz-adv-x="657" 
d="M58 0zM58 0v700h552v-149h-380v-126h251v-144h-251v-132h384v-149h-556zM415 780l-70 71l-70 -71h-129l119 141h164l119 -141h-133z" />
    <glyph glyph-name="Edieresis" unicode="&#xcb;" horiz-adv-x="657" 
d="M58 0zM58 0v700h552v-149h-380v-126h251v-144h-251v-132h384v-149h-556zM228 773q-36 0 -60.5 24t-24.5 58q0 35 24 58.5t61 23.5t61 -23.5t24 -58.5q0 -34 -24.5 -58t-60.5 -24zM464 773q-36 0 -60.5 24t-24.5 58q0 35 24 58.5t61 23.5t61 -23.5t24 -58.5
q0 -34 -24.5 -58t-60.5 -24z" />
    <glyph glyph-name="Edotaccent" unicode="&#x116;" horiz-adv-x="657" 
d="M58 0zM58 0v700h552v-149h-380v-126h251v-144h-251v-132h384v-149h-556zM346 773q-36 0 -60.5 24t-24.5 58q0 35 24 58.5t61 23.5t61 -23.5t24 -58.5q0 -34 -24.5 -58t-60.5 -24z" />
    <glyph glyph-name="Egrave" unicode="&#xc8;" horiz-adv-x="657" 
d="M58 0zM58 0v700h552v-149h-380v-126h251v-144h-251v-132h384v-149h-556zM340 918l87 -136h-130l-139 136h182z" />
    <glyph glyph-name="Emacron" unicode="&#x112;" horiz-adv-x="657" 
d="M58 0zM58 0v700h552v-149h-380v-126h251v-144h-251v-132h384v-149h-556zM517 899v-104h-335v104h335z" />
    <glyph glyph-name="Eng" unicode="&#x14a;" horiz-adv-x="758" 
d="M538 6l-318 410v-416h-162v700h157l323 -412v412h162v-752q0 -79 -48.5 -122.5t-135.5 -43.5q-21 0 -45 3t-37 7v122q12 -2 22.5 -3t25.5 -1q28 0 42 11.5t14 36.5v48z" />
    <glyph glyph-name="Eogonek" unicode="&#x118;" horiz-adv-x="657" 
d="M58 0v700h552v-149h-380v-126h251v-144h-251v-132h384v-149q-43 -25 -63.5 -49t-20.5 -49q0 -19 12.5 -30t34.5 -11q9 0 19 3t17 8l21 -70q-17 -10 -40 -16.5t-47 -6.5q-49 0 -78.5 26t-29.5 68q0 37 21 68t66 59h-468z" />
    <glyph glyph-name="Eth" unicode="&#xd0;" horiz-adv-x="780" 
d="M93 0v283h-75v135h75v282h284q77 0 145 -27.5t117.5 -74.5t78.5 -111.5t29 -138.5q0 -72 -29 -136t-78.5 -111t-117.5 -74t-145 -27h-284zM373 548h-108v-130h156v-135h-156v-131h108q41 0 77 15t62.5 41.5t41.5 62.5t15 77q0 42 -15 78.5t-41.5 63.5t-62.5 42.5
t-77 15.5z" />
    <glyph glyph-name="Gbreve" unicode="&#x11e;" horiz-adv-x="796" 
d="M33 0zM763 354q0 -79 -27 -146t-74 -115.5t-112.5 -76t-141.5 -27.5q-79 0 -147.5 28t-119 76.5t-79.5 114.5t-29 142t29 142t79 114.5t118 76.5t146 28q89 0 168 -37t129 -100l-121 -109q-34 43 -79 65.5t-97 22.5q-42 0 -78 -15.5t-61.5 -42.5t-40.5 -64.5t-15 -80.5
q0 -44 15.5 -81.5t42 -65t63.5 -43t80 -15.5q60 0 105.5 30.5t60.5 79.5h-189v149h375v-50zM406 863q31 0 53 19t34 57l97 -25q-17 -67 -65 -103.5t-119 -36.5t-119 36.5t-65 103.5l97 25q13 -39 34.5 -57.5t52.5 -18.5z" />
    <glyph glyph-name="Gcircumflex" unicode="&#x11c;" horiz-adv-x="796" 
d="M33 0zM763 354q0 -79 -27 -146t-74 -115.5t-112.5 -76t-141.5 -27.5q-79 0 -147.5 28t-119 76.5t-79.5 114.5t-29 142t29 142t79 114.5t118 76.5t146 28q89 0 168 -37t129 -100l-121 -109q-34 43 -79 65.5t-97 22.5q-42 0 -78 -15.5t-61.5 -42.5t-40.5 -64.5t-15 -80.5
q0 -44 15.5 -81.5t42 -65t63.5 -43t80 -15.5q60 0 105.5 30.5t60.5 79.5h-189v149h375v-50zM475 780l-70 71l-70 -71h-129l119 141h164l119 -141h-133z" />
    <glyph glyph-name="uni0122" unicode="&#x122;" horiz-adv-x="796" 
d="M33 0zM763 354q0 -79 -27 -146t-74 -115.5t-112.5 -76t-141.5 -27.5q-79 0 -147.5 28t-119 76.5t-79.5 114.5t-29 142t29 142t79 114.5t118 76.5t146 28q89 0 168 -37t129 -100l-121 -109q-34 43 -79 65.5t-97 22.5q-42 0 -78 -15.5t-61.5 -42.5t-40.5 -64.5t-15 -80.5
q0 -44 15.5 -81.5t42 -65t63.5 -43t80 -15.5q60 0 105.5 30.5t60.5 79.5h-189v149h375v-50zM337 -80h151l-89 -215h-117z" />
    <glyph glyph-name="Gdotaccent" unicode="&#x120;" horiz-adv-x="796" 
d="M33 0zM763 354q0 -79 -27 -146t-74 -115.5t-112.5 -76t-141.5 -27.5q-79 0 -147.5 28t-119 76.5t-79.5 114.5t-29 142t29 142t79 114.5t118 76.5t146 28q89 0 168 -37t129 -100l-121 -109q-34 43 -79 65.5t-97 22.5q-42 0 -78 -15.5t-61.5 -42.5t-40.5 -64.5t-15 -80.5
q0 -44 15.5 -81.5t42 -65t63.5 -43t80 -15.5q60 0 105.5 30.5t60.5 79.5h-189v149h375v-50zM406 773q-36 0 -60.5 24t-24.5 58q0 35 24 58.5t61 23.5t61 -23.5t24 -58.5q0 -34 -24.5 -58t-60.5 -24z" />
    <glyph glyph-name="Hbar" unicode="&#x126;" horiz-adv-x="768" 
d="M68 0v489h-60v135h60v76h172v-76h288v76h172v-76h60v-135h-60v-489h-172v274h-288v-274h-172zM240 431h288v58h-288v-58z" />
    <glyph glyph-name="Hcircumflex" unicode="&#x124;" horiz-adv-x="748" 
d="M58 0zM58 0v700h172v-269h288v269h172v-700h-172v274h-288v-274h-172zM443 780l-70 71l-70 -71h-129l119 141h164l119 -141h-133z" />
    <glyph glyph-name="Iacute" unicode="&#xcd;" horiz-adv-x="288" 
d="M58 0zM58 0v700h172v-700h-172zM156 918h181l-140 -136h-129z" />
    <glyph glyph-name="Ibreve" unicode="&#x12c;" horiz-adv-x="288" 
d="M0 0zM58 0v700h172v-700h-172zM144 863q31 0 53 19t34 57l97 -25q-17 -67 -65 -103.5t-119 -36.5t-119 36.5t-65 103.5l97 25q13 -39 34.5 -57.5t52.5 -18.5z" />
    <glyph glyph-name="Icircumflex" unicode="&#xce;" horiz-adv-x="288" 
d="M0 0zM58 0v700h172v-700h-172zM213 780l-70 71l-70 -71h-129l119 141h164l119 -141h-133z" />
    <glyph glyph-name="Idieresis" unicode="&#xcf;" horiz-adv-x="288" 
d="M0 0zM58 0v700h172v-700h-172zM26 773q-36 0 -60.5 24t-24.5 58q0 35 24 58.5t61 23.5t61 -23.5t24 -58.5q0 -34 -24.5 -58t-60.5 -24zM262 773q-36 0 -60.5 24t-24.5 58q0 35 24 58.5t61 23.5t61 -23.5t24 -58.5q0 -34 -24.5 -58t-60.5 -24z" />
    <glyph glyph-name="Idotaccent" unicode="&#x130;" horiz-adv-x="288" 
d="M58 0zM58 0v700h172v-700h-172zM144 773q-36 0 -60.5 24t-24.5 58q0 35 24 58.5t61 23.5t61 -23.5t24 -58.5q0 -34 -24.5 -58t-60.5 -24z" />
    <glyph glyph-name="Igrave" unicode="&#xcc;" horiz-adv-x="288" 
d="M0 0zM58 0v700h172v-700h-172zM138 918l87 -136h-130l-139 136h182z" />
    <glyph glyph-name="IJ" unicode="&#x132;" horiz-adv-x="946" 
d="M58 0zM58 0v700h172v-700h-172zM898 275q0 -63 -21.5 -116t-60.5 -90.5t-94.5 -58t-122.5 -20.5q-110 0 -186.5 56t-107.5 160l159 59q19 -61 52.5 -90t83.5 -29q56 0 91 37t35 97v420h172v-425z" />
    <glyph glyph-name="Imacron" unicode="&#x12a;" horiz-adv-x="288" 
d="M0 0zM58 0v700h172v-700h-172zM315 899v-104h-335v104h335z" />
    <glyph glyph-name="Iogonek" unicode="&#x12e;" horiz-adv-x="288" 
d="M58 0v700h172v-700q-43 -25 -63.5 -49t-20.5 -49q0 -19 12.5 -30t34.5 -11q9 0 19 3t17 8l21 -70q-17 -10 -40 -16.5t-47 -6.5q-49 0 -78.5 26t-29.5 68q0 37 21 68t66 59h-84z" />
    <glyph glyph-name="Itilde" unicode="&#x128;" horiz-adv-x="288" 
d="M0 0zM58 0v700h172v-700h-172zM39 769l-97 21q14 66 44.5 98t77.5 32q21 0 41.5 -7.5t39.5 -16.5t36 -16.5t30 -7.5q16 0 26 11.5t17 40.5l95 -21q-13 -66 -43.5 -98t-77.5 -32q-21 0 -41 7.5t-39 16.5t-36.5 16.5t-31.5 7.5q-16 0 -25.5 -12t-15.5 -40z" />
    <glyph glyph-name="Jcircumflex" unicode="&#x134;" horiz-adv-x="658" 
d="M17 0zM610 275q0 -63 -21.5 -116t-60.5 -90.5t-94.5 -58t-122.5 -20.5q-110 0 -186.5 56t-107.5 160l159 59q19 -61 52.5 -90t83.5 -29q56 0 91 37t35 97v420h172v-425zM596 780l-70 71l-70 -71h-129l119 141h164l119 -141h-133z" />
    <glyph glyph-name="uni0136" unicode="&#x136;" horiz-adv-x="729" 
d="M58 0zM58 0v700h172v-306l283 306h208l-324 -329l342 -371h-228l-281 321v-321h-172zM297 -80h151l-89 -215h-117z" />
    <glyph glyph-name="Lacute" unicode="&#x139;" horiz-adv-x="637" 
d="M58 0zM58 0v700h172v-548h369v-152h-541zM155 918h181l-140 -136h-129z" />
    <glyph glyph-name="Lcaron" unicode="&#x13d;" horiz-adv-x="632" 
d="M58 0zM58 0v700h172v-548h369v-152h-541zM405 723h155l-59 -257h-106z" />
    <glyph glyph-name="uni013B" unicode="&#x13b;" horiz-adv-x="637" 
d="M58 0zM58 0v700h172v-548h369v-152h-541zM279 -80h151l-89 -215h-117z" />
    <glyph glyph-name="Ldot" unicode="&#x13f;" horiz-adv-x="632" 
d="M58 0zM58 0v700h172v-548h369v-152h-541zM446 292q-36 0 -60.5 24t-24.5 58q0 35 24 58.5t61 23.5t61 -23.5t24 -58.5q0 -34 -24.5 -58t-60.5 -24z" />
    <glyph glyph-name="Lslash" unicode="&#x141;" horiz-adv-x="662" 
d="M88 0v200l-77 -46v142l77 46v358h172v-257l168 100v-142l-168 -100v-149h369v-152h-541z" />
    <glyph glyph-name="Nacute" unicode="&#x143;" horiz-adv-x="758" 
d="M58 0zM58 700h162l318 -406v406h162v-700h-152l-328 422v-422h-162v700zM391 918h181l-140 -136h-129z" />
    <glyph glyph-name="Ncaron" unicode="&#x147;" horiz-adv-x="758" 
d="M58 0zM58 700h162l318 -406v406h162v-700h-152l-328 422v-422h-162v700zM310 921l70 -71l70 71h129l-119 -141h-164l-119 141h133z" />
    <glyph glyph-name="uni0145" unicode="&#x145;" horiz-adv-x="758" 
d="M58 0zM58 700h162l318 -406v406h162v-700h-152l-328 422v-422h-162v700zM306 -80h151l-89 -215h-117z" />
    <glyph glyph-name="Ntilde" unicode="&#xd1;" horiz-adv-x="758" 
d="M58 0zM58 700h162l318 -406v406h162v-700h-152l-328 422v-422h-162v700zM274 769l-97 21q14 66 44.5 98t77.5 32q21 0 41.5 -7.5t39.5 -16.5t36 -16.5t30 -7.5q16 0 26 11.5t17 40.5l95 -21q-13 -66 -43.5 -98t-77.5 -32q-21 0 -41 7.5t-39 16.5t-36.5 16.5t-31.5 7.5
q-16 0 -25.5 -12t-15.5 -40z" />
    <glyph glyph-name="Oacute" unicode="&#xd3;" horiz-adv-x="814" 
d="M33 0zM781 350q0 -75 -29 -141.5t-79 -115t-119 -76.5t-147 -28t-147 28t-119 76.5t-79 115t-29 141.5t29 141.5t79 115t119 76.5t147 28t147 -28t119 -76.5t79 -115t29 -141.5zM604 350q0 43 -15 80.5t-41.5 64.5t-62.5 42.5t-78 15.5t-78 -15.5t-62.5 -42.5
t-41.5 -64.5t-15 -80.5t15 -80.5t41.5 -64.5t62.5 -42.5t78 -15.5t78 15.5t62.5 42.5t41.5 64.5t15 80.5zM419 918h181l-140 -136h-129z" />
    <glyph glyph-name="Obreve" unicode="&#x14e;" horiz-adv-x="814" 
d="M33 0zM781 350q0 -75 -29 -141.5t-79 -115t-119 -76.5t-147 -28t-147 28t-119 76.5t-79 115t-29 141.5t29 141.5t79 115t119 76.5t147 28t147 -28t119 -76.5t79 -115t29 -141.5zM604 350q0 43 -15 80.5t-41.5 64.5t-62.5 42.5t-78 15.5t-78 -15.5t-62.5 -42.5
t-41.5 -64.5t-15 -80.5t15 -80.5t41.5 -64.5t62.5 -42.5t78 -15.5t78 15.5t62.5 42.5t41.5 64.5t15 80.5zM407 863q31 0 53 19t34 57l97 -25q-17 -67 -65 -103.5t-119 -36.5t-119 36.5t-65 103.5l97 25q13 -39 34.5 -57.5t52.5 -18.5z" />
    <glyph glyph-name="Ocircumflex" unicode="&#xd4;" horiz-adv-x="814" 
d="M33 0zM781 350q0 -75 -29 -141.5t-79 -115t-119 -76.5t-147 -28t-147 28t-119 76.5t-79 115t-29 141.5t29 141.5t79 115t119 76.5t147 28t147 -28t119 -76.5t79 -115t29 -141.5zM604 350q0 43 -15 80.5t-41.5 64.5t-62.5 42.5t-78 15.5t-78 -15.5t-62.5 -42.5
t-41.5 -64.5t-15 -80.5t15 -80.5t41.5 -64.5t62.5 -42.5t78 -15.5t78 15.5t62.5 42.5t41.5 64.5t15 80.5zM476 780l-70 71l-70 -71h-129l119 141h164l119 -141h-133z" />
    <glyph glyph-name="Odieresis" unicode="&#xd6;" horiz-adv-x="814" 
d="M33 0zM781 350q0 -75 -29 -141.5t-79 -115t-119 -76.5t-147 -28t-147 28t-119 76.5t-79 115t-29 141.5t29 141.5t79 115t119 76.5t147 28t147 -28t119 -76.5t79 -115t29 -141.5zM604 350q0 43 -15 80.5t-41.5 64.5t-62.5 42.5t-78 15.5t-78 -15.5t-62.5 -42.5
t-41.5 -64.5t-15 -80.5t15 -80.5t41.5 -64.5t62.5 -42.5t78 -15.5t78 15.5t62.5 42.5t41.5 64.5t15 80.5zM289 773q-36 0 -60.5 24t-24.5 58q0 35 24 58.5t61 23.5t61 -23.5t24 -58.5q0 -34 -24.5 -58t-60.5 -24zM525 773q-36 0 -60.5 24t-24.5 58q0 35 24 58.5t61 23.5
t61 -23.5t24 -58.5q0 -34 -24.5 -58t-60.5 -24z" />
    <glyph glyph-name="OE" unicode="&#x152;" horiz-adv-x="1106" 
d="M402 0q-76 0 -142.5 27.5t-115.5 74.5t-77.5 111t-28.5 137t28.5 137t77.5 111t115.5 74.5t142.5 27.5h661v-149h-364q20 -28 35 -60t22 -66h184v-144h-183q-7 -36 -22 -69.5t-36 -62.5h364v-149h-661zM402 152q39 0 73.5 15.5t59.5 41.5t39.5 62.5t14.5 78.5t-14.5 78.5
t-39.5 62.5t-59.5 41.5t-73.5 15.5t-73.5 -15.5t-59.5 -41.5t-39.5 -62.5t-14.5 -78.5t14.5 -78.5t39.5 -62.5t59.5 -41.5t73.5 -15.5z" />
    <glyph glyph-name="Ograve" unicode="&#xd2;" horiz-adv-x="814" 
d="M33 0zM781 350q0 -75 -29 -141.5t-79 -115t-119 -76.5t-147 -28t-147 28t-119 76.5t-79 115t-29 141.5t29 141.5t79 115t119 76.5t147 28t147 -28t119 -76.5t79 -115t29 -141.5zM604 350q0 43 -15 80.5t-41.5 64.5t-62.5 42.5t-78 15.5t-78 -15.5t-62.5 -42.5
t-41.5 -64.5t-15 -80.5t15 -80.5t41.5 -64.5t62.5 -42.5t78 -15.5t78 15.5t62.5 42.5t41.5 64.5t15 80.5zM401 918l87 -136h-130l-139 136h182z" />
    <glyph glyph-name="Ohungarumlaut" unicode="&#x150;" horiz-adv-x="814" 
d="M33 0zM781 350q0 -75 -29 -141.5t-79 -115t-119 -76.5t-147 -28t-147 28t-119 76.5t-79 115t-29 141.5t29 141.5t79 115t119 76.5t147 28t147 -28t119 -76.5t79 -115t29 -141.5zM604 350q0 43 -15 80.5t-41.5 64.5t-62.5 42.5t-78 15.5t-78 -15.5t-62.5 -42.5
t-41.5 -64.5t-15 -80.5t15 -80.5t41.5 -64.5t62.5 -42.5t78 -15.5t78 15.5t62.5 42.5t41.5 64.5t15 80.5zM328 917h156l-134 -133h-122zM551 917h158l-146 -133h-112z" />
    <glyph glyph-name="Omacron" unicode="&#x14c;" horiz-adv-x="814" 
d="M33 0zM781 350q0 -75 -29 -141.5t-79 -115t-119 -76.5t-147 -28t-147 28t-119 76.5t-79 115t-29 141.5t29 141.5t79 115t119 76.5t147 28t147 -28t119 -76.5t79 -115t29 -141.5zM604 350q0 43 -15 80.5t-41.5 64.5t-62.5 42.5t-78 15.5t-78 -15.5t-62.5 -42.5
t-41.5 -64.5t-15 -80.5t15 -80.5t41.5 -64.5t62.5 -42.5t78 -15.5t78 15.5t62.5 42.5t41.5 64.5t15 80.5zM578 899v-104h-335v104h335z" />
    <glyph glyph-name="Oslash" unicode="&#xd8;" horiz-adv-x="814" 
d="M187 0h-147l88 107q-44 48 -69.5 110.5t-25.5 132.5q0 75 29 141.5t79 115t119 76.5t147 28q50 0 96 -11.5t86 -32.5l28 33h148l-84 -102q46 -48 73 -112t27 -136q0 -75 -29 -141.5t-79 -115t-119 -76.5t-147 -28q-52 0 -100 12.5t-89 35.5zM210 350q0 -31 7.5 -58.5
t21.5 -50.5l245 297q-18 7 -37.5 11t-39.5 4q-42 0 -78 -15.5t-62.5 -42.5t-41.5 -64.5t-15 -80.5zM604 350q0 33 -8.5 62t-24.5 53l-248 -300q19 -9 40.5 -13.5t43.5 -4.5q42 0 78 15.5t62.5 42.5t41.5 64.5t15 80.5z" />
    <glyph glyph-name="Otilde" unicode="&#xd5;" horiz-adv-x="814" 
d="M33 0zM781 350q0 -75 -29 -141.5t-79 -115t-119 -76.5t-147 -28t-147 28t-119 76.5t-79 115t-29 141.5t29 141.5t79 115t119 76.5t147 28t147 -28t119 -76.5t79 -115t29 -141.5zM604 350q0 43 -15 80.5t-41.5 64.5t-62.5 42.5t-78 15.5t-78 -15.5t-62.5 -42.5
t-41.5 -64.5t-15 -80.5t15 -80.5t41.5 -64.5t62.5 -42.5t78 -15.5t78 15.5t62.5 42.5t41.5 64.5t15 80.5zM302 769l-97 21q14 66 44.5 98t77.5 32q21 0 41.5 -7.5t39.5 -16.5t36 -16.5t30 -7.5q16 0 26 11.5t17 40.5l95 -21q-13 -66 -43.5 -98t-77.5 -32q-21 0 -41 7.5
t-39 16.5t-36.5 16.5t-31.5 7.5q-16 0 -25.5 -12t-15.5 -40z" />
    <glyph glyph-name="Racute" unicode="&#x154;" horiz-adv-x="693" 
d="M58 0zM58 0v700h358q54 0 99.5 -16.5t78 -46t51 -70.5t18.5 -90q0 -66 -36 -118t-95 -79l153 -280h-192l-132 255h-131v-255h-172zM400 553h-170v-158h170q40 0 64.5 22t24.5 57t-24.5 57t-64.5 22zM359 918h181l-140 -136h-129z" />
    <glyph glyph-name="Rcaron" unicode="&#x158;" horiz-adv-x="693" 
d="M58 0zM58 0v700h358q54 0 99.5 -16.5t78 -46t51 -70.5t18.5 -90q0 -66 -36 -118t-95 -79l153 -280h-192l-132 255h-131v-255h-172zM400 553h-170v-158h170q40 0 64.5 22t24.5 57t-24.5 57t-64.5 22zM278 921l70 -71l70 71h129l-119 -141h-164l-119 141h133z" />
    <glyph glyph-name="uni0156" unicode="&#x156;" horiz-adv-x="693" 
d="M58 0zM58 0v700h358q54 0 99.5 -16.5t78 -46t51 -70.5t18.5 -90q0 -66 -36 -118t-95 -79l153 -280h-192l-132 255h-131v-255h-172zM400 553h-170v-158h170q40 0 64.5 22t24.5 57t-24.5 57t-64.5 22zM285 -80h151l-89 -215h-117z" />
    <glyph glyph-name="Sacute" unicode="&#x15a;" horiz-adv-x="644" 
d="M0 0zM0 107l96 125q63 -51 118 -74t115 -23q59 0 92.5 18t33.5 50q0 29 -22.5 45t-74.5 25l-154 27q-85 15 -131 65t-46 127q0 101 76.5 159.5t210.5 58.5q78 0 157.5 -27t136.5 -73l-91 -127q-55 43 -107.5 63t-107.5 20q-52 0 -82.5 -16.5t-30.5 -44.5
q0 -26 19.5 -40.5t63.5 -21.5l145 -24q101 -16 153.5 -67t52.5 -132q0 -106 -82.5 -168t-224.5 -62q-84 0 -167.5 31t-148.5 86zM319 918h181l-140 -136h-129z" />
    <glyph glyph-name="Scaron" unicode="&#x160;" horiz-adv-x="644" 
d="M0 0zM0 107l96 125q63 -51 118 -74t115 -23q59 0 92.5 18t33.5 50q0 29 -22.5 45t-74.5 25l-154 27q-85 15 -131 65t-46 127q0 101 76.5 159.5t210.5 58.5q78 0 157.5 -27t136.5 -73l-91 -127q-55 43 -107.5 63t-107.5 20q-52 0 -82.5 -16.5t-30.5 -44.5
q0 -26 19.5 -40.5t63.5 -21.5l145 -24q101 -16 153.5 -67t52.5 -132q0 -106 -82.5 -168t-224.5 -62q-84 0 -167.5 31t-148.5 86zM238 921l70 -71l70 71h129l-119 -141h-164l-119 141h133z" />
    <glyph glyph-name="uni015E" unicode="&#x15e;" horiz-adv-x="644" 
d="M0 107l96 125q63 -51 118 -74t115 -23q59 0 92.5 18t33.5 50q0 29 -22.5 45t-74.5 25l-154 27q-85 15 -131 65t-46 127q0 101 76.5 159.5t210.5 58.5q78 0 157.5 -27t136.5 -73l-91 -127q-55 43 -107.5 63t-107.5 20q-52 0 -82.5 -16.5t-30.5 -44.5q0 -26 19.5 -40.5
t63.5 -21.5l145 -24q101 -16 153.5 -67t52.5 -132q0 -99 -73 -160.5t-200 -68.5l-10 -33q44 -4 69.5 -29t25.5 -63q0 -44 -40 -74.5t-99 -30.5q-39 0 -71 11.5t-59 35.5l51 54q18 -13 37.5 -20.5t38.5 -7.5q25 0 38 9t13 25q0 15 -13.5 24t-35.5 9h-47l27 91
q-75 7 -146.5 36.5t-128.5 78.5z" />
    <glyph glyph-name="Scircumflex" unicode="&#x15c;" horiz-adv-x="644" 
d="M0 0zM0 107l96 125q63 -51 118 -74t115 -23q59 0 92.5 18t33.5 50q0 29 -22.5 45t-74.5 25l-154 27q-85 15 -131 65t-46 127q0 101 76.5 159.5t210.5 58.5q78 0 157.5 -27t136.5 -73l-91 -127q-55 43 -107.5 63t-107.5 20q-52 0 -82.5 -16.5t-30.5 -44.5
q0 -26 19.5 -40.5t63.5 -21.5l145 -24q101 -16 153.5 -67t52.5 -132q0 -106 -82.5 -168t-224.5 -62q-84 0 -167.5 31t-148.5 86zM376 780l-70 71l-70 -71h-129l119 141h164l119 -141h-133z" />
    <glyph glyph-name="uni0218" unicode="&#x218;" horiz-adv-x="644" 
d="M0 0zM0 107l96 125q63 -51 118 -74t115 -23q59 0 92.5 18t33.5 50q0 29 -22.5 45t-74.5 25l-154 27q-85 15 -131 65t-46 127q0 101 76.5 159.5t210.5 58.5q78 0 157.5 -27t136.5 -73l-91 -127q-55 43 -107.5 63t-107.5 20q-52 0 -82.5 -16.5t-30.5 -44.5
q0 -26 19.5 -40.5t63.5 -21.5l145 -24q101 -16 153.5 -67t52.5 -132q0 -106 -82.5 -168t-224.5 -62q-84 0 -167.5 31t-148.5 86zM245 -80h151l-89 -215h-117z" />
    <glyph glyph-name="Tbar" unicode="&#x166;" horiz-adv-x="666" 
d="M115 404h132v144h-229v152h630v-152h-229v-144h133v-135h-133v-269h-172v269h-132v135z" />
    <glyph glyph-name="Tcaron" unicode="&#x164;" horiz-adv-x="666" 
d="M18 0zM18 548v152h630v-152h-229v-548h-172v548h-229zM264 921l70 -71l70 71h129l-119 -141h-164l-119 141h133z" />
    <glyph glyph-name="uni0162" unicode="&#x162;" horiz-adv-x="666" 
d="M18 548v152h630v-152h-229v-548h-51l-13 -42q44 -4 69.5 -29t25.5 -63q0 -44 -40 -74.5t-99 -30.5q-39 0 -71 11.5t-59 35.5l51 54q18 -13 37.5 -20.5t38.5 -7.5q25 0 38 9t13 25q0 15 -13.5 24t-35.5 9h-47l29 99h-45v548h-229z" />
    <glyph glyph-name="uni021A" unicode="&#x21a;" horiz-adv-x="666" 
d="M18 0zM18 548v152h630v-152h-229v-548h-172v548h-229zM255 -80h151l-89 -215h-117z" />
    <glyph glyph-name="Thorn" unicode="&#xde;" horiz-adv-x="695" 
d="M58 0v700h172v-125h197q51 0 95 -17.5t75.5 -47.5t49.5 -71.5t18 -90.5q0 -47 -18 -88t-50 -70.5t-75.5 -46.5t-94.5 -17h-197v-126h-172zM407 428h-177v-160h177q37 0 60.5 22t23.5 57q0 36 -23.5 58.5t-60.5 22.5z" />
    <glyph glyph-name="Uacute" unicode="&#xda;" horiz-adv-x="733" 
d="M48 0zM685 305q0 -71 -23 -129.5t-64.5 -99.5t-100.5 -63.5t-131 -22.5t-131.5 22t-100.5 63t-63.5 99.5t-22.5 130.5v395h172v-395q0 -71 40.5 -113.5t106.5 -42.5t106 42.5t40 113.5v395h172v-395zM379 918h181l-140 -136h-129z" />
    <glyph glyph-name="Ubreve" unicode="&#x16c;" horiz-adv-x="733" 
d="M48 0zM685 305q0 -71 -23 -129.5t-64.5 -99.5t-100.5 -63.5t-131 -22.5t-131.5 22t-100.5 63t-63.5 99.5t-22.5 130.5v395h172v-395q0 -71 40.5 -113.5t106.5 -42.5t106 42.5t40 113.5v395h172v-395zM367 863q31 0 53 19t34 57l97 -25q-17 -67 -65 -103.5t-119 -36.5
t-119 36.5t-65 103.5l97 25q13 -39 34.5 -57.5t52.5 -18.5z" />
    <glyph glyph-name="Ucircumflex" unicode="&#xdb;" horiz-adv-x="733" 
d="M48 0zM685 305q0 -71 -23 -129.5t-64.5 -99.5t-100.5 -63.5t-131 -22.5t-131.5 22t-100.5 63t-63.5 99.5t-22.5 130.5v395h172v-395q0 -71 40.5 -113.5t106.5 -42.5t106 42.5t40 113.5v395h172v-395zM436 780l-70 71l-70 -71h-129l119 141h164l119 -141h-133z" />
    <glyph glyph-name="Udieresis" unicode="&#xdc;" horiz-adv-x="733" 
d="M48 0zM685 305q0 -71 -23 -129.5t-64.5 -99.5t-100.5 -63.5t-131 -22.5t-131.5 22t-100.5 63t-63.5 99.5t-22.5 130.5v395h172v-395q0 -71 40.5 -113.5t106.5 -42.5t106 42.5t40 113.5v395h172v-395zM249 773q-36 0 -60.5 24t-24.5 58q0 35 24 58.5t61 23.5t61 -23.5
t24 -58.5q0 -34 -24.5 -58t-60.5 -24zM485 773q-36 0 -60.5 24t-24.5 58q0 35 24 58.5t61 23.5t61 -23.5t24 -58.5q0 -34 -24.5 -58t-60.5 -24z" />
    <glyph glyph-name="Ugrave" unicode="&#xd9;" horiz-adv-x="733" 
d="M48 0zM685 305q0 -71 -23 -129.5t-64.5 -99.5t-100.5 -63.5t-131 -22.5t-131.5 22t-100.5 63t-63.5 99.5t-22.5 130.5v395h172v-395q0 -71 40.5 -113.5t106.5 -42.5t106 42.5t40 113.5v395h172v-395zM361 918l87 -136h-130l-139 136h182z" />
    <glyph glyph-name="Uhungarumlaut" unicode="&#x170;" horiz-adv-x="733" 
d="M48 0zM685 305q0 -71 -23 -129.5t-64.5 -99.5t-100.5 -63.5t-131 -22.5t-131.5 22t-100.5 63t-63.5 99.5t-22.5 130.5v395h172v-395q0 -71 40.5 -113.5t106.5 -42.5t106 42.5t40 113.5v395h172v-395zM288 917h156l-134 -133h-122zM511 917h158l-146 -133h-112z" />
    <glyph glyph-name="Umacron" unicode="&#x16a;" horiz-adv-x="733" 
d="M48 0zM685 305q0 -71 -23 -129.5t-64.5 -99.5t-100.5 -63.5t-131 -22.5t-131.5 22t-100.5 63t-63.5 99.5t-22.5 130.5v395h172v-395q0 -71 40.5 -113.5t106.5 -42.5t106 42.5t40 113.5v395h172v-395zM538 899v-104h-335v104h335z" />
    <glyph glyph-name="Uogonek" unicode="&#x172;" horiz-adv-x="733" 
d="M685 305q0 -122 -64.5 -203.5t-174.5 -103.5q-41 -24 -60.5 -47.5t-19.5 -48.5q0 -19 12.5 -30t34.5 -11q9 0 19 3t17 8l21 -70q-17 -10 -40 -16.5t-47 -6.5q-49 0 -78.5 26t-29.5 68q0 34 18 62.5t55 54.5q-137 6 -218.5 90.5t-81.5 224.5v395h172v-395
q0 -71 40.5 -113.5t106.5 -42.5t106 42.5t40 113.5v395h172v-395z" />
    <glyph glyph-name="Uring" unicode="&#x16e;" horiz-adv-x="733" 
d="M48 0zM685 305q0 -71 -23 -129.5t-64.5 -99.5t-100.5 -63.5t-131 -22.5t-131.5 22t-100.5 63t-63.5 99.5t-22.5 130.5v395h172v-395q0 -71 40.5 -113.5t106.5 -42.5t106 42.5t40 113.5v395h172v-395zM367 756q-54 0 -91 37t-37 90q0 51 37 87.5t91 36.5q53 0 90.5 -36.5
t37.5 -87.5q0 -53 -37.5 -90t-90.5 -37zM367 822q25 0 41.5 18t16.5 43q0 24 -17 41t-41 17t-41 -17t-17 -41q0 -26 16.5 -43.5t41.5 -17.5z" />
    <glyph glyph-name="Utilde" unicode="&#x168;" horiz-adv-x="733" 
d="M48 0zM685 305q0 -71 -23 -129.5t-64.5 -99.5t-100.5 -63.5t-131 -22.5t-131.5 22t-100.5 63t-63.5 99.5t-22.5 130.5v395h172v-395q0 -71 40.5 -113.5t106.5 -42.5t106 42.5t40 113.5v395h172v-395zM262 769l-97 21q14 66 44.5 98t77.5 32q21 0 41.5 -7.5t39.5 -16.5
t36 -16.5t30 -7.5q16 0 26 11.5t17 40.5l95 -21q-13 -66 -43.5 -98t-77.5 -32q-21 0 -41 7.5t-39 16.5t-36.5 16.5t-31.5 7.5q-16 0 -25.5 -12t-15.5 -40z" />
    <glyph glyph-name="Wacute" unicode="&#x1e82;" horiz-adv-x="969" 
d="M23 0zM361 0h-182l-156 700h177l85 -432l122 432h161l122 -432l85 432h171l-156 -700h-182l-123 446zM495 918h181l-140 -136h-129z" />
    <glyph glyph-name="Wdieresis" unicode="&#x1e84;" horiz-adv-x="969" 
d="M23 0zM361 0h-182l-156 700h177l85 -432l122 432h161l122 -432l85 432h171l-156 -700h-182l-123 446zM365 773q-36 0 -60.5 24t-24.5 58q0 35 24 58.5t61 23.5t61 -23.5t24 -58.5q0 -34 -24.5 -58t-60.5 -24zM601 773q-36 0 -60.5 24t-24.5 58q0 35 24 58.5t61 23.5
t61 -23.5t24 -58.5q0 -34 -24.5 -58t-60.5 -24z" />
    <glyph glyph-name="Wgrave" unicode="&#x1e80;" horiz-adv-x="969" 
d="M23 0zM361 0h-182l-156 700h177l85 -432l122 432h161l122 -432l85 432h171l-156 -700h-182l-123 446zM477 918l87 -136h-130l-139 136h182z" />
    <glyph glyph-name="Wcircumflex" unicode="&#x174;" horiz-adv-x="969" 
d="M23 0zM361 0h-182l-156 700h177l85 -432l122 432h161l122 -432l85 432h171l-156 -700h-182l-123 446zM552 780l-70 71l-70 -71h-129l119 141h164l119 -141h-133z" />
    <glyph glyph-name="Yacute" unicode="&#xdd;" horiz-adv-x="732" 
d="M0 0zM280 0v261l-290 439h198l183 -287l184 287h187l-290 -439v-261h-172zM378 918h181l-140 -136h-129z" />
    <glyph glyph-name="Ycircumflex" unicode="&#x176;" horiz-adv-x="732" 
d="M0 0zM280 0v261l-290 439h198l183 -287l184 287h187l-290 -439v-261h-172zM435 780l-70 71l-70 -71h-129l119 141h164l119 -141h-133z" />
    <glyph glyph-name="Ydieresis" unicode="&#x178;" horiz-adv-x="732" 
d="M0 0zM280 0v261l-290 439h198l183 -287l184 287h187l-290 -439v-261h-172zM248 773q-36 0 -60.5 24t-24.5 58q0 35 24 58.5t61 23.5t61 -23.5t24 -58.5q0 -34 -24.5 -58t-60.5 -24zM484 773q-36 0 -60.5 24t-24.5 58q0 35 24 58.5t61 23.5t61 -23.5t24 -58.5
q0 -34 -24.5 -58t-60.5 -24z" />
    <glyph glyph-name="Ygrave" unicode="&#x1ef2;" horiz-adv-x="732" 
d="M0 0zM280 0v261l-290 439h198l183 -287l184 287h187l-290 -439v-261h-172zM360 918l87 -136h-130l-139 136h182z" />
    <glyph glyph-name="Zacute" unicode="&#x179;" horiz-adv-x="622" 
d="M20 0zM20 0v116l362 435h-359v149h583v-116l-361 -435h364v-149h-589zM332 918h181l-140 -136h-129z" />
    <glyph glyph-name="Zcaron" unicode="&#x17d;" horiz-adv-x="622" 
d="M20 0zM20 0v116l362 435h-359v149h583v-116l-361 -435h364v-149h-589zM251 921l70 -71l70 71h129l-119 -141h-164l-119 141h133z" />
    <glyph glyph-name="Zdotaccent" unicode="&#x17b;" horiz-adv-x="622" 
d="M20 0zM20 0v116l362 435h-359v149h583v-116l-361 -435h364v-149h-589zM320 773q-36 0 -60.5 24t-24.5 58q0 35 24 58.5t61 23.5t61 -23.5t24 -58.5q0 -34 -24.5 -58t-60.5 -24z" />
    <glyph glyph-name="a" unicode="a" horiz-adv-x="571" 
d="M219 -9q-84 0 -138 46t-54 118q0 75 57.5 117t160.5 42q31 0 61 -4t59 -11v26q0 40 -25.5 59.5t-75.5 19.5q-31 0 -70 -10t-90 -32l-58 119q64 29 125.5 43.5t121.5 14.5q110 0 171 -52.5t61 -147.5v-339h-160v32q-32 -22 -67.5 -31.5t-78.5 -9.5zM181 158q0 -25 22 -39
t61 -14q29 0 54.5 6t46.5 19v68q-23 6 -47 9t-49 3q-42 0 -65 -13.5t-23 -38.5z" />
    <glyph glyph-name="b" unicode="b" horiz-adv-x="648" 
d="M622 264q0 -57 -21.5 -106.5t-58.5 -86t-87.5 -57.5t-107.5 -21q-37 0 -72 9.5t-65 27.5v-30h-160v700l162 35v-243q31 22 66.5 33t73.5 11q56 0 105.5 -21t86 -58t57.5 -86.5t21 -106.5zM324 398q-34 0 -62 -10.5t-50 -31.5v-185q21 -19 50 -30t62 -11q59 0 99 38.5
t40 95.5t-40.5 95.5t-98.5 38.5z" />
    <glyph glyph-name="c" unicode="c" horiz-adv-x="539" 
d="M314 130q33 0 61 14t54 43l96 -100q-40 -46 -98 -71.5t-121 -25.5q-59 0 -110.5 21t-89 58t-59 87t-21.5 108t21.5 108.5t59 87t89 58t110.5 21.5q65 0 124 -26t100 -72l-99 -103q-28 31 -57 46t-64 15q-52 0 -87.5 -39t-35.5 -96t36.5 -95.5t90.5 -38.5z" />
    <glyph glyph-name="d" unicode="d" horiz-adv-x="648" 
d="M438 0v39q-31 -22 -67 -34t-75 -12q-56 0 -105.5 21t-86 58t-57.5 86.5t-21 106.5t21.5 106.5t58.5 86t87.5 57.5t107.5 21q37 0 71 -9t64 -26v199l162 35v-735h-160zM185 265q0 -57 40.5 -95.5t98.5 -38.5q34 0 62 10.5t50 31.5v185q-21 19 -50 30t-62 11
q-59 0 -99 -38.5t-40 -95.5z" />
    <glyph glyph-name="e" unicode="e" horiz-adv-x="595" 
d="M535 70q-50 -42 -102.5 -61t-118.5 -19q-60 0 -113 21t-91.5 58t-61 87.5t-22.5 107.5t21.5 107.5t58.5 87.5t87.5 58t108.5 21t107 -22t84.5 -60t55.5 -91.5t20 -115.5v-40h-377q16 -37 50 -60.5t80 -23.5q33 0 60 10.5t46 29.5zM299 406q-40 0 -69 -22t-41 -62h221
q-13 38 -42.5 61t-68.5 23z" />
    <glyph glyph-name="f" unicode="f" horiz-adv-x="453" 
d="M18 529h116v32q0 93 55.5 143t159.5 50q21 0 45.5 -3t40.5 -7v-134q-19 4 -33.5 5.5t-30.5 1.5q-37 0 -56 -14.5t-19 -44.5v-29h139v-135h-139v-394h-162v394h-116v135z" />
    <glyph glyph-name="g" unicode="g" horiz-adv-x="644" 
d="M295 -2q-56 0 -105.5 21t-85.5 57.5t-57 86t-21 105.5t21.5 105t58.5 85t87.5 57t107.5 21q36 0 70 -9t63 -26v28h160v-524q0 -107 -71 -164.5t-203 -57.5q-63 0 -121 12t-105 34l54 126q43 -20 85 -30t84 -10q57 0 86 23t29 69v33q-30 -20 -65 -31t-72 -11zM185 268
q0 -57 40 -95.5t98 -38.5q33 0 60.5 10t48.5 29v187q-21 18 -49 28.5t-59 10.5q-58 0 -98.5 -38t-40.5 -93z" />
    <glyph glyph-name="h" unicode="h" 
d="M50 0v700l162 35v-242q29 22 65.5 34t76.5 12q93 0 152 -60t59 -153v-326h-162v304q0 43 -26.5 69.5t-69.5 26.5q-31 0 -55 -11t-40 -31v-358h-162z" />
    <glyph glyph-name="i" unicode="i" horiz-adv-x="262" 
d="M131 578q-37 0 -63 26t-26 63t26 63t63 26t63 -26t26 -63t-26 -63t-63 -26zM212 529v-529h-162v529h162z" />
    <glyph glyph-name="j" unicode="j" horiz-adv-x="262" 
d="M131 578q-37 0 -63 26t-26 63t26 63t63 26t63 -26t26 -63t-26 -63t-63 -26zM27 -218q-21 0 -44.5 3t-36.5 7v122q11 -2 22 -3t25 -1q29 0 43 11.5t14 36.5v571h162v-580q0 -79 -48.5 -123t-136.5 -44z" />
    <glyph glyph-name="k" unicode="k" horiz-adv-x="597" 
d="M50 0v700l162 35v-422l211 216h181l-235 -239l251 -290h-205l-203 237v-237h-162z" />
    <glyph glyph-name="l" unicode="l" horiz-adv-x="262" 
d="M212 735v-735h-162v700z" />
    <glyph glyph-name="m" unicode="m" horiz-adv-x="924" 
d="M50 0v529h162v-34q28 22 61.5 33t70.5 11q49 0 89.5 -19.5t67.5 -53.5q32 35 76 54t96 19q90 0 147.5 -60t57.5 -153v-326h-162v304q0 43 -23.5 69.5t-62.5 26.5q-27 0 -49 -10.5t-38 -29.5q1 -8 1.5 -16.5t0.5 -17.5v-326h-162v304q0 43 -23.5 69.5t-62.5 26.5
q-27 0 -48.5 -9.5t-36.5 -28.5v-362h-162z" />
    <glyph glyph-name="n" unicode="n" 
d="M50 0v529h162v-36q29 22 65.5 34t76.5 12q93 0 152 -60t59 -153v-326h-162v304q0 43 -26.5 69.5t-69.5 26.5q-31 0 -55 -11t-40 -31v-358h-162z" />
    <glyph glyph-name="o" unicode="o" horiz-adv-x="626" 
d="M26 264q0 57 22.5 107.5t61 87.5t91 58.5t112.5 21.5t112.5 -21.5t91 -58.5t61 -87.5t22.5 -107.5t-22.5 -107.5t-61 -87.5t-91 -58t-112.5 -21t-112.5 21t-91 58t-61 87.5t-22.5 107.5zM313 130q54 0 91.5 39t37.5 95q0 57 -37.5 96t-91.5 39t-91.5 -39t-37.5 -96
q0 -56 37.5 -95t91.5 -39z" />
    <glyph glyph-name="p" unicode="p" horiz-adv-x="648" 
d="M50 -211v740h160v-39q31 22 67 34t75 12q56 0 105.5 -21t86 -58t57.5 -86.5t21 -106.5t-21.5 -106.5t-58.5 -86t-87.5 -57.5t-107.5 -21q-37 0 -71 9t-64 26v-239h-162zM324 398q-34 0 -62 -10.5t-50 -31.5v-185q21 -19 50 -30t62 -11q59 0 99 38.5t40 95.5t-40.5 95.5
t-98.5 38.5z" />
    <glyph glyph-name="q" unicode="q" horiz-adv-x="648" 
d="M296 -7q-56 0 -105.5 21t-86 58t-57.5 86.5t-21 106.5t21.5 106.5t58.5 86t87.5 57.5t107.5 21q37 0 72 -9.5t65 -27.5v30h160v-740h-162v248q-31 -22 -66.5 -33t-73.5 -11zM185 265q0 -57 40.5 -95.5t98.5 -38.5q34 0 62 10.5t50 31.5v185q-21 19 -50 30t-62 11
q-59 0 -99 -38.5t-40 -95.5z" />
    <glyph glyph-name="r" unicode="r" horiz-adv-x="432" 
d="M50 0v529h162v-53q26 31 61 48t78 17q23 -1 37 -3.5t24 -9.5v-141q-16 7 -36 11.5t-41 4.5q-38 0 -70.5 -18t-52.5 -49v-336h-162z" />
    <glyph glyph-name="s" unicode="s" horiz-adv-x="509" 
d="M9 59l77 109q50 -30 91 -43.5t81 -13.5t63.5 11.5t23.5 30.5q0 15 -13 24.5t-41 13.5l-105 16q-78 12 -120 52.5t-42 105.5q0 80 61 126t167 46q57 0 114.5 -16.5t106.5 -47.5l-77 -104q-43 25 -82 36.5t-78 11.5q-31 0 -50 -10.5t-19 -27.5q0 -16 14 -25.5t48 -14.5
l105 -16q78 -11 120.5 -51.5t42.5 -102.5q0 -38 -18 -71t-49.5 -57t-75.5 -37.5t-95 -13.5q-75 0 -139.5 17.5t-110.5 51.5z" />
    <glyph glyph-name="t" unicode="t" horiz-adv-x="448" 
d="M125 161v233h-107v135h107v136l162 35v-171h148v-135h-148v-201q0 -35 15.5 -49.5t54.5 -14.5q19 0 36 2.5t37 8.5v-131q-22 -7 -56 -11.5t-57 -4.5q-95 0 -143.5 42.5t-48.5 125.5z" />
    <glyph glyph-name="u" unicode="u" 
d="M208 529v-304q0 -43 26.5 -69.5t69.5 -26.5q31 0 55 11t40 31v358h162v-529h-162v36q-29 -22 -65.5 -34t-76.5 -12q-93 0 -152 60t-59 153v326h162z" />
    <glyph glyph-name="v" unicode="v" horiz-adv-x="606" 
d="M224 0l-226 529h176l131 -324l131 324h172l-226 -529h-158z" />
    <glyph glyph-name="w" unicode="w" horiz-adv-x="799" 
d="M308 0h-156l-144 529h153l78 -311l95 311h134l95 -312l77 312h151l-145 -529h-155l-92 306z" />
    <glyph glyph-name="x" unicode="x" horiz-adv-x="580" 
d="M-5 0l201 268l-198 261h188l104 -142l103 142h181l-195 -259l206 -270h-188l-111 151l-110 -151h-181z" />
    <glyph glyph-name="y" unicode="y" horiz-adv-x="603" 
d="M201 -8v1l-203 536h179l117 -333l136 333h175l-237 -556q-44 -103 -102 -146t-153 -43q-19 0 -37 1.5t-30 4.5v138q11 -2 22.5 -3t27.5 -1q38 0 65 17t40 51z" />
    <glyph glyph-name="z" unicode="z" horiz-adv-x="514" 
d="M25 0v113l246 281h-244v135h454v-113l-247 -281h255v-135h-464z" />
    <glyph glyph-name="aacute" unicode="&#xe1;" horiz-adv-x="571" 
d="M27 0zM219 -9q-84 0 -138 46t-54 118q0 75 57.5 117t160.5 42q31 0 61 -4t59 -11v26q0 40 -25.5 59.5t-75.5 19.5q-31 0 -70 -10t-90 -32l-58 119q64 29 125.5 43.5t121.5 14.5q110 0 171 -52.5t61 -147.5v-339h-160v32q-32 -22 -67.5 -31.5t-78.5 -9.5zM181 158
q0 -25 22 -39t61 -14q29 0 54.5 6t46.5 19v68q-23 6 -47 9t-49 3q-42 0 -65 -13.5t-23 -38.5zM290 747h181l-140 -136h-129z" />
    <glyph glyph-name="abreve" unicode="&#x103;" horiz-adv-x="571" 
d="M27 0zM219 -9q-84 0 -138 46t-54 118q0 75 57.5 117t160.5 42q31 0 61 -4t59 -11v26q0 40 -25.5 59.5t-75.5 19.5q-31 0 -70 -10t-90 -32l-58 119q64 29 125.5 43.5t121.5 14.5q110 0 171 -52.5t61 -147.5v-339h-160v32q-32 -22 -67.5 -31.5t-78.5 -9.5zM181 158
q0 -25 22 -39t61 -14q29 0 54.5 6t46.5 19v68q-23 6 -47 9t-49 3q-42 0 -65 -13.5t-23 -38.5zM278 692q31 0 53 19t34 57l97 -25q-17 -67 -65 -103.5t-119 -36.5t-119 36.5t-65 103.5l97 25q13 -39 34.5 -57.5t52.5 -18.5z" />
    <glyph glyph-name="acircumflex" unicode="&#xe2;" horiz-adv-x="571" 
d="M27 0zM219 -9q-84 0 -138 46t-54 118q0 75 57.5 117t160.5 42q31 0 61 -4t59 -11v26q0 40 -25.5 59.5t-75.5 19.5q-31 0 -70 -10t-90 -32l-58 119q64 29 125.5 43.5t121.5 14.5q110 0 171 -52.5t61 -147.5v-339h-160v32q-32 -22 -67.5 -31.5t-78.5 -9.5zM181 158
q0 -25 22 -39t61 -14q29 0 54.5 6t46.5 19v68q-23 6 -47 9t-49 3q-42 0 -65 -13.5t-23 -38.5zM347 609l-70 71l-70 -71h-129l119 141h164l119 -141h-133z" />
    <glyph glyph-name="adieresis" unicode="&#xe4;" horiz-adv-x="571" 
d="M27 0zM219 -9q-84 0 -138 46t-54 118q0 75 57.5 117t160.5 42q31 0 61 -4t59 -11v26q0 40 -25.5 59.5t-75.5 19.5q-31 0 -70 -10t-90 -32l-58 119q64 29 125.5 43.5t121.5 14.5q110 0 171 -52.5t61 -147.5v-339h-160v32q-32 -22 -67.5 -31.5t-78.5 -9.5zM181 158
q0 -25 22 -39t61 -14q29 0 54.5 6t46.5 19v68q-23 6 -47 9t-49 3q-42 0 -65 -13.5t-23 -38.5zM160 602q-36 0 -60.5 24t-24.5 58q0 35 24 58.5t61 23.5t61 -23.5t24 -58.5q0 -34 -24.5 -58t-60.5 -24zM396 602q-36 0 -60.5 24t-24.5 58q0 35 24 58.5t61 23.5t61 -23.5
t24 -58.5q0 -34 -24.5 -58t-60.5 -24z" />
    <glyph glyph-name="ae" unicode="&#xe6;" horiz-adv-x="934" 
d="M219 -9q-82 0 -134.5 46t-52.5 118q0 75 56 117t157 42q31 0 61 -4t59 -11v26q0 40 -25.5 59.5t-75.5 19.5q-31 0 -70 -10t-90 -32l-58 119q64 29 125.5 43.5t121.5 14.5q59 0 104.5 -16t74.5 -47q34 30 77 46t92 16q58 0 107 -22t84.5 -60t55.5 -91.5t20 -115.5v-40
h-377q16 -37 50 -60.5t80 -23.5q33 0 60 10.5t46 29.5l107 -95q-50 -42 -102.5 -61t-118.5 -19q-63 0 -117 22.5t-93 62.5q-49 -44 -102.5 -64t-121.5 -20zM638 406q-40 0 -69 -22t-41 -62h221q-13 38 -42.5 61t-68.5 23zM186 158q0 -25 20.5 -39t57.5 -14q34 0 65.5 12
t59.5 36q-4 10 -8 21t-7 21q-25 7 -51.5 11t-53.5 4q-40 0 -61.5 -13.5t-21.5 -38.5z" />
    <glyph glyph-name="agrave" unicode="&#xe0;" horiz-adv-x="571" 
d="M27 0zM219 -9q-84 0 -138 46t-54 118q0 75 57.5 117t160.5 42q31 0 61 -4t59 -11v26q0 40 -25.5 59.5t-75.5 19.5q-31 0 -70 -10t-90 -32l-58 119q64 29 125.5 43.5t121.5 14.5q110 0 171 -52.5t61 -147.5v-339h-160v32q-32 -22 -67.5 -31.5t-78.5 -9.5zM181 158
q0 -25 22 -39t61 -14q29 0 54.5 6t46.5 19v68q-23 6 -47 9t-49 3q-42 0 -65 -13.5t-23 -38.5zM272 747l87 -136h-130l-139 136h182z" />
    <glyph glyph-name="amacron" unicode="&#x101;" horiz-adv-x="571" 
d="M27 0zM219 -9q-84 0 -138 46t-54 118q0 75 57.5 117t160.5 42q31 0 61 -4t59 -11v26q0 40 -25.5 59.5t-75.5 19.5q-31 0 -70 -10t-90 -32l-58 119q64 29 125.5 43.5t121.5 14.5q110 0 171 -52.5t61 -147.5v-339h-160v32q-32 -22 -67.5 -31.5t-78.5 -9.5zM181 158
q0 -25 22 -39t61 -14q29 0 54.5 6t46.5 19v68q-23 6 -47 9t-49 3q-42 0 -65 -13.5t-23 -38.5zM449 728v-104h-335v104h335z" />
    <glyph glyph-name="aogonek" unicode="&#x105;" horiz-adv-x="571" 
d="M219 -9q-84 0 -138 46t-54 118q0 75 57.5 117t160.5 42q31 0 61 -4t59 -11v26q0 40 -25.5 59.5t-75.5 19.5q-31 0 -70 -10t-90 -32l-58 119q64 29 125.5 43.5t121.5 14.5q110 0 171 -52.5t61 -147.5v-339q-43 -25 -63.5 -49t-20.5 -49q0 -19 12.5 -30t34.5 -11q9 0 19 3
t17 8l21 -70q-17 -10 -40 -16.5t-47 -6.5q-49 0 -78.5 26t-29.5 68q0 37 21 68t66 59h-72v32q-32 -22 -67.5 -31.5t-78.5 -9.5zM181 158q0 -25 22 -39t61 -14q29 0 54.5 6t46.5 19v68q-23 6 -47 9t-49 3q-42 0 -65 -13.5t-23 -38.5z" />
    <glyph glyph-name="aring" unicode="&#xe5;" horiz-adv-x="571" 
d="M27 0zM219 -9q-84 0 -138 46t-54 118q0 75 57.5 117t160.5 42q31 0 61 -4t59 -11v26q0 40 -25.5 59.5t-75.5 19.5q-31 0 -70 -10t-90 -32l-58 119q64 29 125.5 43.5t121.5 14.5q110 0 171 -52.5t61 -147.5v-339h-160v32q-32 -22 -67.5 -31.5t-78.5 -9.5zM181 158
q0 -25 22 -39t61 -14q29 0 54.5 6t46.5 19v68q-23 6 -47 9t-49 3q-42 0 -65 -13.5t-23 -38.5zM278 585q-54 0 -91 37t-37 90q0 51 37 87.5t91 36.5q53 0 90.5 -36.5t37.5 -87.5q0 -53 -37.5 -90t-90.5 -37zM278 651q25 0 41.5 18t16.5 43q0 24 -17 41t-41 17t-41 -17
t-17 -41q0 -26 16.5 -43.5t41.5 -17.5z" />
    <glyph glyph-name="atilde" unicode="&#xe3;" horiz-adv-x="571" 
d="M27 0zM219 -9q-84 0 -138 46t-54 118q0 75 57.5 117t160.5 42q31 0 61 -4t59 -11v26q0 40 -25.5 59.5t-75.5 19.5q-31 0 -70 -10t-90 -32l-58 119q64 29 125.5 43.5t121.5 14.5q110 0 171 -52.5t61 -147.5v-339h-160v32q-32 -22 -67.5 -31.5t-78.5 -9.5zM181 158
q0 -25 22 -39t61 -14q29 0 54.5 6t46.5 19v68q-23 6 -47 9t-49 3q-42 0 -65 -13.5t-23 -38.5zM173 598l-97 21q14 66 44.5 98t77.5 32q21 0 41.5 -7.5t39.5 -16.5t36 -16.5t30 -7.5q16 0 26 11.5t17 40.5l95 -21q-13 -66 -43.5 -98t-77.5 -32q-21 0 -41 7.5t-39 16.5
t-36.5 16.5t-31.5 7.5q-16 0 -25.5 -12t-15.5 -40z" />
    <glyph glyph-name="cacute" unicode="&#x107;" horiz-adv-x="539" 
d="M26 0zM314 130q33 0 61 14t54 43l96 -100q-40 -46 -98 -71.5t-121 -25.5q-59 0 -110.5 21t-89 58t-59 87t-21.5 108t21.5 108.5t59 87t89 58t110.5 21.5q65 0 124 -26t100 -72l-99 -103q-28 31 -57 46t-64 15q-52 0 -87.5 -39t-35.5 -96t36.5 -95.5t90.5 -38.5zM316 747
h181l-140 -136h-129z" />
    <glyph glyph-name="ccaron" unicode="&#x10d;" horiz-adv-x="539" 
d="M26 0zM314 130q33 0 61 14t54 43l96 -100q-40 -46 -98 -71.5t-121 -25.5q-59 0 -110.5 21t-89 58t-59 87t-21.5 108t21.5 108.5t59 87t89 58t110.5 21.5q65 0 124 -26t100 -72l-99 -103q-28 31 -57 46t-64 15q-52 0 -87.5 -39t-35.5 -96t36.5 -95.5t90.5 -38.5zM235 750
l70 -71l70 71h129l-119 -141h-164l-119 141h133z" />
    <glyph glyph-name="ccedilla" unicode="&#xe7;" horiz-adv-x="539" 
d="M314 130q33 0 61 14t54 43l96 -100q-34 -39 -82 -63.5t-101 -31.5l-11 -34q44 -4 69.5 -29t25.5 -63q0 -44 -40 -74.5t-99 -30.5q-39 0 -71 11.5t-59 35.5l51 54q18 -13 37.5 -20.5t38.5 -7.5q25 0 38 9t13 25q0 15 -13.5 24t-35.5 9h-47l27 92q-51 7 -95.5 30t-76.5 59
t-50 82.5t-18 99.5q0 58 21.5 108.5t59 87t89 58t110.5 21.5q65 0 124 -26t100 -72l-99 -103q-28 31 -57 46t-64 15q-52 0 -87.5 -39t-35.5 -96t36.5 -95.5t90.5 -38.5z" />
    <glyph glyph-name="ccircumflex" unicode="&#x109;" horiz-adv-x="539" 
d="M26 0zM314 130q33 0 61 14t54 43l96 -100q-40 -46 -98 -71.5t-121 -25.5q-59 0 -110.5 21t-89 58t-59 87t-21.5 108t21.5 108.5t59 87t89 58t110.5 21.5q65 0 124 -26t100 -72l-99 -103q-28 31 -57 46t-64 15q-52 0 -87.5 -39t-35.5 -96t36.5 -95.5t90.5 -38.5zM373 609
l-70 71l-70 -71h-129l119 141h164l119 -141h-133z" />
    <glyph glyph-name="cdotaccent" unicode="&#x10b;" horiz-adv-x="539" 
d="M26 0zM314 130q33 0 61 14t54 43l96 -100q-40 -46 -98 -71.5t-121 -25.5q-59 0 -110.5 21t-89 58t-59 87t-21.5 108t21.5 108.5t59 87t89 58t110.5 21.5q65 0 124 -26t100 -72l-99 -103q-28 31 -57 46t-64 15q-52 0 -87.5 -39t-35.5 -96t36.5 -95.5t90.5 -38.5zM304 602
q-36 0 -60.5 24t-24.5 58q0 35 24 58.5t61 23.5t61 -23.5t24 -58.5q0 -34 -24.5 -58t-60.5 -24z" />
    <glyph glyph-name="dcaron" unicode="&#x10f;" horiz-adv-x="811" 
d="M26 0zM438 0v39q-31 -22 -67 -34t-75 -12q-56 0 -105.5 21t-86 58t-57.5 86.5t-21 106.5t21.5 106.5t58.5 86t87.5 57.5t107.5 21q37 0 71 -9t64 -26v199l162 35v-735h-160zM185 265q0 -57 40.5 -95.5t98.5 -38.5q34 0 62 10.5t50 31.5v185q-21 19 -50 30t-62 11
q-59 0 -99 -38.5t-40 -95.5zM678 723h155l-59 -257h-106z" />
    <glyph glyph-name="dcroat" unicode="&#x111;" horiz-adv-x="646" 
d="M438 0v39q-31 -22 -67 -34t-75 -12q-56 0 -105.5 21t-86 58t-57.5 86.5t-21 106.5t21.5 106.5t58.5 86t87.5 57.5t107.5 21q37 0 71 -9t64 -26v75h-130v95h130v29l162 35v-64h53v-95h-53v-576h-160zM185 265q0 -57 40.5 -95.5t98.5 -38.5q34 0 62 10.5t50 31.5v185
q-21 19 -50 30t-62 11q-59 0 -99 -38.5t-40 -95.5z" />
    <glyph glyph-name="dotlessi" unicode="&#x131;" horiz-adv-x="262" 
d="M212 529v-529h-162v529h162z" />
    <glyph glyph-name="uni0237" unicode="&#x237;" horiz-adv-x="262" 
d="M-54 -208v122q12 -2 23 -3t25 -1q28 0 42 11.5t14 36.5v571h162v-581q0 -79 -48.5 -122.5t-135.5 -43.5q-21 0 -45 3t-37 7z" />
    <glyph glyph-name="eacute" unicode="&#xe9;" horiz-adv-x="595" 
d="M26 0zM535 70q-50 -42 -102.5 -61t-118.5 -19q-60 0 -113 21t-91.5 58t-61 87.5t-22.5 107.5t21.5 107.5t58.5 87.5t87.5 58t108.5 21t107 -22t84.5 -60t55.5 -91.5t20 -115.5v-40h-377q16 -37 50 -60.5t80 -23.5q33 0 60 10.5t46 29.5zM299 406q-40 0 -69 -22t-41 -62
h221q-13 38 -42.5 61t-68.5 23zM312 747h181l-140 -136h-129z" />
    <glyph glyph-name="ebreve" unicode="&#x115;" horiz-adv-x="595" 
d="M26 0zM535 70q-50 -42 -102.5 -61t-118.5 -19q-60 0 -113 21t-91.5 58t-61 87.5t-22.5 107.5t21.5 107.5t58.5 87.5t87.5 58t108.5 21t107 -22t84.5 -60t55.5 -91.5t20 -115.5v-40h-377q16 -37 50 -60.5t80 -23.5q33 0 60 10.5t46 29.5zM299 406q-40 0 -69 -22t-41 -62
h221q-13 38 -42.5 61t-68.5 23zM300 692q31 0 53 19t34 57l97 -25q-17 -67 -65 -103.5t-119 -36.5t-119 36.5t-65 103.5l97 25q13 -39 34.5 -57.5t52.5 -18.5z" />
    <glyph glyph-name="ecaron" unicode="&#x11b;" horiz-adv-x="595" 
d="M26 0zM535 70q-50 -42 -102.5 -61t-118.5 -19q-60 0 -113 21t-91.5 58t-61 87.5t-22.5 107.5t21.5 107.5t58.5 87.5t87.5 58t108.5 21t107 -22t84.5 -60t55.5 -91.5t20 -115.5v-40h-377q16 -37 50 -60.5t80 -23.5q33 0 60 10.5t46 29.5zM299 406q-40 0 -69 -22t-41 -62
h221q-13 38 -42.5 61t-68.5 23zM231 750l70 -71l70 71h129l-119 -141h-164l-119 141h133z" />
    <glyph glyph-name="ecircumflex" unicode="&#xea;" horiz-adv-x="595" 
d="M26 0zM535 70q-50 -42 -102.5 -61t-118.5 -19q-60 0 -113 21t-91.5 58t-61 87.5t-22.5 107.5t21.5 107.5t58.5 87.5t87.5 58t108.5 21t107 -22t84.5 -60t55.5 -91.5t20 -115.5v-40h-377q16 -37 50 -60.5t80 -23.5q33 0 60 10.5t46 29.5zM299 406q-40 0 -69 -22t-41 -62
h221q-13 38 -42.5 61t-68.5 23zM369 609l-70 71l-70 -71h-129l119 141h164l119 -141h-133z" />
    <glyph glyph-name="edieresis" unicode="&#xeb;" horiz-adv-x="595" 
d="M26 0zM535 70q-50 -42 -102.5 -61t-118.5 -19q-60 0 -113 21t-91.5 58t-61 87.5t-22.5 107.5t21.5 107.5t58.5 87.5t87.5 58t108.5 21t107 -22t84.5 -60t55.5 -91.5t20 -115.5v-40h-377q16 -37 50 -60.5t80 -23.5q33 0 60 10.5t46 29.5zM299 406q-40 0 -69 -22t-41 -62
h221q-13 38 -42.5 61t-68.5 23zM182 602q-36 0 -60.5 24t-24.5 58q0 35 24 58.5t61 23.5t61 -23.5t24 -58.5q0 -34 -24.5 -58t-60.5 -24zM418 602q-36 0 -60.5 24t-24.5 58q0 35 24 58.5t61 23.5t61 -23.5t24 -58.5q0 -34 -24.5 -58t-60.5 -24z" />
    <glyph glyph-name="edotaccent" unicode="&#x117;" horiz-adv-x="595" 
d="M26 0zM535 70q-50 -42 -102.5 -61t-118.5 -19q-60 0 -113 21t-91.5 58t-61 87.5t-22.5 107.5t21.5 107.5t58.5 87.5t87.5 58t108.5 21t107 -22t84.5 -60t55.5 -91.5t20 -115.5v-40h-377q16 -37 50 -60.5t80 -23.5q33 0 60 10.5t46 29.5zM299 406q-40 0 -69 -22t-41 -62
h221q-13 38 -42.5 61t-68.5 23zM300 602q-36 0 -60.5 24t-24.5 58q0 35 24 58.5t61 23.5t61 -23.5t24 -58.5q0 -34 -24.5 -58t-60.5 -24z" />
    <glyph glyph-name="egrave" unicode="&#xe8;" horiz-adv-x="595" 
d="M26 0zM535 70q-50 -42 -102.5 -61t-118.5 -19q-60 0 -113 21t-91.5 58t-61 87.5t-22.5 107.5t21.5 107.5t58.5 87.5t87.5 58t108.5 21t107 -22t84.5 -60t55.5 -91.5t20 -115.5v-40h-377q16 -37 50 -60.5t80 -23.5q33 0 60 10.5t46 29.5zM299 406q-40 0 -69 -22t-41 -62
h221q-13 38 -42.5 61t-68.5 23zM294 747l87 -136h-130l-139 136h182z" />
    <glyph glyph-name="emacron" unicode="&#x113;" horiz-adv-x="595" 
d="M26 0zM535 70q-50 -42 -102.5 -61t-118.5 -19q-60 0 -113 21t-91.5 58t-61 87.5t-22.5 107.5t21.5 107.5t58.5 87.5t87.5 58t108.5 21t107 -22t84.5 -60t55.5 -91.5t20 -115.5v-40h-377q16 -37 50 -60.5t80 -23.5q33 0 60 10.5t46 29.5zM299 406q-40 0 -69 -22t-41 -62
h221q-13 38 -42.5 61t-68.5 23zM471 728v-104h-335v104h335z" />
    <glyph glyph-name="eng" unicode="&#x14b;" 
d="M50 0v529h162v-36q29 22 65.5 34t76.5 12q93 0 152 -60t59 -153v-378q0 -79 -48.5 -122.5t-135.5 -43.5q-21 0 -45 3t-37 7v122q12 -2 23 -3t25 -1q28 0 42 11.5t14 36.5v346q0 43 -26.5 69.5t-69.5 26.5q-31 0 -55 -11t-40 -31v-358h-162z" />
    <glyph glyph-name="eogonek" unicode="&#x119;" horiz-adv-x="595" 
d="M422 -198q-17 -10 -40 -16.5t-47 -6.5q-49 0 -78.5 26t-29.5 68q0 34 18 62.5t55 54.5q-58 3 -108 25t-87 58.5t-58 85.5t-21 105q0 57 21.5 107.5t58.5 87.5t87.5 58t108.5 21t107 -22t84.5 -60t55.5 -91.5t20 -115.5v-40h-377q16 -37 50 -60.5t80 -23.5q33 0 60 10.5
t46 29.5l107 -95q-32 -27 -64.5 -44.5t-69.5 -25.5q-43 -25 -63 -49t-20 -49q0 -19 12.5 -30t34.5 -11q9 0 19 3t17 8zM299 406q-40 0 -69 -22t-41 -62h221q-13 38 -42.5 61t-68.5 23z" />
    <glyph glyph-name="eth" unicode="&#xf0;" horiz-adv-x="596" 
d="M237 506l-60 81l60 39q-17 11 -35 21t-37 18l86 106q30 -14 57.5 -30.5t52.5 -34.5l93 60l60 -81l-75 -48q62 -66 95.5 -147t33.5 -170q0 -151 -75.5 -240t-205.5 -89q-55 0 -103 19.5t-83 54t-55 81t-20 100.5q0 47 19.5 89.5t52.5 75t76.5 51.5t91.5 19q37 0 68 -8
t56 -24q-8 27 -27 55t-44 55zM292 132q45 0 76.5 32t31.5 77q0 44 -32 75.5t-76 31.5q-46 0 -78 -31.5t-32 -75.5q0 -45 32 -77t78 -32z" />
    <glyph glyph-name="gbreve" unicode="&#x11f;" horiz-adv-x="644" 
d="M26 0zM295 -2q-56 0 -105.5 21t-85.5 57.5t-57 86t-21 105.5t21.5 105t58.5 85t87.5 57t107.5 21q36 0 70 -9t63 -26v28h160v-524q0 -107 -71 -164.5t-203 -57.5q-63 0 -121 12t-105 34l54 126q43 -20 85 -30t84 -10q57 0 86 23t29 69v33q-30 -20 -65 -31t-72 -11z
M185 268q0 -57 40 -95.5t98 -38.5q33 0 60.5 10t48.5 29v187q-21 18 -49 28.5t-59 10.5q-58 0 -98.5 -38t-40.5 -93zM320 692q31 0 53 19t34 57l97 -25q-17 -67 -65 -103.5t-119 -36.5t-119 36.5t-65 103.5l97 25q13 -39 34.5 -57.5t52.5 -18.5z" />
    <glyph glyph-name="gcircumflex" unicode="&#x11d;" horiz-adv-x="644" 
d="M26 0zM295 -2q-56 0 -105.5 21t-85.5 57.5t-57 86t-21 105.5t21.5 105t58.5 85t87.5 57t107.5 21q36 0 70 -9t63 -26v28h160v-524q0 -107 -71 -164.5t-203 -57.5q-63 0 -121 12t-105 34l54 126q43 -20 85 -30t84 -10q57 0 86 23t29 69v33q-30 -20 -65 -31t-72 -11z
M185 268q0 -57 40 -95.5t98 -38.5q33 0 60.5 10t48.5 29v187q-21 18 -49 28.5t-59 10.5q-58 0 -98.5 -38t-40.5 -93zM389 609l-70 71l-70 -71h-129l119 141h164l119 -141h-133z" />
    <glyph glyph-name="uni0123" unicode="&#x123;" horiz-adv-x="642" 
d="M387 617h-151l89 215h117zM295 -2q-56 0 -105.5 21t-85.5 57.5t-57 86t-21 105.5t21.5 105t58.5 85t87.5 57t107.5 21q36 0 70 -9t63 -26v28h160v-524q0 -107 -71 -164.5t-203 -57.5q-63 0 -121 12t-105 34l54 126q43 -20 85 -30t84 -10q57 0 86 23t29 69v33
q-30 -20 -65 -31t-72 -11zM185 268q0 -57 40 -95.5t98 -38.5q33 0 60.5 10t48.5 29v187q-21 18 -49 28.5t-59 10.5q-58 0 -98.5 -38t-40.5 -93z" />
    <glyph glyph-name="gdotaccent" unicode="&#x121;" horiz-adv-x="644" 
d="M26 0zM295 -2q-56 0 -105.5 21t-85.5 57.5t-57 86t-21 105.5t21.5 105t58.5 85t87.5 57t107.5 21q36 0 70 -9t63 -26v28h160v-524q0 -107 -71 -164.5t-203 -57.5q-63 0 -121 12t-105 34l54 126q43 -20 85 -30t84 -10q57 0 86 23t29 69v33q-30 -20 -65 -31t-72 -11z
M185 268q0 -57 40 -95.5t98 -38.5q33 0 60.5 10t48.5 29v187q-21 18 -49 28.5t-59 10.5q-58 0 -98.5 -38t-40.5 -93zM320 602q-36 0 -60.5 24t-24.5 58q0 35 24 58.5t61 23.5t61 -23.5t24 -58.5q0 -34 -24.5 -58t-60.5 -24z" />
    <glyph glyph-name="germandbls" unicode="&#xdf;" horiz-adv-x="708" 
d="M455 368q0 -13 8 -21t32 -17l80 -28q67 -25 96.5 -58.5t29.5 -84.5q0 -78 -57.5 -124t-154.5 -46q-66 0 -120 20t-100 61l78 86q33 -29 67 -43.5t68 -14.5t53 13.5t19 36.5q0 19 -12.5 31t-44.5 22l-87 29q-56 19 -82.5 47t-26.5 68q0 43 25 69.5t54.5 45.5t54.5 36
t25 42q0 29 -33 49t-82 20q-65 0 -99.5 -36.5t-34.5 -105.5v-465h-161v470q0 124 77.5 194.5t213.5 70.5q125 0 201 -47.5t76 -125.5q0 -48 -25.5 -78t-56 -49.5t-56 -34t-25.5 -32.5z" />
    <glyph glyph-name="hbar" unicode="&#x127;" 
d="M50 0v576h-55v95h55v29l162 35v-64h128v-95h-128v-83q29 22 65.5 34t76.5 12q93 0 152 -60t59 -153v-326h-162v304q0 43 -26.5 69.5t-69.5 26.5q-31 0 -55 -11t-40 -31v-358h-162z" />
    <glyph glyph-name="hcircumflex" unicode="&#x125;" 
d="M199 780l-70 71l-70 -71h-129l119 141h164l119 -141h-133zM50 0v700h162v-207q29 22 65.5 34t76.5 12q93 0 152 -60t59 -153v-326h-162v304q0 43 -26.5 69.5t-69.5 26.5q-31 0 -55 -11t-40 -31v-358h-162z" />
    <glyph glyph-name="iacute" unicode="&#xed;" horiz-adv-x="262" 
d="M50 0zM212 529v-529h-162v529h162zM143 747h181l-140 -136h-129z" />
    <glyph glyph-name="ibreve" unicode="&#x12d;" horiz-adv-x="262" 
d="M0 0zM212 529v-529h-162v529h162zM131 692q31 0 53 19t34 57l97 -25q-17 -67 -65 -103.5t-119 -36.5t-119 36.5t-65 103.5l97 25q13 -39 34.5 -57.5t52.5 -18.5z" />
    <glyph glyph-name="icircumflex" unicode="&#xee;" horiz-adv-x="262" 
d="M0 0zM212 529v-529h-162v529h162zM200 609l-70 71l-70 -71h-129l119 141h164l119 -141h-133z" />
    <glyph glyph-name="idieresis" unicode="&#xef;" horiz-adv-x="262" 
d="M0 0zM212 529v-529h-162v529h162zM13 602q-36 0 -60.5 24t-24.5 58q0 35 24 58.5t61 23.5t61 -23.5t24 -58.5q0 -34 -24.5 -58t-60.5 -24zM249 602q-36 0 -60.5 24t-24.5 58q0 35 24 58.5t61 23.5t61 -23.5t24 -58.5q0 -34 -24.5 -58t-60.5 -24z" />
    <glyph glyph-name="idotaccent" horiz-adv-x="258" 
d="M42 0zM131 578q-37 0 -63 26t-26 63t26 63t63 26t63 -26t26 -63t-26 -63t-63 -26zM212 529v-529h-162v529h162z" />
    <glyph glyph-name="igrave" unicode="&#xec;" horiz-adv-x="262" 
d="M0 0zM212 529v-529h-162v529h162zM125 747l87 -136h-130l-139 136h182z" />
    <glyph glyph-name="ij" unicode="&#x133;" horiz-adv-x="516" 
d="M42 0zM131 578q-37 0 -63 26t-26 63t26 63t63 26t63 -26t26 -63t-26 -63t-63 -26zM212 529v-529h-162v529h162zM389 578q-37 0 -63 26t-26 63t26 63t63 26t63 -26t26 -63t-26 -63t-63 -26zM285 -218q-21 0 -44.5 3t-36.5 7v122q11 -2 22 -3t25 -1q29 0 43 11.5t14 36.5
v571h162v-580q0 -79 -48.5 -123t-136.5 -44z" />
    <glyph glyph-name="imacron" unicode="&#x12b;" horiz-adv-x="262" 
d="M0 0zM212 529v-529h-162v529h162zM302 728v-104h-335v104h335z" />
    <glyph glyph-name="iogonek" unicode="&#x12f;" horiz-adv-x="262" 
d="M131 578q-37 0 -63 26t-26 63t26 63t63 26t63 -26t26 -63t-26 -63t-63 -26zM212 0q-43 -25 -63.5 -49t-20.5 -49q0 -19 12.5 -30t34.5 -11q9 0 19 3t17 8l21 -70q-17 -10 -40 -16.5t-47 -6.5q-49 0 -78.5 26t-29.5 68q0 37 21 68t66 59h-74v529h162v-529z" />
    <glyph glyph-name="itilde" unicode="&#x129;" horiz-adv-x="262" 
d="M0 0zM212 529v-529h-162v529h162zM26 598l-97 21q14 66 44.5 98t77.5 32q21 0 41.5 -7.5t39.5 -16.5t36 -16.5t30 -7.5q16 0 26 11.5t17 40.5l95 -21q-13 -66 -43.5 -98t-77.5 -32q-21 0 -41 7.5t-39 16.5t-36.5 16.5t-31.5 7.5q-16 0 -25.5 -12t-15.5 -40z" />
    <glyph glyph-name="jcircumflex" unicode="&#x135;" horiz-adv-x="262" 
d="M0 0zM-54 -208v122q12 -2 23 -3t25 -1q28 0 42 11.5t14 36.5v571h162v-581q0 -79 -48.5 -122.5t-135.5 -43.5q-21 0 -45 3t-37 7zM200 609l-70 71l-70 -71h-129l119 141h164l119 -141h-133z" />
    <glyph glyph-name="uni0137" unicode="&#x137;" horiz-adv-x="597" 
d="M50 0zM50 0v700l162 35v-422l211 216h181l-235 -239l251 -290h-205l-203 237v-237h-162zM230 -80h151l-89 -215h-117z" />
    <glyph glyph-name="kgreenlandic" unicode="&#x138;" horiz-adv-x="597" 
d="M50 0v529h162v-216l211 216h181l-235 -239l251 -290h-205l-203 237v-237h-162z" />
    <glyph glyph-name="lacute" unicode="&#x13a;" horiz-adv-x="262" 
d="M143 918h181l-140 -136h-129zM50 0v700h162v-700h-162z" />
    <glyph glyph-name="lcaron" unicode="&#x13e;" horiz-adv-x="423" 
d="M50 0zM212 735v-735h-162v700zM290 723h155l-59 -257h-106z" />
    <glyph glyph-name="uni013C" unicode="&#x13c;" horiz-adv-x="262" 
d="M3 0zM212 735v-735h-162v700zM58 -80h151l-89 -215h-117z" />
    <glyph glyph-name="ldot" unicode="&#x140;" horiz-adv-x="438" 
d="M50 0zM212 735v-735h-162v700zM350 278q-36 0 -60.5 24t-24.5 58q0 35 24 58.5t61 23.5t61 -23.5t24 -58.5q0 -34 -24.5 -58t-60.5 -24z" />
    <glyph glyph-name="lslash" unicode="&#x142;" horiz-adv-x="308" 
d="M7 336l68 46v318l162 35v-243l68 46v-145l-68 -46v-347h-162v237l-68 -46v145z" />
    <glyph glyph-name="nacute" unicode="&#x144;" 
d="M50 0zM50 0v529h162v-36q29 22 65.5 34t76.5 12q93 0 152 -60t59 -153v-326h-162v304q0 43 -26.5 69.5t-69.5 26.5q-31 0 -55 -11t-40 -31v-358h-162zM320 747h181l-140 -136h-129z" />
    <glyph glyph-name="ncaron" unicode="&#x148;" 
d="M50 0zM50 0v529h162v-36q29 22 65.5 34t76.5 12q93 0 152 -60t59 -153v-326h-162v304q0 43 -26.5 69.5t-69.5 26.5q-31 0 -55 -11t-40 -31v-358h-162zM239 750l70 -71l70 71h129l-119 -141h-164l-119 141h133z" />
    <glyph glyph-name="uni0146" unicode="&#x146;" 
d="M50 0zM50 0v529h162v-36q29 22 65.5 34t76.5 12q93 0 152 -60t59 -153v-326h-162v304q0 43 -26.5 69.5t-69.5 26.5q-31 0 -55 -11t-40 -31v-358h-162zM235 -80h151l-89 -215h-117z" />
    <glyph glyph-name="ntilde" unicode="&#xf1;" 
d="M50 0zM50 0v529h162v-36q29 22 65.5 34t76.5 12q93 0 152 -60t59 -153v-326h-162v304q0 43 -26.5 69.5t-69.5 26.5q-31 0 -55 -11t-40 -31v-358h-162zM203 598l-97 21q14 66 44.5 98t77.5 32q21 0 41.5 -7.5t39.5 -16.5t36 -16.5t30 -7.5q16 0 26 11.5t17 40.5l95 -21
q-13 -66 -43.5 -98t-77.5 -32q-21 0 -41 7.5t-39 16.5t-36.5 16.5t-31.5 7.5q-16 0 -25.5 -12t-15.5 -40z" />
    <glyph glyph-name="oacute" unicode="&#xf3;" horiz-adv-x="626" 
d="M26 0zM26 264q0 57 22.5 107.5t61 87.5t91 58.5t112.5 21.5t112.5 -21.5t91 -58.5t61 -87.5t22.5 -107.5t-22.5 -107.5t-61 -87.5t-91 -58t-112.5 -21t-112.5 21t-91 58t-61 87.5t-22.5 107.5zM313 130q54 0 91.5 39t37.5 95q0 57 -37.5 96t-91.5 39t-91.5 -39t-37.5 -96
q0 -56 37.5 -95t91.5 -39zM325 747h181l-140 -136h-129z" />
    <glyph glyph-name="obreve" unicode="&#x14f;" horiz-adv-x="626" 
d="M26 0zM26 264q0 57 22.5 107.5t61 87.5t91 58.5t112.5 21.5t112.5 -21.5t91 -58.5t61 -87.5t22.5 -107.5t-22.5 -107.5t-61 -87.5t-91 -58t-112.5 -21t-112.5 21t-91 58t-61 87.5t-22.5 107.5zM313 130q54 0 91.5 39t37.5 95q0 57 -37.5 96t-91.5 39t-91.5 -39t-37.5 -96
q0 -56 37.5 -95t91.5 -39zM313 692q31 0 53 19t34 57l97 -25q-17 -67 -65 -103.5t-119 -36.5t-119 36.5t-65 103.5l97 25q13 -39 34.5 -57.5t52.5 -18.5z" />
    <glyph glyph-name="ocircumflex" unicode="&#xf4;" horiz-adv-x="626" 
d="M26 0zM26 264q0 57 22.5 107.5t61 87.5t91 58.5t112.5 21.5t112.5 -21.5t91 -58.5t61 -87.5t22.5 -107.5t-22.5 -107.5t-61 -87.5t-91 -58t-112.5 -21t-112.5 21t-91 58t-61 87.5t-22.5 107.5zM313 130q54 0 91.5 39t37.5 95q0 57 -37.5 96t-91.5 39t-91.5 -39t-37.5 -96
q0 -56 37.5 -95t91.5 -39zM382 609l-70 71l-70 -71h-129l119 141h164l119 -141h-133z" />
    <glyph glyph-name="odieresis" unicode="&#xf6;" horiz-adv-x="626" 
d="M26 0zM26 264q0 57 22.5 107.5t61 87.5t91 58.5t112.5 21.5t112.5 -21.5t91 -58.5t61 -87.5t22.5 -107.5t-22.5 -107.5t-61 -87.5t-91 -58t-112.5 -21t-112.5 21t-91 58t-61 87.5t-22.5 107.5zM313 130q54 0 91.5 39t37.5 95q0 57 -37.5 96t-91.5 39t-91.5 -39t-37.5 -96
q0 -56 37.5 -95t91.5 -39zM195 602q-36 0 -60.5 24t-24.5 58q0 35 24 58.5t61 23.5t61 -23.5t24 -58.5q0 -34 -24.5 -58t-60.5 -24zM431 602q-36 0 -60.5 24t-24.5 58q0 35 24 58.5t61 23.5t61 -23.5t24 -58.5q0 -34 -24.5 -58t-60.5 -24z" />
    <glyph glyph-name="oe" unicode="&#x153;" horiz-adv-x="1013" 
d="M26 264q0 57 22.5 107.5t61 87.5t91 58.5t112.5 21.5q61 0 114.5 -24t90.5 -65q37 41 89 64.5t113 23.5q58 0 107 -22t84.5 -60t55.5 -91.5t20 -115.5v-40h-377q16 -37 50 -60.5t80 -23.5q33 0 60 10.5t46 29.5l107 -95q-50 -42 -102.5 -61t-118.5 -19q-64 0 -119 24
t-93 66q-38 -42 -91.5 -66t-115.5 -24q-60 0 -112.5 21t-91 58t-61 87.5t-22.5 107.5zM717 406q-40 0 -69 -22t-41 -62h221q-13 38 -42.5 61t-68.5 23zM313 130q54 0 91.5 39t37.5 95q0 57 -37.5 96t-91.5 39t-91.5 -39t-37.5 -96q0 -56 37.5 -95t91.5 -39z" />
    <glyph glyph-name="ograve" unicode="&#xf2;" horiz-adv-x="626" 
d="M26 0zM26 264q0 57 22.5 107.5t61 87.5t91 58.5t112.5 21.5t112.5 -21.5t91 -58.5t61 -87.5t22.5 -107.5t-22.5 -107.5t-61 -87.5t-91 -58t-112.5 -21t-112.5 21t-91 58t-61 87.5t-22.5 107.5zM313 130q54 0 91.5 39t37.5 95q0 57 -37.5 96t-91.5 39t-91.5 -39t-37.5 -96
q0 -56 37.5 -95t91.5 -39zM307 747l87 -136h-130l-139 136h182z" />
    <glyph glyph-name="ohungarumlaut" unicode="&#x151;" horiz-adv-x="626" 
d="M26 0zM26 264q0 57 22.5 107.5t61 87.5t91 58.5t112.5 21.5t112.5 -21.5t91 -58.5t61 -87.5t22.5 -107.5t-22.5 -107.5t-61 -87.5t-91 -58t-112.5 -21t-112.5 21t-91 58t-61 87.5t-22.5 107.5zM313 130q54 0 91.5 39t37.5 95q0 57 -37.5 96t-91.5 39t-91.5 -39t-37.5 -96
q0 -56 37.5 -95t91.5 -39zM234 746h156l-134 -133h-122zM457 746h158l-146 -133h-112z" />
    <glyph glyph-name="omacron" unicode="&#x14d;" horiz-adv-x="626" 
d="M26 0zM26 264q0 57 22.5 107.5t61 87.5t91 58.5t112.5 21.5t112.5 -21.5t91 -58.5t61 -87.5t22.5 -107.5t-22.5 -107.5t-61 -87.5t-91 -58t-112.5 -21t-112.5 21t-91 58t-61 87.5t-22.5 107.5zM313 130q54 0 91.5 39t37.5 95q0 57 -37.5 96t-91.5 39t-91.5 -39t-37.5 -96
q0 -56 37.5 -95t91.5 -39zM484 728v-104h-335v104h335z" />
    <glyph glyph-name="oslash" unicode="&#xf8;" horiz-adv-x="626" 
d="M43 0l61 74q-37 37 -57.5 86t-20.5 104q0 57 22.5 107.5t61 87.5t91 58.5t112.5 21.5q40 0 76.5 -9.5t67.5 -26.5l21 26h105l-61 -74q36 -37 57 -86t21 -105q0 -57 -22.5 -107.5t-61 -87.5t-91 -58t-112.5 -21q-40 0 -76.5 9.5t-68.5 26.5l-21 -26h-104zM184 264
q0 -19 5 -37t13 -33l161 195q-11 4 -24 7t-26 3q-54 0 -91.5 -39t-37.5 -96zM313 130q54 0 91.5 39t37.5 95q0 19 -5 37.5t-14 33.5l-160 -195q11 -4 24 -7t26 -3z" />
    <glyph glyph-name="otilde" unicode="&#xf5;" horiz-adv-x="626" 
d="M26 0zM26 264q0 57 22.5 107.5t61 87.5t91 58.5t112.5 21.5t112.5 -21.5t91 -58.5t61 -87.5t22.5 -107.5t-22.5 -107.5t-61 -87.5t-91 -58t-112.5 -21t-112.5 21t-91 58t-61 87.5t-22.5 107.5zM313 130q54 0 91.5 39t37.5 95q0 57 -37.5 96t-91.5 39t-91.5 -39t-37.5 -96
q0 -56 37.5 -95t91.5 -39zM208 598l-97 21q14 66 44.5 98t77.5 32q21 0 41.5 -7.5t39.5 -16.5t36 -16.5t30 -7.5q16 0 26 11.5t17 40.5l95 -21q-13 -66 -43.5 -98t-77.5 -32q-21 0 -41 7.5t-39 16.5t-36.5 16.5t-31.5 7.5q-16 0 -25.5 -12t-15.5 -40z" />
    <glyph glyph-name="racute" unicode="&#x155;" horiz-adv-x="432" 
d="M50 0zM50 0v529h162v-53q26 31 61 48t78 17q23 -1 37 -3.5t24 -9.5v-141q-16 7 -36 11.5t-41 4.5q-38 0 -70.5 -18t-52.5 -49v-336h-162zM263 747h181l-140 -136h-129z" />
    <glyph glyph-name="rcaron" unicode="&#x159;" horiz-adv-x="432" 
d="M49 0zM50 0v529h162v-53q26 31 61 48t78 17q23 -1 37 -3.5t24 -9.5v-141q-16 7 -36 11.5t-41 4.5q-38 0 -70.5 -18t-52.5 -49v-336h-162zM182 750l70 -71l70 71h129l-119 -141h-164l-119 141h133z" />
    <glyph glyph-name="uni0157" unicode="&#x157;" horiz-adv-x="432" 
d="M0 0zM50 0v529h162v-53q26 31 61 48t78 17q23 -1 37 -3.5t24 -9.5v-141q-16 7 -36 11.5t-41 4.5q-38 0 -70.5 -18t-52.5 -49v-336h-162zM53 -80h151l-89 -215h-117z" />
    <glyph glyph-name="sacute" unicode="&#x15b;" horiz-adv-x="509" 
d="M9 0zM9 59l77 109q50 -30 91 -43.5t81 -13.5t63.5 11.5t23.5 30.5q0 15 -13 24.5t-41 13.5l-105 16q-78 12 -120 52.5t-42 105.5q0 80 61 126t167 46q57 0 114.5 -16.5t106.5 -47.5l-77 -104q-43 25 -82 36.5t-78 11.5q-31 0 -50 -10.5t-19 -27.5q0 -16 14 -25.5
t48 -14.5l105 -16q78 -11 120.5 -51.5t42.5 -102.5q0 -38 -18 -71t-49.5 -57t-75.5 -37.5t-95 -13.5q-75 0 -139.5 17.5t-110.5 51.5zM260 747h181l-140 -136h-129z" />
    <glyph glyph-name="scaron" unicode="&#x161;" horiz-adv-x="509" 
d="M9 0zM9 59l77 109q50 -30 91 -43.5t81 -13.5t63.5 11.5t23.5 30.5q0 15 -13 24.5t-41 13.5l-105 16q-78 12 -120 52.5t-42 105.5q0 80 61 126t167 46q57 0 114.5 -16.5t106.5 -47.5l-77 -104q-43 25 -82 36.5t-78 11.5q-31 0 -50 -10.5t-19 -27.5q0 -16 14 -25.5
t48 -14.5l105 -16q78 -11 120.5 -51.5t42.5 -102.5q0 -38 -18 -71t-49.5 -57t-75.5 -37.5t-95 -13.5q-75 0 -139.5 17.5t-110.5 51.5zM179 750l70 -71l70 71h129l-119 -141h-164l-119 141h133z" />
    <glyph glyph-name="uni015F" unicode="&#x15f;" horiz-adv-x="509" 
d="M9 59l77 109q50 -30 91 -43.5t81 -13.5t63.5 11.5t23.5 30.5q0 15 -13 24.5t-41 13.5l-105 16q-78 12 -120 52.5t-42 105.5q0 80 61 126t167 46q57 0 114.5 -16.5t106.5 -47.5l-77 -104q-43 25 -82 36.5t-78 11.5q-31 0 -50 -10.5t-19 -27.5q0 -16 14 -25.5t48 -14.5
l105 -16q78 -11 120.5 -51.5t42.5 -102.5q0 -70 -57.5 -119.5t-147.5 -57.5l-10 -34q44 -4 69.5 -29t25.5 -63q0 -44 -40 -74.5t-99 -30.5q-39 0 -71 11.5t-59 35.5l51 54q18 -13 37.5 -20.5t38.5 -7.5q25 0 38 9t13 25q0 15 -13.5 24t-35.5 9h-47l27 90q-62 4 -115 21.5
t-93 46.5z" />
    <glyph glyph-name="scircumflex" unicode="&#x15d;" horiz-adv-x="509" 
d="M9 0zM9 59l77 109q50 -30 91 -43.5t81 -13.5t63.5 11.5t23.5 30.5q0 15 -13 24.5t-41 13.5l-105 16q-78 12 -120 52.5t-42 105.5q0 80 61 126t167 46q57 0 114.5 -16.5t106.5 -47.5l-77 -104q-43 25 -82 36.5t-78 11.5q-31 0 -50 -10.5t-19 -27.5q0 -16 14 -25.5
t48 -14.5l105 -16q78 -11 120.5 -51.5t42.5 -102.5q0 -38 -18 -71t-49.5 -57t-75.5 -37.5t-95 -13.5q-75 0 -139.5 17.5t-110.5 51.5zM317 609l-70 71l-70 -71h-129l119 141h164l119 -141h-133z" />
    <glyph glyph-name="uni0219" unicode="&#x219;" horiz-adv-x="509" 
d="M9 0zM9 59l77 109q50 -30 91 -43.5t81 -13.5t63.5 11.5t23.5 30.5q0 15 -13 24.5t-41 13.5l-105 16q-78 12 -120 52.5t-42 105.5q0 80 61 126t167 46q57 0 114.5 -16.5t106.5 -47.5l-77 -104q-43 25 -82 36.5t-78 11.5q-31 0 -50 -10.5t-19 -27.5q0 -16 14 -25.5
t48 -14.5l105 -16q78 -11 120.5 -51.5t42.5 -102.5q0 -38 -18 -71t-49.5 -57t-75.5 -37.5t-95 -13.5q-75 0 -139.5 17.5t-110.5 51.5zM187 -80h151l-89 -215h-117z" />
    <glyph glyph-name="tbar" unicode="&#x167;" horiz-adv-x="458" 
d="M125 161v54h-107v115h107v64h-107v135h107v136l162 35v-171h148v-135h-148v-64h147v-115h-147v-22q0 -35 15.5 -49.5t54.5 -14.5q19 0 36 2.5t37 8.5v-131q-22 -7 -56 -11.5t-57 -4.5q-95 0 -143.5 42.5t-48.5 125.5z" />
    <glyph glyph-name="tcaron" unicode="&#x165;" horiz-adv-x="458" 
d="M351 794l160 27l-49 -230h-121zM125 161v233h-107v135h107v136l162 35v-171h148v-135h-148v-201q0 -35 15.5 -49.5t54.5 -14.5q19 0 36 2.5t37 8.5v-131q-22 -7 -56 -11.5t-57 -4.5q-95 0 -143.5 42.5t-48.5 125.5z" />
    <glyph glyph-name="uni0163" unicode="&#x163;" horiz-adv-x="448" 
d="M125 161v233h-107v135h107v136l162 35v-171h148v-135h-148v-201q0 -35 15.5 -49.5t54.5 -14.5q19 0 36 2.5t37 8.5v-131q-20 -6 -50.5 -10.5t-53.5 -5.5l-11 -35q44 -4 69.5 -29t25.5 -63q0 -44 -40 -74.5t-99 -30.5q-39 0 -71 11.5t-59 35.5l51 54q18 -13 37.5 -20.5
t38.5 -7.5q25 0 38 9t13 25q0 15 -13.5 24t-35.5 9h-47l29 98q-63 13 -95 54t-32 108z" />
    <glyph glyph-name="uni021B" unicode="&#x21b;" horiz-adv-x="448" 
d="M18 0zM125 161v233h-107v135h107v136l162 35v-171h148v-135h-148v-201q0 -35 15.5 -49.5t54.5 -14.5q19 0 36 2.5t37 8.5v-131q-22 -7 -56 -11.5t-57 -4.5q-95 0 -143.5 42.5t-48.5 125.5zM220 -80h151l-89 -215h-117z" />
    <glyph glyph-name="thorn" unicode="&#xfe;" horiz-adv-x="651" 
d="M50 -211v911l162 35v-243q31 22 66.5 33t73.5 11q56 0 105.5 -21t86 -58t57.5 -86.5t21 -106.5t-21.5 -106.5t-58.5 -86t-87.5 -57.5t-107.5 -21q-37 0 -71 9t-64 26v-239h-162zM324 398q-34 0 -62 -10.5t-50 -31.5v-185q21 -19 50 -30t62 -11q59 0 99 38.5t40 95.5
t-40.5 95.5t-98.5 38.5z" />
    <glyph glyph-name="uacute" unicode="&#xfa;" 
d="M46 0zM208 529v-304q0 -43 26.5 -69.5t69.5 -26.5q31 0 55 11t40 31v358h162v-529h-162v36q-29 -22 -65.5 -34t-76.5 -12q-93 0 -152 60t-59 153v326h162zM318 747h181l-140 -136h-129z" />
    <glyph glyph-name="ubreve" unicode="&#x16d;" 
d="M46 0zM208 529v-304q0 -43 26.5 -69.5t69.5 -26.5q31 0 55 11t40 31v358h162v-529h-162v36q-29 -22 -65.5 -34t-76.5 -12q-93 0 -152 60t-59 153v326h162zM306 692q31 0 53 19t34 57l97 -25q-17 -67 -65 -103.5t-119 -36.5t-119 36.5t-65 103.5l97 25q13 -39 34.5 -57.5
t52.5 -18.5z" />
    <glyph glyph-name="ucircumflex" unicode="&#xfb;" 
d="M46 0zM208 529v-304q0 -43 26.5 -69.5t69.5 -26.5q31 0 55 11t40 31v358h162v-529h-162v36q-29 -22 -65.5 -34t-76.5 -12q-93 0 -152 60t-59 153v326h162zM375 609l-70 71l-70 -71h-129l119 141h164l119 -141h-133z" />
    <glyph glyph-name="udieresis" unicode="&#xfc;" 
d="M46 0zM208 529v-304q0 -43 26.5 -69.5t69.5 -26.5q31 0 55 11t40 31v358h162v-529h-162v36q-29 -22 -65.5 -34t-76.5 -12q-93 0 -152 60t-59 153v326h162zM188 602q-36 0 -60.5 24t-24.5 58q0 35 24 58.5t61 23.5t61 -23.5t24 -58.5q0 -34 -24.5 -58t-60.5 -24zM424 602
q-36 0 -60.5 24t-24.5 58q0 35 24 58.5t61 23.5t61 -23.5t24 -58.5q0 -34 -24.5 -58t-60.5 -24z" />
    <glyph glyph-name="ugrave" unicode="&#xf9;" 
d="M46 0zM208 529v-304q0 -43 26.5 -69.5t69.5 -26.5q31 0 55 11t40 31v358h162v-529h-162v36q-29 -22 -65.5 -34t-76.5 -12q-93 0 -152 60t-59 153v326h162zM300 747l87 -136h-130l-139 136h182z" />
    <glyph glyph-name="uhungarumlaut" unicode="&#x171;" 
d="M46 0zM208 529v-304q0 -43 26.5 -69.5t69.5 -26.5q31 0 55 11t40 31v358h162v-529h-162v36q-29 -22 -65.5 -34t-76.5 -12q-93 0 -152 60t-59 153v326h162zM227 746h156l-134 -133h-122zM450 746h158l-146 -133h-112z" />
    <glyph glyph-name="umacron" unicode="&#x16b;" 
d="M46 0zM208 529v-304q0 -43 26.5 -69.5t69.5 -26.5q31 0 55 11t40 31v358h162v-529h-162v36q-29 -22 -65.5 -34t-76.5 -12q-93 0 -152 60t-59 153v326h162zM477 728v-104h-335v104h335z" />
    <glyph glyph-name="uogonek" unicode="&#x173;" 
d="M563 0q-43 -25 -63.5 -49t-20.5 -49q0 -19 12.5 -30t34.5 -11q9 0 19 3t17 8l21 -70q-17 -10 -40 -16.5t-47 -6.5q-49 0 -78.5 26t-29.5 68q0 37 21 68t66 59h-76v36q-29 -22 -65.5 -34t-76.5 -12q-93 0 -152 60t-59 153v326h162v-304q0 -43 26.5 -69.5t69.5 -26.5
q31 0 55 11t40 31v358h162v-528z" />
    <glyph glyph-name="uring" unicode="&#x16f;" 
d="M46 0zM208 529v-304q0 -43 26.5 -69.5t69.5 -26.5q31 0 55 11t40 31v358h162v-529h-162v36q-29 -22 -65.5 -34t-76.5 -12q-93 0 -152 60t-59 153v326h162zM306 585q-54 0 -91 37t-37 90q0 51 37 87.5t91 36.5q53 0 90.5 -36.5t37.5 -87.5q0 -53 -37.5 -90t-90.5 -37z
M306 651q25 0 41.5 18t16.5 43q0 24 -17 41t-41 17t-41 -17t-17 -41q0 -26 16.5 -43.5t41.5 -17.5z" />
    <glyph glyph-name="utilde" unicode="&#x169;" 
d="M46 0zM208 529v-304q0 -43 26.5 -69.5t69.5 -26.5q31 0 55 11t40 31v358h162v-529h-162v36q-29 -22 -65.5 -34t-76.5 -12q-93 0 -152 60t-59 153v326h162zM201 598l-97 21q14 66 44.5 98t77.5 32q21 0 41.5 -7.5t39.5 -16.5t36 -16.5t30 -7.5q16 0 26 11.5t17 40.5
l95 -21q-13 -66 -43.5 -98t-77.5 -32q-21 0 -41 7.5t-39 16.5t-36.5 16.5t-31.5 7.5q-16 0 -25.5 -12t-15.5 -40z" />
    <glyph glyph-name="wacute" unicode="&#x1e83;" horiz-adv-x="799" 
d="M8 0zM308 0h-156l-144 529h153l78 -311l95 311h134l95 -312l77 312h151l-145 -529h-155l-92 306zM412 747h181l-140 -136h-129z" />
    <glyph glyph-name="wdieresis" unicode="&#x1e85;" horiz-adv-x="799" 
d="M8 0zM308 0h-156l-144 529h153l78 -311l95 311h134l95 -312l77 312h151l-145 -529h-155l-92 306zM282 602q-36 0 -60.5 24t-24.5 58q0 35 24 58.5t61 23.5t61 -23.5t24 -58.5q0 -34 -24.5 -58t-60.5 -24zM518 602q-36 0 -60.5 24t-24.5 58q0 35 24 58.5t61 23.5t61 -23.5
t24 -58.5q0 -34 -24.5 -58t-60.5 -24z" />
    <glyph glyph-name="wgrave" unicode="&#x1e81;" horiz-adv-x="799" 
d="M8 0zM308 0h-156l-144 529h153l78 -311l95 311h134l95 -312l77 312h151l-145 -529h-155l-92 306zM394 747l87 -136h-130l-139 136h182z" />
    <glyph glyph-name="wcircumflex" unicode="&#x175;" horiz-adv-x="799" 
d="M8 0zM308 0h-156l-144 529h153l78 -311l95 311h134l95 -312l77 312h151l-145 -529h-155l-92 306zM469 609l-70 71l-70 -71h-129l119 141h164l119 -141h-133z" />
    <glyph glyph-name="yacute" unicode="&#xfd;" horiz-adv-x="603" 
d="M0 0zM201 -8v1l-203 536h179l117 -333l136 333h175l-237 -556q-44 -103 -102 -146t-153 -43q-19 0 -37 1.5t-30 4.5v138q11 -2 22.5 -3t27.5 -1q38 0 65 17t40 51zM313 747h181l-140 -136h-129z" />
    <glyph glyph-name="ycircumflex" unicode="&#x177;" horiz-adv-x="603" 
d="M0 0zM201 -8v1l-203 536h179l117 -333l136 333h175l-237 -556q-44 -103 -102 -146t-153 -43q-19 0 -37 1.5t-30 4.5v138q11 -2 22.5 -3t27.5 -1q38 0 65 17t40 51zM370 609l-70 71l-70 -71h-129l119 141h164l119 -141h-133z" />
    <glyph glyph-name="ydieresis" unicode="&#xff;" horiz-adv-x="603" 
d="M0 0zM201 -8v1l-203 536h179l117 -333l136 333h175l-237 -556q-44 -103 -102 -146t-153 -43q-19 0 -37 1.5t-30 4.5v138q11 -2 22.5 -3t27.5 -1q38 0 65 17t40 51zM183 602q-36 0 -60.5 24t-24.5 58q0 35 24 58.5t61 23.5t61 -23.5t24 -58.5q0 -34 -24.5 -58t-60.5 -24z
M419 602q-36 0 -60.5 24t-24.5 58q0 35 24 58.5t61 23.5t61 -23.5t24 -58.5q0 -34 -24.5 -58t-60.5 -24z" />
    <glyph glyph-name="ygrave" unicode="&#x1ef3;" horiz-adv-x="603" 
d="M0 0zM201 -8v1l-203 536h179l117 -333l136 333h175l-237 -556q-44 -103 -102 -146t-153 -43q-19 0 -37 1.5t-30 4.5v138q11 -2 22.5 -3t27.5 -1q38 0 65 17t40 51zM295 747l87 -136h-130l-139 136h182z" />
    <glyph glyph-name="zacute" unicode="&#x17a;" horiz-adv-x="514" 
d="M25 0zM25 0v113l246 281h-244v135h454v-113l-247 -281h255v-135h-464zM264 747h181l-140 -136h-129z" />
    <glyph glyph-name="zcaron" unicode="&#x17e;" horiz-adv-x="514" 
d="M25 0zM25 0v113l246 281h-244v135h454v-113l-247 -281h255v-135h-464zM183 750l70 -71l70 71h129l-119 -141h-164l-119 141h133z" />
    <glyph glyph-name="zdotaccent" unicode="&#x17c;" horiz-adv-x="514" 
d="M25 0zM25 0v113l246 281h-244v135h454v-113l-247 -281h255v-135h-464zM252 602q-36 0 -60.5 24t-24.5 58q0 35 24 58.5t61 23.5t61 -23.5t24 -58.5q0 -34 -24.5 -58t-60.5 -24z" />
    <glyph glyph-name="ordfeminine" unicode="&#xaa;" horiz-adv-x="450" 
d="M172 295q-64 0 -104.5 35t-40.5 89q0 56 43.5 87.5t121.5 31.5q22 0 44 -3t44 -7v17q0 28 -18.5 42.5t-55.5 14.5q-22 0 -51 -7.5t-69 -23.5l-45 93q49 22 95.5 33t92.5 11q84 0 130 -40t46 -112v-254h-125v23q-24 -16 -50.5 -23t-57.5 -7zM148 421q0 -17 15.5 -27
t43.5 -10q21 0 39.5 4.5t33.5 12.5v48q-17 4 -34.5 6t-34.5 2q-31 0 -47 -9.5t-16 -26.5z" />
    <glyph glyph-name="ordmasculine" unicode="&#xba;" horiz-adv-x="490" 
d="M26 500q0 44 17 82t46 66t69 44t85 16q46 0 85.5 -16t68.5 -44t46 -66t17 -82q0 -43 -17 -80.5t-46 -65.5t-68.5 -44t-85.5 -16t-85.5 16t-68.5 44t-46 65.5t-17 80.5zM337 500q0 41 -27 69.5t-67 28.5q-39 0 -66 -28.5t-27 -69.5q0 -40 27 -68t66 -28q40 0 67 28t27 68z
" />
    <glyph glyph-name="a.school" horiz-adv-x="648" 
d="M438 0v39q-31 -22 -67 -34t-75 -12q-56 0 -105.5 21t-86 58t-57.5 86.5t-21 106.5t21.5 106.5t58.5 86t87.5 57.5t107.5 21q37 0 71 -9t64 -26v28h162v-529h-160zM185 265q0 -57 40.5 -95.5t98.5 -38.5q34 0 62 10.5t50 31.5v185q-21 19 -50 30t-62 11q-59 0 -99 -38.5
t-40 -95.5z" />
    <glyph glyph-name="aacute.school" horiz-adv-x="648" 
d="M26 0zM438 0v39q-31 -22 -67 -34t-75 -12q-56 0 -105.5 21t-86 58t-57.5 86.5t-21 106.5t21.5 106.5t58.5 86t87.5 57.5t107.5 21q37 0 71 -9t64 -26v28h162v-529h-160zM185 265q0 -57 40.5 -95.5t98.5 -38.5q34 0 62 10.5t50 31.5v185q-21 19 -50 30t-62 11
q-59 0 -99 -38.5t-40 -95.5zM335 747h181l-140 -136h-129z" />
    <glyph glyph-name="abreve.school" horiz-adv-x="648" 
d="M26 0zM438 0v39q-31 -22 -67 -34t-75 -12q-56 0 -105.5 21t-86 58t-57.5 86.5t-21 106.5t21.5 106.5t58.5 86t87.5 57.5t107.5 21q37 0 71 -9t64 -26v28h162v-529h-160zM185 265q0 -57 40.5 -95.5t98.5 -38.5q34 0 62 10.5t50 31.5v185q-21 19 -50 30t-62 11
q-59 0 -99 -38.5t-40 -95.5zM323 692q31 0 53 19t34 57l97 -25q-17 -67 -65 -103.5t-119 -36.5t-119 36.5t-65 103.5l97 25q13 -39 34.5 -57.5t52.5 -18.5z" />
    <glyph glyph-name="acircumflex.school" horiz-adv-x="648" 
d="M26 0zM438 0v39q-31 -22 -67 -34t-75 -12q-56 0 -105.5 21t-86 58t-57.5 86.5t-21 106.5t21.5 106.5t58.5 86t87.5 57.5t107.5 21q37 0 71 -9t64 -26v28h162v-529h-160zM185 265q0 -57 40.5 -95.5t98.5 -38.5q34 0 62 10.5t50 31.5v185q-21 19 -50 30t-62 11
q-59 0 -99 -38.5t-40 -95.5zM392 609l-70 71l-70 -71h-129l119 141h164l119 -141h-133z" />
    <glyph glyph-name="adieresis.school" horiz-adv-x="648" 
d="M26 0zM438 0v39q-31 -22 -67 -34t-75 -12q-56 0 -105.5 21t-86 58t-57.5 86.5t-21 106.5t21.5 106.5t58.5 86t87.5 57.5t107.5 21q37 0 71 -9t64 -26v28h162v-529h-160zM185 265q0 -57 40.5 -95.5t98.5 -38.5q34 0 62 10.5t50 31.5v185q-21 19 -50 30t-62 11
q-59 0 -99 -38.5t-40 -95.5zM205 602q-36 0 -60.5 24t-24.5 58q0 35 24 58.5t61 23.5t61 -23.5t24 -58.5q0 -34 -24.5 -58t-60.5 -24zM441 602q-36 0 -60.5 24t-24.5 58q0 35 24 58.5t61 23.5t61 -23.5t24 -58.5q0 -34 -24.5 -58t-60.5 -24z" />
    <glyph glyph-name="agrave.school" horiz-adv-x="648" 
d="M26 0zM438 0v39q-31 -22 -67 -34t-75 -12q-56 0 -105.5 21t-86 58t-57.5 86.5t-21 106.5t21.5 106.5t58.5 86t87.5 57.5t107.5 21q37 0 71 -9t64 -26v28h162v-529h-160zM185 265q0 -57 40.5 -95.5t98.5 -38.5q34 0 62 10.5t50 31.5v185q-21 19 -50 30t-62 11
q-59 0 -99 -38.5t-40 -95.5zM317 747l87 -136h-130l-139 136h182z" />
    <glyph glyph-name="amacron.school" horiz-adv-x="648" 
d="M26 0zM438 0v39q-31 -22 -67 -34t-75 -12q-56 0 -105.5 21t-86 58t-57.5 86.5t-21 106.5t21.5 106.5t58.5 86t87.5 57.5t107.5 21q37 0 71 -9t64 -26v28h162v-529h-160zM185 265q0 -57 40.5 -95.5t98.5 -38.5q34 0 62 10.5t50 31.5v185q-21 19 -50 30t-62 11
q-59 0 -99 -38.5t-40 -95.5zM494 728v-104h-335v104h335z" />
    <glyph glyph-name="aogonek.school" horiz-adv-x="648" 
d="M438 0v39q-31 -22 -67 -34t-75 -12q-56 0 -105.5 21t-86 58t-57.5 86.5t-21 106.5t21.5 106.5t58.5 86t87.5 57.5t107.5 21q37 0 71 -9t64 -26v28h162v-529q-43 -25 -63.5 -49t-20.5 -49q0 -19 12.5 -30t34.5 -11q9 0 19 3t17 8l21 -70q-17 -10 -40 -16.5t-47 -6.5
q-49 0 -78.5 26t-29.5 68q0 37 21 68t66 59h-72zM185 265q0 -57 40.5 -95.5t98.5 -38.5q34 0 62 10.5t50 31.5v185q-21 19 -50 30t-62 11q-59 0 -99 -38.5t-40 -95.5z" />
    <glyph glyph-name="aring.school" horiz-adv-x="648" 
d="M26 0zM438 0v39q-31 -22 -67 -34t-75 -12q-56 0 -105.5 21t-86 58t-57.5 86.5t-21 106.5t21.5 106.5t58.5 86t87.5 57.5t107.5 21q37 0 71 -9t64 -26v28h162v-529h-160zM185 265q0 -57 40.5 -95.5t98.5 -38.5q34 0 62 10.5t50 31.5v185q-21 19 -50 30t-62 11
q-59 0 -99 -38.5t-40 -95.5zM323 585q-54 0 -91 37t-37 90q0 51 37 87.5t91 36.5q53 0 90.5 -36.5t37.5 -87.5q0 -53 -37.5 -90t-90.5 -37zM323 651q25 0 41.5 18t16.5 43q0 24 -17 41t-41 17t-41 -17t-17 -41q0 -26 16.5 -43.5t41.5 -17.5z" />
    <glyph glyph-name="atilde.school" horiz-adv-x="648" 
d="M26 0zM438 0v39q-31 -22 -67 -34t-75 -12q-56 0 -105.5 21t-86 58t-57.5 86.5t-21 106.5t21.5 106.5t58.5 86t87.5 57.5t107.5 21q37 0 71 -9t64 -26v28h162v-529h-160zM185 265q0 -57 40.5 -95.5t98.5 -38.5q34 0 62 10.5t50 31.5v185q-21 19 -50 30t-62 11
q-59 0 -99 -38.5t-40 -95.5zM218 598l-97 21q14 66 44.5 98t77.5 32q21 0 41.5 -7.5t39.5 -16.5t36 -16.5t30 -7.5q16 0 26 11.5t17 40.5l95 -21q-13 -66 -43.5 -98t-77.5 -32q-21 0 -41 7.5t-39 16.5t-36.5 16.5t-31.5 7.5q-16 0 -25.5 -12t-15.5 -40z" />
    <glyph glyph-name="g.alt" horiz-adv-x="627" 
d="M53 339q0 42 19 78.5t52 63.5t78 42.5t96 15.5q46 0 86.5 -12t72.5 -34q26 37 58.5 56t69.5 19q11 0 20 -1.5t16 -4.5l2 -118q-7 1 -18 2t-22 1q-19 0 -36.5 -2.5t-33.5 -7.5q14 -22 22 -46.5t8 -51.5q0 -42 -18.5 -78t-51 -61.5t-77.5 -40.5t-98 -15q-13 0 -26.5 1
t-26.5 3q-12 -4 -18.5 -10.5t-6.5 -15.5q0 -14 13 -21.5t40 -8.5l172 -3q80 -1 126 -35.5t46 -91.5q0 -41 -23 -75t-66 -57.5t-104 -36t-136 -12.5q-133 0 -202 31.5t-69 91.5q0 32 27 57.5t71 38.5q-16 14 -24.5 33t-8.5 41q0 34 20.5 60.5t56.5 41.5q-49 26 -77.5 69
t-28.5 94zM392 339q0 34 -27 58t-67 24t-67 -23.5t-27 -58.5q0 -36 27 -59.5t67 -23.5t67 24t27 59zM162 -75q0 -24 30.5 -35t95.5 -11q78 0 122.5 13.5t44.5 36.5q0 11 -9 17.5t-26 6.5l-144 2q-20 0 -38.5 2t-34.5 5q-19 -4 -30 -14t-11 -23z" />
    <glyph glyph-name="gbreve.alt" horiz-adv-x="627" 
d="M17 0zM53 339q0 42 19 78.5t52 63.5t78 42.5t96 15.5q46 0 86.5 -12t72.5 -34q26 37 58.5 56t69.5 19q11 0 20 -1.5t16 -4.5l2 -118q-7 1 -18 2t-22 1q-19 0 -36.5 -2.5t-33.5 -7.5q14 -22 22 -46.5t8 -51.5q0 -42 -18.5 -78t-51 -61.5t-77.5 -40.5t-98 -15
q-13 0 -26.5 1t-26.5 3q-12 -4 -18.5 -10.5t-6.5 -15.5q0 -14 13 -21.5t40 -8.5l172 -3q80 -1 126 -35.5t46 -91.5q0 -41 -23 -75t-66 -57.5t-104 -36t-136 -12.5q-133 0 -202 31.5t-69 91.5q0 32 27 57.5t71 38.5q-16 14 -24.5 33t-8.5 41q0 34 20.5 60.5t56.5 41.5
q-49 26 -77.5 69t-28.5 94zM392 339q0 34 -27 58t-67 24t-67 -23.5t-27 -58.5q0 -36 27 -59.5t67 -23.5t67 24t27 59zM162 -75q0 -24 30.5 -35t95.5 -11q78 0 122.5 13.5t44.5 36.5q0 11 -9 17.5t-26 6.5l-144 2q-20 0 -38.5 2t-34.5 5q-19 -4 -30 -14t-11 -23zM298 692
q31 0 53 19t34 57l97 -25q-17 -67 -65 -103.5t-119 -36.5t-119 36.5t-65 103.5l97 25q13 -39 34.5 -57.5t52.5 -18.5z" />
    <glyph glyph-name="gcircumflex.alt" horiz-adv-x="627" 
d="M17 0zM53 339q0 42 19 78.5t52 63.5t78 42.5t96 15.5q46 0 86.5 -12t72.5 -34q26 37 58.5 56t69.5 19q11 0 20 -1.5t16 -4.5l2 -118q-7 1 -18 2t-22 1q-19 0 -36.5 -2.5t-33.5 -7.5q14 -22 22 -46.5t8 -51.5q0 -42 -18.5 -78t-51 -61.5t-77.5 -40.5t-98 -15
q-13 0 -26.5 1t-26.5 3q-12 -4 -18.5 -10.5t-6.5 -15.5q0 -14 13 -21.5t40 -8.5l172 -3q80 -1 126 -35.5t46 -91.5q0 -41 -23 -75t-66 -57.5t-104 -36t-136 -12.5q-133 0 -202 31.5t-69 91.5q0 32 27 57.5t71 38.5q-16 14 -24.5 33t-8.5 41q0 34 20.5 60.5t56.5 41.5
q-49 26 -77.5 69t-28.5 94zM392 339q0 34 -27 58t-67 24t-67 -23.5t-27 -58.5q0 -36 27 -59.5t67 -23.5t67 24t27 59zM162 -75q0 -24 30.5 -35t95.5 -11q78 0 122.5 13.5t44.5 36.5q0 11 -9 17.5t-26 6.5l-144 2q-20 0 -38.5 2t-34.5 5q-19 -4 -30 -14t-11 -23zM367 609
l-70 71l-70 -71h-129l119 141h164l119 -141h-133z" />
    <glyph glyph-name="gcommaaccent.alt" horiz-adv-x="627" 
d="M387 617h-151l89 215h117zM53 339q0 42 19 78.5t52 63.5t78 42.5t96 15.5q46 0 86.5 -12t72.5 -34q26 37 58.5 56t69.5 19q11 0 20 -1.5t16 -4.5l2 -118q-7 1 -18 2t-22 1q-19 0 -36.5 -2.5t-33.5 -7.5q14 -22 22 -46.5t8 -51.5q0 -42 -18.5 -78t-51 -61.5t-77.5 -40.5
t-98 -15q-13 0 -26.5 1t-26.5 3q-12 -4 -18.5 -10.5t-6.5 -15.5q0 -14 13 -21.5t40 -8.5l172 -3q80 -1 126 -35.5t46 -91.5q0 -41 -23 -75t-66 -57.5t-104 -36t-136 -12.5q-133 0 -202 31.5t-69 91.5q0 32 27 57.5t71 38.5q-16 14 -24.5 33t-8.5 41q0 34 20.5 60.5
t56.5 41.5q-49 26 -77.5 69t-28.5 94zM392 339q0 34 -27 58t-67 24t-67 -23.5t-27 -58.5q0 -36 27 -59.5t67 -23.5t67 24t27 59zM162 -75q0 -24 30.5 -35t95.5 -11q78 0 122.5 13.5t44.5 36.5q0 11 -9 17.5t-26 6.5l-144 2q-20 0 -38.5 2t-34.5 5q-19 -4 -30 -14t-11 -23z
" />
    <glyph glyph-name="gdotaccent.alt" horiz-adv-x="627" 
d="M17 0zM53 339q0 42 19 78.5t52 63.5t78 42.5t96 15.5q46 0 86.5 -12t72.5 -34q26 37 58.5 56t69.5 19q11 0 20 -1.5t16 -4.5l2 -118q-7 1 -18 2t-22 1q-19 0 -36.5 -2.5t-33.5 -7.5q14 -22 22 -46.5t8 -51.5q0 -42 -18.5 -78t-51 -61.5t-77.5 -40.5t-98 -15
q-13 0 -26.5 1t-26.5 3q-12 -4 -18.5 -10.5t-6.5 -15.5q0 -14 13 -21.5t40 -8.5l172 -3q80 -1 126 -35.5t46 -91.5q0 -41 -23 -75t-66 -57.5t-104 -36t-136 -12.5q-133 0 -202 31.5t-69 91.5q0 32 27 57.5t71 38.5q-16 14 -24.5 33t-8.5 41q0 34 20.5 60.5t56.5 41.5
q-49 26 -77.5 69t-28.5 94zM392 339q0 34 -27 58t-67 24t-67 -23.5t-27 -58.5q0 -36 27 -59.5t67 -23.5t67 24t27 59zM162 -75q0 -24 30.5 -35t95.5 -11q78 0 122.5 13.5t44.5 36.5q0 11 -9 17.5t-26 6.5l-144 2q-20 0 -38.5 2t-34.5 5q-19 -4 -30 -14t-11 -23zM298 602
q-36 0 -60.5 24t-24.5 58q0 35 24 58.5t61 23.5t61 -23.5t24 -58.5q0 -34 -24.5 -58t-60.5 -24z" />
    <glyph glyph-name="fi" unicode="&#xfb01;" horiz-adv-x="711" 
d="M18 0zM18 529h116v32q0 93 55.5 143t159.5 50q21 0 45.5 -3t40.5 -7v-134q-19 4 -33.5 5.5t-30.5 1.5q-37 0 -56 -14.5t-19 -44.5v-29h139v-135h-139v-394h-162v394h-116v135zM584 578q-37 0 -63 26t-26 63t26 63t63 26t63 -26t26 -63t-26 -63t-63 -26zM665 529v-529
h-162v529h162z" />
    <glyph glyph-name="fl" unicode="&#xfb02;" horiz-adv-x="711" 
d="M18 0zM18 529h116v32q0 93 55.5 143t159.5 50q21 0 45.5 -3t40.5 -7v-134q-19 4 -33.5 5.5t-30.5 1.5q-37 0 -56 -14.5t-19 -44.5v-29h139v-135h-139v-394h-162v394h-116v135zM665 735v-735h-162v700z" />
    <glyph glyph-name="ampersand" unicode="&#x26;" horiz-adv-x="696" 
d="M664 91l-96 -114q-22 16 -45.5 34t-45.5 37q-42 -28 -92.5 -43t-107.5 -15q-113 0 -183 55.5t-70 144.5q0 64 29 107t99 83q-31 40 -43.5 75t-12.5 76q0 78 58.5 129.5t147.5 51.5q87 0 144.5 -49.5t57.5 -123.5q0 -45 -23.5 -82.5t-70.5 -65.5l-51 -32q25 -25 53 -52.5
t58 -54.5q16 30 28.5 66.5t21.5 79.5l138 -23q-16 -66 -36.5 -119.5t-47.5 -94.5q23 -19 46 -36.5t44 -33.5zM240 534q0 -18 9 -37t33 -47l35 21q22 14 32 29t10 34q0 25 -18 42.5t-43 17.5t-41.5 -17t-16.5 -43zM173 203q0 -40 31 -63.5t85 -23.5q24 0 45.5 5t40.5 16
q-39 36 -76 73.5t-70 74.5q-31 -19 -43.5 -38t-12.5 -44z" />
    <glyph glyph-name="grave" unicode="`" horiz-adv-x="516" 
d="M294 747l87 -136h-130l-139 136h182z" />
    <glyph glyph-name="acute" unicode="&#xb4;" horiz-adv-x="516" 
d="M237 747h181l-140 -136h-129z" />
    <glyph glyph-name="circumflex" unicode="&#x2c6;" horiz-adv-x="516" 
d="M327 609l-70 71l-70 -71h-129l119 141h164l119 -141h-133z" />
    <glyph glyph-name="tilde" unicode="&#x2dc;" horiz-adv-x="516" 
d="M153 598l-97 21q14 66 44.5 98t77.5 32q21 0 41.5 -7.5t39.5 -16.5t36 -16.5t30 -7.5q16 0 26 11.5t17 40.5l95 -21q-13 -66 -43.5 -98t-77.5 -32q-21 0 -41 7.5t-39 16.5t-36.5 16.5t-31.5 7.5q-16 0 -25.5 -12t-15.5 -40z" />
    <glyph glyph-name="macron" unicode="&#xaf;" horiz-adv-x="516" 
d="M429 728v-104h-335v104h335z" />
    <glyph glyph-name="breve" unicode="&#x2d8;" horiz-adv-x="516" 
d="M258 692q31 0 53 19t34 57l97 -25q-17 -67 -65 -103.5t-119 -36.5t-119 36.5t-65 103.5l97 25q13 -39 34.5 -57.5t52.5 -18.5z" />
    <glyph glyph-name="dotaccent" unicode="&#x2d9;" horiz-adv-x="299" 
d="M150 602q-36 0 -60.5 24t-24.5 58q0 35 24 58.5t61 23.5t61 -23.5t24 -58.5q0 -34 -24.5 -58t-60.5 -24z" />
    <glyph glyph-name="dieresis" unicode="&#xa8;" horiz-adv-x="608" 
d="M186 602q-36 0 -60.5 24t-24.5 58q0 35 24 58.5t61 23.5t61 -23.5t24 -58.5q0 -34 -24.5 -58t-60.5 -24zM422 602q-36 0 -60.5 24t-24.5 58q0 35 24 58.5t61 23.5t61 -23.5t24 -58.5q0 -34 -24.5 -58t-60.5 -24z" />
    <glyph glyph-name="ring" unicode="&#x2da;" horiz-adv-x="516" 
d="M258 585q-54 0 -91 37t-37 90q0 51 37 87.5t91 36.5q53 0 90.5 -36.5t37.5 -87.5q0 -53 -37.5 -90t-90.5 -37zM258 651q25 0 41.5 18t16.5 43q0 24 -17 41t-41 17t-41 -17t-17 -41q0 -26 16.5 -43.5t41.5 -17.5z" />
    <glyph glyph-name="hungarumlaut" unicode="&#x2dd;" horiz-adv-x="556" 
d="M171 746h156l-134 -133h-122zM394 746h158l-146 -133h-112z" />
    <glyph glyph-name="caron" unicode="&#x2c7;" horiz-adv-x="516" 
d="M191 750l70 -71l70 71h129l-119 -141h-164l-119 141h133z" />
    <glyph glyph-name="caronSlovak" horiz-adv-x="258" 
d="M83 723h155l-59 -257h-106z" />
    <glyph glyph-name="uni00200326" horiz-adv-x="280" 
d="M66 -80h151l-89 -215h-117z" />
    <glyph glyph-name="cedilla" unicode="&#xb8;" horiz-adv-x="516" 
d="M407 -134q0 -44 -40 -74.5t-99 -30.5q-39 0 -71 11.5t-59 35.5l51 54q18 -13 37.5 -20.5t38.5 -7.5q25 0 38 9t13 25q0 15 -13.5 24t-35.5 9h-47l29 99h76l-13 -42q44 -4 69.5 -29t25.5 -63z" />
    <glyph glyph-name="ogonek" unicode="&#x2db;" horiz-adv-x="516" 
d="M331 0q-43 -25 -63.5 -49t-20.5 -49q0 -19 12.5 -30t34.5 -11q9 0 19 3t17 8l21 -70q-17 -10 -40 -16.5t-47 -6.5q-49 0 -78.5 26t-29.5 68q0 43 30.5 79t95.5 70z" />
    <glyph glyph-name="period" unicode="." horiz-adv-x="258" 
d="M129 175q38 0 65.5 -27.5t27.5 -65.5t-27.5 -65.5t-65.5 -27.5t-65.5 27.5t-27.5 65.5t27.5 65.5t65.5 27.5z" />
    <glyph glyph-name="comma" unicode="," horiz-adv-x="258" 
d="M63 127h167l-119 -284h-121z" />
    <glyph glyph-name="colon" unicode=":" horiz-adv-x="258" 
d="M36 0zM129 175q38 0 65.5 -27.5t27.5 -65.5t-27.5 -65.5t-65.5 -27.5t-65.5 27.5t-27.5 65.5t27.5 65.5t65.5 27.5zM129 538q38 0 65.5 -27.5t27.5 -65.5t-27.5 -65.5t-65.5 -27.5t-65.5 27.5t-27.5 65.5t27.5 65.5t65.5 27.5z" />
    <glyph glyph-name="semicolon" unicode=";" horiz-adv-x="263" 
d="M0 0zM142 538q38 0 65.5 -27.5t27.5 -65.5t-27.5 -65.5t-65.5 -27.5t-65.5 27.5t-27.5 65.5t27.5 65.5t65.5 27.5zM58 127h167l-119 -284h-121z" />
    <glyph glyph-name="ellipsis" unicode="&#x2026;" horiz-adv-x="742" 
d="M36 0zM129 175q38 0 65.5 -27.5t27.5 -65.5t-27.5 -65.5t-65.5 -27.5t-65.5 27.5t-27.5 65.5t27.5 65.5t65.5 27.5zM371 175q38 0 65.5 -27.5t27.5 -65.5t-27.5 -65.5t-65.5 -27.5t-65.5 27.5t-27.5 65.5t27.5 65.5t65.5 27.5zM613 175q38 0 65.5 -27.5t27.5 -65.5
t-27.5 -65.5t-65.5 -27.5t-65.5 27.5t-27.5 65.5t27.5 65.5t65.5 27.5z" />
    <glyph glyph-name="exclam" unicode="!" horiz-adv-x="258" 
d="M67 216l-20 529h164l-20 -529h-124zM129 -11q-38 0 -65.5 27.5t-27.5 65.5t27.5 65.5t65.5 27.5t65.5 -27.5t27.5 -65.5t-27.5 -65.5t-65.5 -27.5z" />
    <glyph glyph-name="exclamdown" unicode="&#xa1;" horiz-adv-x="258" 
d="M191 485l20 -529h-164l20 529h124zM129 712q38 0 65.5 -27.5t27.5 -65.5t-27.5 -65.5t-65.5 -27.5t-65.5 27.5t-27.5 65.5t27.5 65.5t65.5 27.5z" />
    <glyph glyph-name="question" unicode="?" horiz-adv-x="534" 
d="M387 336l-25 -17q-29 -19 -40.5 -41.5t-10.5 -59.5h-135q-4 69 12 108t63 74l54 40q25 19 37.5 36t12.5 33q0 29 -26 48.5t-66 19.5q-43 0 -78.5 -23t-50.5 -61l-131 49q28 77 100.5 123t165.5 46q52 0 97 -14.5t77.5 -40.5t51 -61t18.5 -76q0 -55 -27.5 -94.5
t-98.5 -88.5zM244 175q38 0 65.5 -27.5t27.5 -65.5t-27.5 -65.5t-65.5 -27.5t-65.5 27.5t-27.5 65.5t27.5 65.5t65.5 27.5z" />
    <glyph glyph-name="questiondown" unicode="&#xbf;" horiz-adv-x="534" 
d="M134 364l25 17q29 19 40.5 41.5t10.5 59.5h135q4 -69 -12 -108t-63 -74l-54 -40q-25 -19 -37.5 -36t-12.5 -33q0 -29 26 -48.5t66 -19.5q43 0 78.5 23t50.5 61l131 -49q-28 -77 -100.5 -123t-165.5 -46q-52 0 -97 14.5t-77.5 40.5t-51 61t-18.5 76q0 55 27.5 94.5
t98.5 88.5zM277 525q-38 0 -65.5 27.5t-27.5 65.5t27.5 65.5t65.5 27.5t65.5 -27.5t27.5 -65.5t-27.5 -65.5t-65.5 -27.5z" />
    <glyph glyph-name="quoteleft" unicode="&#x2018;" horiz-adv-x="258" 
d="M176 466h-167l119 284h121z" />
    <glyph glyph-name="quoteright" unicode="&#x2019;" horiz-adv-x="258" 
d="M20 466zM93 750h167l-119 -284h-121z" />
    <glyph glyph-name="quotedblleft" unicode="&#x201c;" horiz-adv-x="472" 
d="M176 466h-167l119 284h121zM390 466h-167l119 284h121z" />
    <glyph glyph-name="quotedblright" unicode="&#x201d;" horiz-adv-x="472" 
d="M20 466zM307 750h167l-119 -284h-121zM93 750h167l-119 -284h-121z" />
    <glyph glyph-name="quotesinglbase" unicode="&#x201a;" horiz-adv-x="258" 
d="M0 0zM63 127h167l-119 -284h-121z" />
    <glyph glyph-name="quotedblbase" unicode="&#x201e;" horiz-adv-x="472" 
d="M0 0zM277 127h167l-119 -284h-121zM63 127h167l-119 -284h-121z" />
    <glyph glyph-name="reversequoteleft" horiz-adv-x="258" 
d="M176 750l73 -284h-121l-119 284h167z" />
    <glyph glyph-name="reversequotedblleft" horiz-adv-x="472" 
d="M176 750l73 -284h-121l-119 284h167zM390 750l73 -284h-121l-119 284h167z" />
    <glyph glyph-name="guilsinglleft" unicode="&#x2039;" horiz-adv-x="448" 
d="M424 529l-239 -263l242 -266h-167l-246 265l246 264h164z" />
    <glyph glyph-name="guilsinglright" unicode="&#x203a;" horiz-adv-x="448" 
d="M24 0l239 263l-242 266h167l246 -265l-246 -264h-164z" />
    <glyph glyph-name="guillemotleft" unicode="&#xab;" horiz-adv-x="711" 
d="M14 0zM424 529l-239 -263l242 -266h-167l-246 265l246 264h164zM687 529l-239 -263l242 -266h-167l-246 265l246 264h164z" />
    <glyph glyph-name="guillemotright" unicode="&#xbb;" horiz-adv-x="711" 
d="M287 0l239 263l-242 266h167l246 -265l-246 -264h-164zM24 0l239 263l-242 266h167l246 -265l-246 -264h-164z" />
    <glyph glyph-name="slash" unicode="/" horiz-adv-x="531" 
d="M-72 -211l424 911h162l-423 -911h-163z" />
    <glyph glyph-name="backslash" unicode="\" horiz-adv-x="540" 
d="M612 -211h-171l-424 911h171z" />
    <glyph glyph-name="bar" unicode="|" horiz-adv-x="344" 
d="M97 -214v914h151v-914h-151z" />
    <glyph glyph-name="bullet" unicode="&#x2022;" horiz-adv-x="366" 
d="M183 202q-51 0 -87.5 35t-36.5 86t36 86.5t88 35.5t88 -35.5t36 -86.5t-36.5 -86t-87.5 -35z" />
    <glyph glyph-name="uni2002" unicode="&#x2002;" horiz-adv-x="500" 
 />
    <glyph glyph-name="uni2003" unicode="&#x2003;" horiz-adv-x="1000" 
 />
    <glyph glyph-name="uni2009" unicode="&#x2009;" horiz-adv-x="175" 
 />
    <glyph glyph-name="uni200A" unicode="&#x200a;" horiz-adv-x="100" 
 />
    <glyph glyph-name="uni200B" unicode="&#x200b;" horiz-adv-x="0" 
 />
    <glyph glyph-name="periodcentered" unicode="&#xb7;" horiz-adv-x="258" 
d="M36 194zM129 380q38 0 65.5 -27.5t27.5 -65.5t-27.5 -65.5t-65.5 -27.5t-65.5 27.5t-27.5 65.5t27.5 65.5t65.5 27.5z" />
    <glyph glyph-name="hyphen" unicode="-" horiz-adv-x="463" 
d="M38 354h387v-135h-387v135z" />
    <glyph glyph-name="endash" unicode="&#x2013;" horiz-adv-x="563" 
d="M38 354h487v-135h-487v135z" />
    <glyph glyph-name="emdash" unicode="&#x2014;" horiz-adv-x="713" 
d="M38 354h637v-135h-637v135z" />
    <glyph glyph-name="uni2015" unicode="&#x2015;" horiz-adv-x="963" 
d="M38 354h887v-135h-887v135z" />
    <glyph glyph-name="periodcentered.cap" horiz-adv-x="258" 
d="M36 259zM36 259zM129 445q38 0 65.5 -27.5t27.5 -65.5t-27.5 -65.5t-65.5 -27.5t-65.5 27.5t-27.5 65.5t27.5 65.5t65.5 27.5z" />
    <glyph glyph-name="hyphen.cap" horiz-adv-x="463" 
d="M38 284zM38 419h387v-135h-387v135z" />
    <glyph glyph-name="endash.cap" horiz-adv-x="563" 
d="M38 284zM38 419h487v-135h-487v135z" />
    <glyph glyph-name="emdash.cap" horiz-adv-x="713" 
d="M38 284zM38 419h637v-135h-637v135z" />
    <glyph glyph-name="uni2015.cap" horiz-adv-x="963" 
d="M38 284zM38 419h887v-135h-887v135z" />
    <glyph glyph-name="parenleft" unicode="(" horiz-adv-x="421" 
d="M48 247q0 152 68.5 273.5t195.5 194.5l90 -99q-100 -63 -152 -157t-52 -212t52 -212t152 -157l-90 -99q-127 73 -195.5 194.5t-68.5 273.5z" />
    <glyph glyph-name="parenright" unicode=")" horiz-adv-x="421" 
d="M373 245q0 -152 -68.5 -273.5t-195.5 -194.5l-90 99q100 63 152 157t52 212t-52 212t-152 157l90 99q127 -73 195.5 -194.5t68.5 -273.5z" />
    <glyph glyph-name="bracketleft" unicode="[" horiz-adv-x="412" 
d="M374 -215h-318v915h318v-126h-165v-663h165v-126z" />
    <glyph glyph-name="bracketright" unicode="]" horiz-adv-x="412" 
d="M38 700h318v-915h-318v126h165v663h-165v126z" />
    <glyph glyph-name="braceleft" unicode="{" horiz-adv-x="448" 
d="M304 84l-32 -92q-13 -38 1 -63.5t50 -26.5q16 0 32 3t31 8l22 -115q-27 -9 -53 -13.5t-54 -4.5q-52 0 -91.5 16t-62.5 44t-28 67t11 85l31 88q16 46 -2 76t-63 30h-85v118h85q45 0 63 30t2 76l-31 88q-16 46 -11 85t28 67t62.5 44t91.5 16q28 0 54 -4.5t53 -13.5
l-22 -115q-15 5 -31 8t-32 3q-36 -1 -50 -26.5t-1 -63.5l32 -92q20 -57 -10 -102.5t-95 -58.5q65 -13 95 -58.5t10 -102.5z" />
    <glyph glyph-name="braceright" unicode="}" horiz-adv-x="448" 
d="M144 407l32 92q13 38 -1 63.5t-50 26.5q-16 0 -32 -3t-31 -8l-22 115q27 9 53 13.5t54 4.5q52 0 91.5 -16t62.5 -44t28 -67t-11 -85l-31 -88q-16 -46 2 -76t63 -30h85v-118h-85q-45 0 -63 -30t-2 -76l31 -88q16 -46 11 -85t-28 -67t-62.5 -44t-91.5 -16q-28 0 -54 4.5
t-53 13.5l22 115q15 -5 31 -8t32 -3q36 1 50 26.5t1 63.5l-32 92q-20 57 10 102.5t95 58.5q-65 13 -95 58.5t-10 102.5z" />
    <glyph glyph-name="asterisk" unicode="*" horiz-adv-x="487" 
d="M391 351l-97 61l2 -106h-103l2 107l-99 -62l-56 87l109 63l-111 66l57 85l100 -63l-2 111h103l-2 -111l100 63l57 -85l-111 -66l109 -63z" />
    <glyph glyph-name="dagger" unicode="&#x2020;" horiz-adv-x="459" 
d="M166 0v402h-119v124h119v174h129v-174h118v-124h-118v-402h-129z" />
    <glyph glyph-name="daggerdbl" unicode="&#x2021;" horiz-adv-x="459" 
d="M166 0v174h-119v124h119v104h-119v124h119v174h129v-174h118v-124h-118v-104h118v-124h-118v-174h-129z" />
    <glyph glyph-name="section" unicode="&#xa7;" horiz-adv-x="584" 
d="M489 106q0 -72 -57.5 -116.5t-152.5 -44.5q-57 0 -110.5 15t-99.5 43l62 94q43 -26 80 -38.5t70 -11.5q29 0 46 12.5t17 33.5q0 16 -12 27t-41 21l-104 35q-87 28 -122 63t-35 92q0 46 25 80.5t68 53.5q-14 16 -21 36.5t-7 45.5q0 73 58 118t154 45q54 0 107 -15t102 -44
l-62 -94q-43 25 -80 37.5t-70 12.5q-29 0 -46 -12t-17 -34q0 -16 12.5 -27t40.5 -21l103 -35q87 -29 122 -63.5t35 -91.5q0 -46 -24 -81t-68 -55q14 -16 20.5 -36t6.5 -45zM343 254q5 -1 10.5 -3.5t10.5 -3.5q26 4 41.5 19t15.5 37q0 20 -14.5 34.5t-45.5 24.5l-120 38
q-5 1 -10.5 3.5t-9.5 3.5q-27 -4 -42.5 -19.5t-15.5 -37.5q0 -20 14 -33.5t46 -24.5z" />
    <glyph glyph-name="paragraph" unicode="&#xb6;" horiz-adv-x="719" 
d="M312 0v238h-29q-57 0 -105 16.5t-82.5 46.5t-53.5 71.5t-19 91.5q0 107 71.5 171.5t188.5 64.5h377v-700h-131v238h-87v-238h-130zM529 365v205h-87v-205h87zM276 365h36v205h-36q-50 0 -80.5 -28t-30.5 -74t30.5 -74.5t80.5 -28.5z" />
    <glyph glyph-name="asciicircum" unicode="^" horiz-adv-x="560" 
d="M28 350l183 350h138l183 -350h-131l-121 233l-121 -233h-131z" />
    <glyph glyph-name="asciitilde" unicode="~" horiz-adv-x="618" 
d="M273 448l92 -43q22 -10 35.5 -14t23.5 -4q26 0 41.5 18.5t19.5 55.5l111 -12q-10 -87 -50.5 -133.5t-103.5 -46.5q-24 0 -49.5 6t-47.5 17l-92 43q-22 10 -35.5 14t-23.5 4q-26 0 -41.5 -18.5t-19.5 -55.5l-111 12q10 87 50.5 133.5t103.5 46.5q24 0 49.5 -6t47.5 -17z
" />
    <glyph glyph-name="underscore" unicode="_" horiz-adv-x="499" 
d="M500 -80v-111h-501v111h501z" />
    <glyph glyph-name="quotesingle" unicode="'" horiz-adv-x="275" 
d="M79 396l-19 310h156l-19 -310h-118z" />
    <glyph glyph-name="quotedbl" unicode="&#x22;" horiz-adv-x="482" 
d="M60 396zM79 396l-19 310h156l-19 -310h-118zM286 396l-19 310h156l-19 -310h-118z" />
    <glyph glyph-name="at" unicode="@" horiz-adv-x="792" 
d="M350 47q-61 0 -103.5 45.5t-42.5 110.5q0 39 14 73t38 58.5t57 39t71 14.5q25 0 48.5 -8t41.5 -23l4 18h103l-44 -208q-5 -23 5.5 -35.5t33.5 -12.5q45 0 73 42.5t28 110.5q0 53 -20.5 98t-55.5 78t-84 52t-106 19q-63 0 -117 -23.5t-94 -64t-62.5 -96.5t-22.5 -121
q0 -64 22 -117t60.5 -91t93.5 -59t121 -21q46 0 86.5 9t76.5 26l28 -62q-48 -22 -94.5 -32.5t-95.5 -10.5q-81 0 -149.5 26.5t-118 73t-77.5 111t-28 140.5q0 81 28.5 150t78 119t118.5 78.5t149 28.5q71 0 133.5 -23.5t108 -64.5t72 -96.5t26.5 -119.5q0 -102 -54.5 -167.5
t-139.5 -65.5q-37 0 -64 10.5t-42 30.5q-22 -19 -49 -29.5t-55 -10.5zM303 212q0 -35 20.5 -58t51.5 -23q16 0 31.5 5.5t29.5 17.5q0 7 1 14l2 14l17 87q-11 16 -28.5 24t-39.5 8q-34 0 -59.5 -26t-25.5 -63z" />
    <glyph glyph-name="at.cap" horiz-adv-x="807" 
d="M40 0zM350 176q-61 0 -103.5 45.5t-42.5 110.5q0 39 14 73t38 58.5t57 39t71 14.5q25 0 48.5 -8t41.5 -23l4 18h103l-44 -208q-5 -23 5.5 -35.5t33.5 -12.5q45 0 73 42.5t28 110.5q0 53 -20.5 98t-55.5 78t-84 52t-106 19q-63 0 -117 -23.5t-94 -64t-62.5 -96.5
t-22.5 -121q0 -64 22 -117t60.5 -91t93.5 -59t121 -21q46 0 86.5 9t76.5 26l28 -62q-48 -22 -94.5 -32.5t-95.5 -10.5q-81 0 -149.5 26.5t-118 73t-77.5 111t-28 140.5q0 81 28.5 150t78 119t118.5 78.5t149 28.5q71 0 133.5 -23.5t108 -64.5t72 -96.5t26.5 -119.5
q0 -102 -54.5 -167.5t-139.5 -65.5q-37 0 -64 10.5t-42 30.5q-22 -19 -49 -29.5t-55 -10.5zM303 341q0 -35 20.5 -58t51.5 -23q16 0 31.5 5.5t29.5 17.5q0 7 1 14l2 14l17 87q-11 16 -28.5 24t-39.5 8q-34 0 -59.5 -26t-25.5 -63z" />
    <glyph glyph-name="copyright" unicode="&#xa9;" horiz-adv-x="783" 
d="M33 350q0 75 28 141.5t76 115t113.5 76.5t140.5 28t140.5 -28t113.5 -76.5t76 -115t28 -141.5t-28 -141.5t-76 -115t-113.5 -76.5t-140.5 -28t-140.5 28t-113.5 76.5t-76 115t-28 141.5zM678 350q0 61 -22.5 114.5t-61.5 93.5t-91.5 63t-111.5 23t-111.5 -23t-91 -63
t-61 -93.5t-22.5 -114.5t22.5 -114.5t61 -93.5t91 -63t111.5 -23t111.5 23t91.5 63t61.5 93.5t22.5 114.5zM203 351q0 40 15 75t41 61t62 40.5t77 14.5q45 0 86 -18t69 -50l-68 -71q-20 22 -39.5 32t-44.5 10q-37 0 -61.5 -27t-24.5 -67t25.5 -66.5t62.5 -26.5q23 0 42.5 10
t37.5 30l67 -70q-29 -32 -69 -49.5t-83 -17.5q-41 0 -77 14.5t-62 40t-41 60.5t-15 75z" />
    <glyph glyph-name="registered" unicode="&#xae;" horiz-adv-x="486" 
d="M243 304q-43 0 -81 16.5t-66 44.5t-44 66t-16 82t16 82t44 66t66 44.5t81 16.5t81 -16.5t66 -44.5t44 -66.5t16 -81.5t-16 -81.5t-44 -66.5t-66 -44.5t-81 -16.5zM242 353q68 0 111.5 45.5t43.5 114.5t-43.5 114.5t-111.5 45.5q-66 0 -109.5 -45.5t-43.5 -114.5
t43.5 -114.5t109.5 -45.5zM168 420v188h90q29 0 46.5 -16.5t17.5 -43.5q0 -16 -8.5 -30t-23.5 -22l43 -76h-58l-33 65h-21v-65h-53zM246 568h-25v-46h24q11 0 18 6.5t7 16.5q0 11 -6 17t-18 6z" />
    <glyph glyph-name="trademark" unicode="&#x2122;" horiz-adv-x="694" 
d="M329 700h97l67 -135l68 135h97v-279h-77l2 186l-90 -169l-91 168l1 -185h-74v279zM23 700h264v-67h-91v-212h-82v212h-91v67z" />
    <glyph glyph-name="Euro" unicode="&#x20ac;" horiz-adv-x="796" 
d="M258 350v-13.5t1 -13.5h214l-31 -78h-164q25 -58 76.5 -91.5t121.5 -33.5q57 0 106.5 21.5t76.5 58.5l107 -81q-49 -63 -123 -96.5t-168 -33.5q-133 0 -228.5 70t-126.5 186h-84v78h72q-1 7 -1 13.5v13.5v13.5t1 12.5h-72v79h84q31 116 126 186t229 70q95 0 169.5 -33.5
t121.5 -96.5l-108 -82q-27 37 -76 59t-106 22q-70 0 -121.5 -33.5t-76.5 -91.5h245l-31 -79h-233q-1 -6 -1 -12.5v-13.5z" />
    <glyph glyph-name="dollar" unicode="$" horiz-adv-x="614" 
d="M258 -75v94q-75 6 -141.5 33.5t-116.5 72.5l80 116q38 -34 83.5 -57t94.5 -31v128l-62 12q-96 16 -139 59.5t-43 124.5q0 94 65 149.5t179 59.5v73h73v-76q62 -6 123.5 -26t114.5 -51l-66 -124q-47 25 -89.5 41.5t-82.5 23.5v-130l61 -10q102 -18 150 -60.5t48 -117.5
q0 -93 -68.5 -149t-190.5 -62v-93h-73zM257 424h1v129q-43 -2 -68.5 -18.5t-25.5 -44.5q0 -32 18 -45t75 -21zM434 213q0 31 -20 43t-83 20v-128q47 3 75 20t28 45z" />
    <glyph glyph-name="cent" unicode="&#xa2;" horiz-adv-x="539" 
d="M276 -110v101q-53 5 -99 28t-79.5 59t-52.5 84t-19 102t19 102t52.5 84t79.5 59t99 29v87h66v-88q54 -7 103.5 -31.5t84.5 -64.5l-99 -103q-21 24 -42.5 38.5t-46.5 19.5v-263q24 4 45.5 18t41.5 36l96 -100q-34 -39 -82 -63.5t-101 -31.5v-102h-66zM187 264
q0 -47 24.5 -81.5t64.5 -46.5v258q-39 -11 -64 -46.5t-25 -83.5z" />
    <glyph glyph-name="sterling" unicode="&#xa3;" horiz-adv-x="661" 
d="M227 25q-10 2 -19.5 3.5t-17.5 1.5q-28 0 -48 -15.5t-36 -49.5l-123 76q28 52 66 81t87 35q7 7 10.5 16t3.5 19q0 4 -2.5 16.5t-13.5 66.5h-94v102h74q-8 39 -10.5 59.5t-2.5 36.5q0 105 69 171t184 66q102 0 169 -46.5t96 -138.5l-133 -44q-17 48 -47.5 72.5t-76.5 24.5
q-54 0 -82.5 -28.5t-28.5 -78.5q0 -10 2.5 -27.5t12.5 -66.5h180v-102h-158q3 -19 4.5 -30.5t1.5 -20.5q0 -25 -7 -45t-22 -36l150 -38q10 -3 20 -4t19 -1q27 0 47 14t35 45l118 -70q-32 -60 -76 -89t-101 -29q-19 0 -38.5 3t-41.5 8z" />
    <glyph glyph-name="yen" unicode="&#xa5;" horiz-adv-x="738" 
d="M111 216h169v45l-5 8h-164v81h110l-231 350h198l183 -287l184 287h187l-231 -350h116v-81h-170l-5 -8v-45h175v-81h-175v-135h-172v135h-169v81z" />
    <glyph glyph-name="numbersign" unicode="#" horiz-adv-x="757" 
d="M67 0l53 184h-91v114h123l30 104h-103v114h135l53 184h145l-53 -184h133l53 184h144l-53 -184h92v-114h-124l-30 -104h104v-114h-136l-53 -184h-144l53 184h-133l-53 -184h-145zM297 298h133l30 104h-133z" />
    <glyph glyph-name="zero" unicode="0" horiz-adv-x="694" 
d="M347 -10q-71 0 -130 26t-100 73t-64 114t-23 148t23 147.5t64.5 113.5t100 73t129.5 26t129.5 -26t100 -73t64.5 -113.5t23 -147.5t-23 -148t-64 -114t-100 -73t-130 -26zM347 130q74 0 116.5 59t42.5 162q0 101 -43 160.5t-116 59.5t-116 -59.5t-43 -160.5
q0 -103 42.5 -162t116.5 -59z" />
    <glyph glyph-name="one" unicode="1" horiz-adv-x="373" 
d="M325 700v-700h-162v536l-145 -58v140l205 82h102z" />
    <glyph glyph-name="two" unicode="2" horiz-adv-x="586" 
d="M38 0v113l281 244q38 34 55.5 62t17.5 59q0 40 -32 66.5t-81 26.5t-91.5 -20t-93.5 -66l-90 108q63 57 134.5 86.5t146.5 29.5q59 0 108 -16t83.5 -45t54 -70t19.5 -90q0 -58 -30.5 -109.5t-99.5 -111.5l-154 -132h291v-135h-519z" />
    <glyph glyph-name="three" unicode="3" horiz-adv-x="629" 
d="M592 197q0 -45 -22 -83t-60.5 -65.5t-92 -43t-116.5 -15.5q-85 0 -160.5 30t-124.5 83l109 100q40 -42 78.5 -58t95.5 -16q58 0 93.5 22t35.5 59q0 31 -30.5 49t-84.5 18h-66v129h49q50 0 82 24.5t32 62.5q0 34 -31.5 55.5t-80.5 21.5q-50 0 -86.5 -17.5t-80.5 -62.5
l-110 99q51 57 127 89.5t156 32.5q59 0 109 -14.5t85 -40.5t55 -63t20 -81q0 -51 -26 -93.5t-72 -68.5q54 -21 85.5 -61t31.5 -92z" />
    <glyph glyph-name="four" unicode="4" horiz-adv-x="694" 
d="M583 700v-410h87v-135h-87v-155h-162v155h-394v131l367 414h189zM212 290h209v235z" />
    <glyph glyph-name="five" unicode="5" horiz-adv-x="617" 
d="M62 324l17 376h468v-135h-337l-6 -137q30 10 60.5 14.5t64.5 4.5q116 0 187 -59.5t71 -156.5q0 -54 -21.5 -98.5t-60.5 -76.5t-93.5 -49.5t-120.5 -17.5q-76 0 -144.5 24t-121.5 70l97 110q45 -37 85 -52.5t89 -15.5q57 0 91 27t34 71q0 43 -37.5 69.5t-95.5 26.5
q-29 0 -60 -7t-58 -20z" />
    <glyph glyph-name="six" unicode="6" horiz-adv-x="645" 
d="M348 -11q-71 0 -130.5 25.5t-101.5 71.5t-65 111t-23 143q0 83 25.5 152t71.5 117.5t111.5 75.5t144.5 27q61 0 122 -21.5t100 -55.5l-94 -114q-31 25 -64.5 37t-76.5 12q-81 0 -126.5 -53.5t-51.5 -155.5q34 35 81 54.5t101 19.5t99 -16t77.5 -44t50.5 -67.5t18 -86.5
q0 -50 -20.5 -92.5t-56 -73.5t-85 -48.5t-107.5 -17.5zM346 309q-43 0 -79.5 -17t-65.5 -49q16 -54 53 -86t86 -32q51 0 84.5 26.5t33.5 66.5t-31 65.5t-81 25.5z" />
    <glyph glyph-name="seven" unicode="7" horiz-adv-x="618" 
d="M105 0l306 560h-390v140h576v-119l-298 -581h-194z" />
    <glyph glyph-name="eight" unicode="8" horiz-adv-x="640" 
d="M320 -11q-63 0 -116.5 15.5t-91 42.5t-58.5 66t-21 85q0 51 30.5 93.5t79.5 65.5q-40 25 -64.5 64.5t-24.5 86.5q0 43 20.5 80.5t55.5 64.5t84 42.5t105 15.5q57 0 106 -15.5t84.5 -42.5t56 -64.5t20.5 -80.5q0 -47 -24.5 -86.5t-64.5 -64.5q49 -23 79.5 -65.5
t30.5 -93.5q0 -46 -21 -85t-58.5 -66t-91 -42.5t-116.5 -15.5zM320 415q46 0 76.5 24t30.5 58q0 35 -30.5 58.5t-76.5 23.5t-76.5 -23.5t-30.5 -58.5q0 -34 30.5 -58t76.5 -24zM320 121q54 0 89 24.5t35 62.5t-35 62.5t-89 24.5t-89 -24.5t-35 -62.5t35 -62.5t89 -24.5z" />
    <glyph glyph-name="nine" unicode="9" horiz-adv-x="645" 
d="M297 712q71 0 130.5 -25.5t101.5 -71.5t65 -111t23 -143q0 -83 -25.5 -152t-71.5 -117.5t-111.5 -75.5t-144.5 -27q-61 0 -122 21.5t-100 55.5l94 114q31 -25 64.5 -37t76.5 -12q81 0 126.5 53.5t51.5 155.5q-34 -35 -81 -54.5t-101 -19.5t-99 16t-77.5 44t-50.5 67.5
t-18 86.5q0 50 20.5 92.5t56 73.5t85 48.5t107.5 17.5zM299 392q43 0 79.5 17t65.5 49q-16 54 -53 86t-86 32q-51 0 -84.5 -26.5t-33.5 -66.5t31 -65.5t81 -25.5z" />
    <glyph glyph-name="uni2070" unicode="&#x2070;" horiz-adv-x="367" 
d="M20 345zM184 345q-75 0 -119.5 49.5t-44.5 131.5q0 81 45 130.5t119 49.5t119 -49.5t45 -130.5q0 -82 -44.5 -131.5t-119.5 -49.5zM184 429q33 0 51.5 25.5t18.5 71.5q0 44 -19 70t-51 26t-50.5 -26t-18.5 -70q0 -46 18 -71.5t51 -25.5z" />
    <glyph glyph-name="onesuperior" unicode="&#xb9;" horiz-adv-x="207" 
d="M15 350zM190 700v-350h-98v252l-77 -30v83l114 45h61z" />
    <glyph glyph-name="twosuperior" unicode="&#xb2;" horiz-adv-x="313" 
d="M5 350zM27 350v69l143 119q13 10 20.5 22t7.5 24q0 16 -13.5 27t-34.5 11q-24 0 -45 -10.5t-46 -32.5l-54 64q33 30 71 45.5t78 16.5q62 -1 100.5 -32.5t38.5 -82.5q0 -30 -15.5 -57t-47.5 -52l-60 -50h125v-81h-268z" />
    <glyph glyph-name="threesuperior" unicode="&#xb3;" horiz-adv-x="335" 
d="M14 345zM314 450q0 -46 -43 -75.5t-109 -29.5q-45 0 -84.5 15.5t-63.5 43.5l66 60q19 -21 36 -28.5t45 -7.5q25 0 39.5 8.5t14.5 21.5q0 10 -11.5 16t-33.5 6h-35v77h24q22 0 35.5 9.5t13.5 24.5q0 13 -13 21.5t-34 8.5q-24 0 -40.5 -8.5t-38.5 -30.5l-66 59
q26 29 66.5 47t82.5 18q63 0 102 -28t39 -74q0 -25 -12 -46t-33 -35q25 -10 39 -29t14 -44z" />
    <glyph glyph-name="uni2074" unicode="&#x2074;" horiz-adv-x="367" 
d="M21 350zM315 700v-198h44v-80h-44v-72h-98v72h-196v79l179 199h115zM130 502h87v95z" />
    <glyph glyph-name="uni2075" unicode="&#x2075;" horiz-adv-x="330" 
d="M20 344zM38 508l9 192h245v-81h-167l-2 -51q14 4 27 6t28 2q61 0 97.5 -30.5t36.5 -80.5q0 -54 -43.5 -87.5t-112.5 -33.5q-39 0 -74 12.5t-62 34.5l58 68q22 -17 40.5 -24.5t40.5 -7.5q25 0 39 10t14 27q0 16 -16 26.5t-41 10.5q-11 0 -25 -3t-26 -10z" />
    <glyph glyph-name="uni2076" unicode="&#x2076;" horiz-adv-x="343" 
d="M18 344zM185 344q-75 0 -121 49.5t-46 129.5q0 82 50 133t131 51q34 0 67.5 -12.5t54.5 -31.5l-58 -68q-16 15 -32.5 21t-39.5 6q-34 0 -53 -22t-22 -66q16 16 38 24.5t47 8.5q54 0 88.5 -29.5t34.5 -76.5q0 -50 -39.5 -83.5t-99.5 -33.5zM186 492q-19 0 -34 -6t-28 -19
q8 -19 22.5 -30t33.5 -11q21 0 35 9.5t14 23.5q0 15 -12 24t-31 9z" />
    <glyph glyph-name="uni2077" unicode="&#x2077;" horiz-adv-x="329" 
d="M19 350zM62 350l142 266h-185v84h298v-71l-137 -279h-118z" />
    <glyph glyph-name="uni2078" unicode="&#x2078;" horiz-adv-x="340" 
d="M22 344zM170 344q-66 0 -107 29.5t-41 77.5q0 25 13.5 44.5t35.5 31.5q-18 13 -29 32t-11 41q0 45 39.5 75.5t98.5 30.5q60 0 100 -30.5t40 -75.5q0 -22 -11 -41t-29 -32q22 -12 35.5 -31.5t13.5 -44.5q0 -48 -41 -77.5t-107 -29.5zM170 560q18 0 30.5 9.5t12.5 23.5
t-12 23.5t-31 9.5t-31 -9.5t-12 -23.5t12 -23.5t31 -9.5zM170 424q22 0 36 9t14 24t-14 24t-36 9t-36 -9t-14 -24t14 -24t36 -9z" />
    <glyph glyph-name="uni2079" unicode="&#x2079;" horiz-adv-x="343" 
d="M19 344zM158 707q75 0 121 -49.5t46 -129.5q0 -82 -50 -133t-131 -51q-34 0 -67.5 12.5t-54.5 31.5l58 68q16 -15 32.5 -21t39.5 -6q34 0 53 22t22 66q-16 -16 -38 -24.5t-47 -8.5q-54 0 -88.5 29.5t-34.5 76.5q0 50 39.5 83.5t99.5 33.5zM157 559q19 0 34 6t28 19
q-8 19 -22.5 30t-33.5 11q-21 0 -35 -9.5t-14 -23.5q0 -15 12 -24t31 -9z" />
    <glyph glyph-name="uni2080" unicode="&#x2080;" horiz-adv-x="367" 
d="M184 -5q-75 0 -119.5 49.5t-44.5 131.5q0 81 45 130.5t119 49.5t119 -49.5t45 -130.5q0 -82 -44.5 -131.5t-119.5 -49.5zM184 79q33 0 51.5 25.5t18.5 71.5q0 44 -19 70t-51 26t-50.5 -26t-18.5 -70q0 -46 18 -71.5t51 -25.5z" />
    <glyph glyph-name="uni2081" unicode="&#x2081;" horiz-adv-x="207" 
d="M190 350v-350h-98v252l-77 -30v83l114 45h61z" />
    <glyph glyph-name="uni2082" unicode="&#x2082;" horiz-adv-x="313" 
d="M27 0v69l143 119q13 10 20.5 22t7.5 24q0 16 -13.5 27t-34.5 11q-24 0 -45 -10.5t-46 -32.5l-54 64q33 30 71 45.5t78 16.5q62 -1 100.5 -32.5t38.5 -82.5q0 -30 -15.5 -57t-47.5 -52l-60 -50h125v-81h-268z" />
    <glyph glyph-name="uni2083" unicode="&#x2083;" horiz-adv-x="335" 
d="M314 100q0 -46 -43 -75.5t-109 -29.5q-45 0 -84.5 15.5t-63.5 43.5l66 60q19 -21 36 -28.5t45 -7.5q25 0 39.5 8.5t14.5 21.5q0 10 -11.5 16t-33.5 6h-35v77h24q22 0 35.5 9.5t13.5 24.5q0 13 -13 21.5t-34 8.5q-24 0 -40.5 -8.5t-38.5 -30.5l-66 59q26 29 66.5 47
t82.5 18q63 0 102 -28t39 -74q0 -25 -12 -46t-33 -35q25 -10 39 -29t14 -44z" />
    <glyph glyph-name="uni2084" unicode="&#x2084;" horiz-adv-x="367" 
d="M315 350v-198h44v-80h-44v-72h-98v72h-196v79l179 199h115zM130 152h87v95z" />
    <glyph glyph-name="uni2085" unicode="&#x2085;" horiz-adv-x="330" 
d="M38 158l9 192h245v-81h-167l-2 -51q14 4 27 6t28 2q61 0 97.5 -30.5t36.5 -80.5q0 -54 -43.5 -87.5t-112.5 -33.5q-39 0 -74 12.5t-62 34.5l58 68q22 -17 40.5 -24.5t40.5 -7.5q25 0 39 10t14 27q0 16 -16 26.5t-41 10.5q-11 0 -25 -3t-26 -10z" />
    <glyph glyph-name="uni2086" unicode="&#x2086;" horiz-adv-x="343" 
d="M185 -6q-75 0 -121 49.5t-46 129.5q0 82 50 133t131 51q34 0 67.5 -12.5t54.5 -31.5l-58 -68q-16 15 -32.5 21t-39.5 6q-34 0 -53 -22t-22 -66q16 16 38 24.5t47 8.5q54 0 88.5 -29.5t34.5 -76.5q0 -50 -39.5 -83.5t-99.5 -33.5zM186 142q-19 0 -34 -6t-28 -19
q8 -19 22.5 -30t33.5 -11q21 0 35 9.5t14 23.5q0 15 -12 24t-31 9z" />
    <glyph glyph-name="uni2087" unicode="&#x2087;" horiz-adv-x="329" 
d="M62 0l142 266h-185v84h298v-71l-137 -279h-118z" />
    <glyph glyph-name="uni2088" unicode="&#x2088;" horiz-adv-x="340" 
d="M170 -6q-66 0 -107 29.5t-41 77.5q0 25 13.5 44.5t35.5 31.5q-18 13 -29 32t-11 41q0 45 39.5 75.5t98.5 30.5q60 0 100 -30.5t40 -75.5q0 -22 -11 -41t-29 -32q22 -12 35.5 -31.5t13.5 -44.5q0 -48 -41 -77.5t-107 -29.5zM170 210q18 0 30.5 9.5t12.5 23.5t-12 23.5
t-31 9.5t-31 -9.5t-12 -23.5t12 -23.5t31 -9.5zM170 74q22 0 36 9t14 24t-14 24t-36 9t-36 -9t-14 -24t14 -24t36 -9z" />
    <glyph glyph-name="uni2089" unicode="&#x2089;" horiz-adv-x="343" 
d="M158 357q75 0 121 -49.5t46 -129.5q0 -82 -50 -133t-131 -51q-34 0 -67.5 12.5t-54.5 31.5l58 68q16 -15 32.5 -21t39.5 -6q34 0 53 22t22 66q-16 -16 -38 -24.5t-47 -8.5q-54 0 -88.5 29.5t-34.5 76.5q0 50 39.5 83.5t99.5 33.5zM157 209q19 0 34 6t28 19
q-8 19 -22.5 30t-33.5 11q-21 0 -35 -9.5t-14 -23.5q0 -15 12 -24t31 -9z" />
    <glyph glyph-name="fraction" unicode="&#x2044;" horiz-adv-x="577" 
d="M131 0h-118l397 700h119z" />
    <glyph glyph-name="onehalf" unicode="&#xbd;" horiz-adv-x="715" 
d="M15 0zM15 350zM190 700v-350h-98v252l-77 -30v83l114 45h61zM177 0h-118l397 700h119zM429 0v69l143 119q13 10 20.5 22t7.5 24q0 16 -13.5 27t-34.5 11q-24 0 -45 -10.5t-46 -32.5l-54 64q33 30 71 45.5t78 16.5q62 -1 100.5 -32.5t38.5 -82.5q0 -30 -15.5 -57
t-47.5 -52l-60 -50h125v-81h-268z" />
    <glyph glyph-name="onequarter" unicode="&#xbc;" horiz-adv-x="690" 
d="M15 0zM638 350v-198h44v-80h-44v-72h-98v72h-196v79l179 199h115zM453 152h87v95zM15 350zM190 700v-350h-98v252l-77 -30v83l114 45h61zM177 0h-118l397 700h119z" />
    <glyph glyph-name="threequarters" unicode="&#xbe;" horiz-adv-x="783" 
d="M14 0zM14 345zM314 450q0 -46 -43 -75.5t-109 -29.5q-45 0 -84.5 15.5t-63.5 43.5l66 60q19 -21 36 -28.5t45 -7.5q25 0 39.5 8.5t14.5 21.5q0 10 -11.5 16t-33.5 6h-35v77h24q22 0 35.5 9.5t13.5 24.5q0 13 -13 21.5t-34 8.5q-24 0 -40.5 -8.5t-38.5 -30.5l-66 59
q26 29 66.5 47t82.5 18q63 0 102 -28t39 -74q0 -25 -12 -46t-33 -35q25 -10 39 -29t14 -44zM731 350v-198h44v-80h-44v-72h-98v72h-196v79l179 199h115zM546 152h87v95zM270 0h-118l397 700h119z" />
    <glyph glyph-name="percent" unicode="%" horiz-adv-x="814" 
d="M20 0zM20 345zM184 345q-75 0 -119.5 49.5t-44.5 131.5q0 81 45 130.5t119 49.5t119 -49.5t45 -130.5q0 -82 -44.5 -131.5t-119.5 -49.5zM184 429q33 0 51.5 25.5t18.5 71.5q0 44 -19 70t-51 26t-50.5 -26t-18.5 -70q0 -46 18 -71.5t51 -25.5zM261 0h-118l397 700h119z
M630 -5q-75 0 -119.5 49.5t-44.5 131.5q0 81 45 130.5t119 49.5t119 -49.5t45 -130.5q0 -82 -44.5 -131.5t-119.5 -49.5zM630 79q33 0 51.5 25.5t18.5 71.5q0 44 -19 70t-51 26t-50.5 -26t-18.5 -70q0 -46 18 -71.5t51 -25.5z" />
    <glyph glyph-name="perthousand" unicode="&#x2030;" horiz-adv-x="1173" 
d="M20 0zM20 345zM184 345q-75 0 -119.5 49.5t-44.5 131.5q0 81 45 130.5t119 49.5t119 -49.5t45 -130.5q0 -82 -44.5 -131.5t-119.5 -49.5zM184 429q33 0 51.5 25.5t18.5 71.5q0 44 -19 70t-51 26t-50.5 -26t-18.5 -70q0 -46 18 -71.5t51 -25.5zM261 0h-118l397 700h119z
M630 -5q-75 0 -119.5 49.5t-44.5 131.5q0 81 45 130.5t119 49.5t119 -49.5t45 -130.5q0 -82 -44.5 -131.5t-119.5 -49.5zM630 79q33 0 51.5 25.5t18.5 71.5q0 44 -19 70t-51 26t-50.5 -26t-18.5 -70q0 -46 18 -71.5t51 -25.5zM989 -5q-75 0 -119.5 49.5t-44.5 131.5
q0 81 45 130.5t119 49.5t119 -49.5t45 -130.5q0 -82 -44.5 -131.5t-119.5 -49.5zM989 79q33 0 51.5 25.5t18.5 71.5q0 44 -19 70t-51 26t-50.5 -26t-18.5 -70q0 -46 18 -71.5t51 -25.5z" />
    <glyph glyph-name="plus" unicode="+" horiz-adv-x="560" 
d="M343 123h-125v174h-175v124h175v170h125v-170h174v-124h-174v-174z" />
    <glyph glyph-name="minus" unicode="&#x2212;" horiz-adv-x="560" 
d="M517 421v-124h-474v124h474z" />
    <glyph glyph-name="plusminus" unicode="&#xb1;" horiz-adv-x="560" 
d="M343 209h-125v150h-175v123h175v147h125v-147h174v-123h-174v-150zM517 123v-124h-474v124h474z" />
    <glyph glyph-name="multiply" unicode="&#xd7;" horiz-adv-x="541" 
d="M122 133l-75 75l148 150l-149 151l77 77l148 -150l148 149l75 -75l-148 -150l149 -151l-77 -77l-148 150z" />
    <glyph glyph-name="divide" unicode="&#xf7;" horiz-adv-x="560" 
d="M280 500q-38 0 -65.5 27.5t-27.5 65.5t27.5 65.5t65.5 27.5t65.5 -27.5t27.5 -65.5t-27.5 -65.5t-65.5 -27.5zM43 297v124h474v-124h-474zM280 32q-38 0 -65.5 27.5t-27.5 65.5t27.5 65.5t65.5 27.5t65.5 -27.5t27.5 -65.5t-27.5 -65.5t-65.5 -27.5z" />
    <glyph glyph-name="equal" unicode="=" horiz-adv-x="560" 
d="M43 189zM517 313v-124h-474v124h474zM517 515v-124h-474v124h474z" />
    <glyph glyph-name="notequal" unicode="&#x2260;" horiz-adv-x="555" 
d="M35 91l66 98h-58v124h141l53 78h-194v124h277l65 96h135l-64 -96h61v-124h-145l-52 -78h197v-124h-280l-66 -98h-136z" />
    <glyph glyph-name="less" unicode="&#x3c;" horiz-adv-x="541" 
d="M400 43l-356 304l357 305l82 -93l-255 -210l257 -211z" />
    <glyph glyph-name="greater" unicode="&#x3e;" horiz-adv-x="541" 
d="M141 652l356 -304l-357 -305l-82 93l255 210l-257 211z" />
    <glyph glyph-name="degree" unicode="&#xb0;" horiz-adv-x="370" 
d="M185 416q-61 0 -104 43.5t-43 105.5q0 60 43 102.5t104 42.5q60 0 103 -42.5t43 -102.5q0 -61 -43 -105t-103 -44zM185 499q25 0 43.5 19t18.5 47q0 25 -18.5 43.5t-43.5 18.5q-26 0 -44.5 -18.5t-18.5 -43.5q0 -27 18.5 -46.5t44.5 -19.5z" />
    <glyph glyph-name="uni00A4" unicode="&#xa4;" horiz-adv-x="686" 
d="M95 39l-75 75l95 96q-23 32 -36 71.5t-13 82.5t13 82.5t35 71.5l-95 97l77 77l98 -99q32 19 70 30t79 11q42 0 80 -11t70 -31l99 99l75 -75l-96 -97q23 -32 36 -72t13 -83t-12.5 -82t-35.5 -71l96 -96l-77 -77l-98 99q-32 -20 -70 -31t-80 -11t-80.5 11t-70.5 31z
M343 230q54 0 91.5 39t37.5 95q0 57 -37.5 96t-91.5 39t-91.5 -39t-37.5 -96q0 -56 37.5 -95t91.5 -39z" />
    <glyph glyph-name="uni00A6" unicode="&#xa6;" horiz-adv-x="344" 
d="M248 283h-151v417h151v-417zM97 -214v417h151v-417h-151z" />
    <glyph glyph-name="uni00AC" unicode="&#xac;" horiz-adv-x="563" 
d="M38 354h487v-354h-162v219h-325v135z" />
    <glyph glyph-name="uni00AD" unicode="&#xad;" horiz-adv-x="463" 
d="M38 219zM38 354h387v-135h-387v135z" />
    <glyph glyph-name="uni00B5" unicode="&#xb5;" 
d="M208 529v-304q0 -43 26.5 -69.5t69.5 -26.5q31 0 55 11t40 31v358h162v-529h-162v36q-29 -22 -65.5 -34t-76.5 -12q-13 0 -25 1.5t-24 3.5v-206h-162v740h162z" />
    <glyph glyph-name="uni02BB" unicode="&#x2bb;" horiz-adv-x="258" 
d="M176 466h-167l119 284h121z" />
    <glyph glyph-name="uni02BC" unicode="&#x2bc;" horiz-adv-x="258" 
d="M20 466zM93 750h167l-119 -284h-121z" />
    <glyph glyph-name="uni2032" unicode="&#x2032;" horiz-adv-x="258" 
d="M20 466zM93 750h167l-119 -284h-121z" />
    <glyph glyph-name="uni2033" unicode="&#x2033;" horiz-adv-x="472" 
d="M20 466zM307 750h167l-119 -284h-121zM93 750h167l-119 -284h-121z" />
    <glyph glyph-name="uni2191" unicode="&#x2191;" horiz-adv-x="659" 
d="M254 0v476l-136 -165l-93 82l305 357l304 -356l-95 -85l-134 163v-472h-151z" />
    <glyph glyph-name="uni2193" unicode="&#x2193;" horiz-adv-x="659" 
d="M405 700v-476l136 165l93 -82l-305 -357l-304 356l95 85l134 -163v472h151z" />
    <glyph glyph-name="uni2215" unicode="&#x2215;" horiz-adv-x="577" 
d="M131 0h-118l397 700h119z" />
    <glyph glyph-name="uniFEFF" unicode="&#xfeff;" horiz-adv-x="0" 
 />
    <glyph glyph-name="uniFFFD" unicode="&#xfffd;" horiz-adv-x="990" 
d="M495 -145l-495 495l495 495l495 -495zM590 340q53 36 73.5 65.5t20.5 71.5q0 61 -52.5 102.5t-130.5 41.5q-69 0 -123.5 -35t-75.5 -92l98 -37q11 29 37.5 46t59.5 17q30 0 49.5 -14.5t19.5 -36.5q0 -12 -9.5 -25t-28.5 -26l-40 -30q-35 -27 -47 -56t-9 -81h101
q-1 28 7.5 44.5t30.5 31.5zM483 219q-29 0 -49.5 -21t-20.5 -49t20.5 -49t49.5 -21q28 0 48.5 21t20.5 49t-20.5 49t-48.5 21z" />
    <glyph glyph-name=".ttfautohint" horiz-adv-x="990" 
d="M0 0z" />
    </font>
</defs>
</svg>
