<?xml version="1.0" standalone="no"?>
<!DOCTYPE svg PUBLIC "-//W3C//DTD SVG 1.1//EN" "http://www.w3.org/Graphics/SVG/1.1/DTD/svg11.dtd" >
<svg xmlns="http://www.w3.org/2000/svg" xmlns:xlink="http://www.w3.org/1999/xlink" version="1.1">
<metadata>
Created by FontForge 20170924 at Wed Jul 10 05:23:28 2019
 By www-data
Copyright 2019 The Red Hat Project Authors (https://github.com/RedHatOfficial/RedHatFont)
</metadata>
<defs>
<font id="RedHatDisplay-Bold" horiz-adv-x="593" >
  <font-face 
    font-family="Red Hat Display"
    font-weight="700"
    font-stretch="normal"
    units-per-em="1000"
    panose-1="2 1 8 3 4 2 1 6 3 3"
    ascent="800"
    descent="-200"
    x-height="521"
    cap-height="700"
    bbox="-71 -286 1126 1006"
    underline-thickness="50"
    underline-position="-125"
    unicode-range="U+000D-FFFD"
  />
<missing-glyph horiz-adv-x="514" 
d="M60 -100v850h394v-850h-394z" />
    <glyph glyph-name=".notdef" horiz-adv-x="514" 
d="M60 -100v850h394v-850h-394z" />
    <glyph glyph-name="NULL" horiz-adv-x="201" 
 />
    <glyph glyph-name="NULL" horiz-adv-x="201" 
 />
    <glyph glyph-name="CR" unicode="&#xd;" horiz-adv-x="201" 
 />
    <glyph glyph-name="space" unicode=" " horiz-adv-x="201" 
 />
    <glyph glyph-name="nbspace" unicode="&#xa0;" horiz-adv-x="201" 
 />
    <glyph glyph-name="A" unicode="A" horiz-adv-x="732" 
d="M-4 0l288 700h168l284 -700h-157l-71 184h-289l-72 -184h-151zM264 300h200l-99 258z" />
    <glyph glyph-name="B" unicode="B" horiz-adv-x="691" 
d="M63 700h329q105 0 171 -53.5t66 -138.5q0 -46 -23 -84t-63 -63q50 -24 80 -65.5t30 -92.5q0 -91 -67.5 -147t-177.5 -56h-345v700zM383 580h-175v-166h175q46 0 74 22.5t28 60.5t-28 60.5t-74 22.5zM397 120q50 0 80 24.5t30 66.5q0 40 -30 65t-80 25h-189v-181h189z" />
    <glyph glyph-name="C" unicode="C" horiz-adv-x="718" 
d="M413 124q55 0 103 23t85 66l95 -94q-50 -59 -127.5 -94t-159.5 -35q-79 0 -147.5 28t-118.5 76t-78.5 114t-28.5 142t29 142.5t79 114.5t118.5 76t146.5 28q84 0 163 -35.5t128 -95.5l-98 -97q-37 46 -87 70.5t-106 24.5q-47 0 -88.5 -17.5t-71.5 -48t-47 -72t-17 -90.5
q0 -48 17.5 -89.5t48 -71.5t72 -47.5t90.5 -17.5z" />
    <glyph glyph-name="D" unicode="D" horiz-adv-x="738" 
d="M63 0v700h269q78 0 146 -27t117.5 -74t78 -112t28.5 -139q0 -73 -28.5 -137t-78 -110.5t-117.5 -73.5t-146 -27h-269zM331 571h-123v-442h123q46 0 86.5 17t70.5 46.5t47 69.5t17 86q0 47 -17 88t-47 71t-70.5 47t-86.5 17z" />
    <glyph glyph-name="E" unicode="E" horiz-adv-x="645" 
d="M63 0v700h538v-126h-393v-160h259v-122h-259v-166h397v-126h-542z" />
    <glyph glyph-name="F" unicode="F" horiz-adv-x="639" 
d="M63 0v700h541v-126h-396v-165h263v-122h-263v-287h-145z" />
    <glyph glyph-name="G" unicode="G" horiz-adv-x="794" 
d="M758 349q0 -77 -26.5 -143.5t-73 -114t-111.5 -75t-140 -27.5q-78 0 -146 28t-117.5 76.5t-78.5 114.5t-29 142t28.5 142t78 114.5t117.5 76.5t145 28q87 0 164 -35t127 -96l-101 -93q-37 44 -85.5 67.5t-104.5 23.5q-47 0 -87.5 -17.5t-70 -48t-46 -72t-16.5 -90.5
t17 -91t47 -72.5t71.5 -48t88.5 -17.5q74 0 127.5 41t66.5 105h-207v126h362v-44z" />
    <glyph glyph-name="H" unicode="H" horiz-adv-x="739" 
d="M63 0v700h145v-281h322v281h145v-700h-145v286h-322v-286h-145z" />
    <glyph glyph-name="I" unicode="I" horiz-adv-x="272" 
d="M63 0v700h145v-700h-145z" />
    <glyph glyph-name="J" unicode="J" horiz-adv-x="642" 
d="M589 272q0 -63 -21 -115.5t-58.5 -89.5t-91 -57t-118.5 -20q-104 0 -178 53t-105 152l134 51q22 -63 59 -94t91 -31q64 0 103.5 43t39.5 112v424h145v-428z" />
    <glyph glyph-name="K" unicode="K" horiz-adv-x="697" 
d="M63 0v700h145v-314l306 314h177l-338 -333l354 -367h-194l-305 328v-328h-145z" />
    <glyph glyph-name="L" unicode="L" horiz-adv-x="628" 
d="M63 0v700h145v-572h383v-128h-528z" />
    <glyph glyph-name="M" unicode="M" horiz-adv-x="882" 
d="M439 50l-242 465v-515h-134v700h186l192 -376l192 376h186v-700h-137v514z" />
    <glyph glyph-name="N" unicode="N" horiz-adv-x="749" 
d="M63 700h138l348 -453v453h136v-700h-128l-357 468v-468h-137v700z" />
    <glyph glyph-name="O" unicode="O" horiz-adv-x="813" 
d="M777 350q0 -75 -29 -141.5t-78.5 -115t-117.5 -76.5t-146 -28q-77 0 -145 28t-117.5 76.5t-78.5 115t-29 141.5t29 141.5t78.5 115t117.5 76.5t145 28q78 0 146 -28t117.5 -76.5t78.5 -115t29 -141.5zM628 350q0 49 -17 90.5t-46.5 72t-70.5 48t-88 17.5t-87.5 -17.5
t-70 -48t-46.5 -72t-17 -90.5q0 -48 17 -90t46.5 -72.5t70 -48t87.5 -17.5t88 17.5t70.5 48t46.5 72.5t17 90z" />
    <glyph glyph-name="P" unicode="P" horiz-adv-x="681" 
d="M63 0v700h351q51 0 94.5 -16.5t74.5 -45.5t48.5 -69.5t17.5 -88.5q0 -47 -17.5 -86.5t-49 -68.5t-74.5 -45t-94 -16h-206v-264h-145zM398 575h-190v-191h190q47 0 75.5 26t28.5 69t-28.5 69.5t-75.5 26.5z" />
    <glyph glyph-name="Q" unicode="Q" horiz-adv-x="813" 
d="M777 350q0 -75 -28.5 -140.5t-78.5 -114.5l70 -87l-127 -42l-46 58q-37 -17 -77.5 -26t-83.5 -9q-77 0 -145 28t-117.5 76.5t-78.5 115t-29 141.5t29 141.5t78.5 115t117.5 76.5t145 28q78 0 146 -28t117.5 -76.5t78.5 -115t29 -141.5zM528 272l53 -65q22 28 34.5 65
t12.5 78q0 49 -17 90.5t-46.5 72t-70.5 48t-88 17.5t-87.5 -17.5t-70 -48t-46.5 -72t-17 -90.5q0 -48 17 -90t46.5 -72.5t70 -48t87.5 -17.5q19 0 37.5 3t34.5 9l-77 96z" />
    <glyph glyph-name="R" unicode="R" horiz-adv-x="679" 
d="M63 0v700h342q53 0 97.5 -16t76.5 -44.5t50 -68.5t18 -88q0 -66 -37.5 -118t-99.5 -77l155 -288h-162l-137 268h-158v-268h-145zM392 575h-184v-188h184q49 0 78.5 26t29.5 68t-29.5 68t-78.5 26z" />
    <glyph glyph-name="S" unicode="S" horiz-adv-x="632" 
d="M3 111l83 104q61 -53 117.5 -77.5t119.5 -24.5q65 0 104 24t39 64q0 36 -26.5 56t-88.5 30l-139 24q-90 15 -136.5 63t-46.5 124q0 98 74.5 155t201.5 57q76 0 153.5 -26t135.5 -72l-78 -108q-56 43 -110 63.5t-111 20.5q-58 0 -93 -21.5t-35 -57.5q0 -32 23 -50t77 -26
l132 -22q104 -17 156.5 -66.5t52.5 -130.5q0 -102 -80.5 -163t-214.5 -61q-84 0 -165.5 32t-144.5 89z" />
    <glyph glyph-name="T" unicode="T" horiz-adv-x="652" 
d="M18 572v128h616v-128h-235v-572h-145v572h-236z" />
    <glyph glyph-name="U" unicode="U" horiz-adv-x="725" 
d="M672 303q0 -71 -22 -129.5t-62.5 -99t-98 -62.5t-127.5 -22q-71 0 -128.5 22t-97.5 62.5t-62 98.5t-22 130v397h145v-397q0 -81 45.5 -130t120.5 -49t119.5 49t44.5 130v397h145v-397z" />
    <glyph glyph-name="V" unicode="V" horiz-adv-x="732" 
d="M280 0l-284 700h157l214 -553l219 553h150l-288 -700h-168z" />
    <glyph glyph-name="W" unicode="W" horiz-adv-x="944" 
d="M333 0h-152l-155 700h149l95 -475l137 475h136l136 -473l95 473h144l-155 -700h-152l-139 489z" />
    <glyph glyph-name="X" unicode="X" horiz-adv-x="699" 
d="M164 0h-167l266 362l-252 338h173l166 -230l165 230h167l-249 -338l270 -362h-173l-183 255z" />
    <glyph glyph-name="Y" unicode="Y" horiz-adv-x="706" 
d="M280 0v268l-286 432h167l196 -304l197 304h158l-287 -433v-267h-145z" />
    <glyph glyph-name="Z" unicode="Z" horiz-adv-x="617" 
d="M21 0v99l386 475h-383v126h572v-99l-386 -475h390v-126h-579z" />
    <glyph glyph-name="Aacute" unicode="&#xc1;" horiz-adv-x="732" 
d="M0 0zM-4 0l288 700h168l284 -700h-157l-71 184h-289l-72 -184h-151zM264 300h200l-99 258zM387 917h156l-135 -130h-111z" />
    <glyph glyph-name="Abreve" unicode="&#x102;" horiz-adv-x="732" 
d="M0 0zM-4 0l288 700h168l284 -700h-157l-71 184h-289l-72 -184h-151zM264 300h200l-99 258zM366 856q34 0 57 20t35 60l84 -22q-16 -64 -62 -99.5t-114 -35.5q-67 0 -113 35.5t-62 99.5l84 22q13 -40 35.5 -60t55.5 -20z" />
    <glyph glyph-name="Acircumflex" unicode="&#xc2;" horiz-adv-x="732" 
d="M0 0zM-4 0l288 700h168l284 -700h-157l-71 184h-289l-72 -184h-151zM264 300h200l-99 258zM440 784l-74 74l-74 -74h-110l115 136h140l115 -136h-112z" />
    <glyph glyph-name="Adieresis" unicode="&#xc4;" horiz-adv-x="732" 
d="M0 0zM-4 0l288 700h168l284 -700h-157l-71 184h-289l-72 -184h-151zM264 300h200l-99 258zM257 783q-31 0 -53 21t-22 52t21.5 51.5t53.5 20.5t53.5 -20.5t21.5 -51.5t-22 -52t-53 -21zM476 783q-32 0 -53.5 21t-21.5 52t21 51.5t54 20.5q32 0 53 -20.5t21 -51.5
t-21.5 -52t-52.5 -21z" />
    <glyph glyph-name="AE" unicode="&#xc6;" horiz-adv-x="982" 
d="M-4 0l288 700h658v-126h-437l62 -160h247v-122h-199l64 -166h263v-126h-363l-71 184h-289l-72 -184h-151zM264 300h200l-99 258z" />
    <glyph glyph-name="Agrave" unicode="&#xc0;" horiz-adv-x="732" 
d="M0 0zM-4 0l288 700h168l284 -700h-157l-71 184h-289l-72 -184h-151zM264 300h200l-99 258zM351 917l88 -130h-111l-135 130h158z" />
    <glyph glyph-name="Amacron" unicode="&#x100;" horiz-adv-x="732" 
d="M0 0zM-4 0l288 700h168l284 -700h-157l-71 184h-289l-72 -184h-151zM264 300h200l-99 258zM530 892v-90h-320v90h320z" />
    <glyph glyph-name="Aogonek" unicode="&#x104;" horiz-adv-x="732" 
d="M-4 0l288 700h168l284 -700q-46 -28 -68 -53.5t-22 -51.5q0 -21 13.5 -32.5t36.5 -11.5q10 0 21 3t19 9l19 -62q-17 -10 -39 -16t-44 -6q-48 0 -77 25.5t-29 66.5q0 36 22 67t70 62h-79l-71 184h-289l-72 -184h-151zM264 300h200l-99 258z" />
    <glyph glyph-name="Aring" unicode="&#xc5;" horiz-adv-x="732" 
d="M0 0zM-4 0l288 700h168l284 -700h-157l-71 184h-289l-72 -184h-151zM264 300h200l-99 258zM366 763q-51 0 -87 36t-36 87q0 50 36 85t87 35t87.5 -35t36.5 -85q0 -51 -36.5 -87t-87.5 -36zM366 822q26 0 43.5 18.5t17.5 45.5q0 25 -18 43t-43 18t-42.5 -18t-17.5 -43
q0 -28 17.5 -46t42.5 -18z" />
    <glyph glyph-name="Atilde" unicode="&#xc3;" horiz-adv-x="732" 
d="M0 0zM-4 0l288 700h168l284 -700h-157l-71 184h-289l-72 -184h-151zM264 300h200l-99 258zM259 776l-84 18q13 61 41.5 91t72.5 30q21 0 41.5 -8t39 -17t35.5 -17t31 -8q16 0 26 12t17 42l83 -18q-13 -61 -41.5 -91.5t-72.5 -30.5q-20 0 -40 8t-38.5 17t-36 17t-32.5 8
q-16 0 -25.5 -12.5t-16.5 -40.5z" />
    <glyph glyph-name="Cacute" unicode="&#x106;" horiz-adv-x="718" 
d="M36 0zM413 124q55 0 103 23t85 66l95 -94q-50 -59 -127.5 -94t-159.5 -35q-79 0 -147.5 28t-118.5 76t-78.5 114t-28.5 142t29 142.5t79 114.5t118.5 76t146.5 28q84 0 163 -35.5t128 -95.5l-98 -97q-37 46 -87 70.5t-106 24.5q-47 0 -88.5 -17.5t-71.5 -48t-47 -72
t-17 -90.5q0 -48 17.5 -89.5t48 -71.5t72 -47.5t90.5 -17.5zM427 917h156l-135 -130h-111z" />
    <glyph glyph-name="Ccaron" unicode="&#x10c;" horiz-adv-x="718" 
d="M36 0zM413 124q55 0 103 23t85 66l95 -94q-50 -59 -127.5 -94t-159.5 -35q-79 0 -147.5 28t-118.5 76t-78.5 114t-28.5 142t29 142.5t79 114.5t118.5 76t146.5 28q84 0 163 -35.5t128 -95.5l-98 -97q-37 46 -87 70.5t-106 24.5q-47 0 -88.5 -17.5t-71.5 -48t-47 -72
t-17 -90.5q0 -48 17.5 -89.5t48 -71.5t72 -47.5t90.5 -17.5zM334 920l74 -73l73 73h110l-115 -135h-140l-115 135h113z" />
    <glyph glyph-name="Ccedilla" unicode="&#xc7;" horiz-adv-x="718" 
d="M413 124q55 0 103 23t85 66l95 -94q-46 -54 -114.5 -88t-143.5 -40l-11 -37q43 -4 69 -28t26 -61q0 -43 -37.5 -72t-94.5 -29q-37 0 -68.5 11.5t-56.5 33.5l45 48q18 -14 37.5 -21.5t40.5 -7.5q26 0 40 10t14 28q0 17 -14.5 27t-39.5 10h-42l26 89q-72 6 -134 36
t-106.5 77.5t-70 110.5t-25.5 134q0 76 29 142.5t79 114.5t118.5 76t146.5 28q84 0 163 -35.5t128 -95.5l-98 -97q-37 46 -87 70.5t-106 24.5q-47 0 -88.5 -17.5t-71.5 -48t-47 -72t-17 -90.5q0 -48 17.5 -89.5t48 -71.5t72 -47.5t90.5 -17.5z" />
    <glyph glyph-name="Ccircumflex" unicode="&#x108;" horiz-adv-x="718" 
d="M36 0zM413 124q55 0 103 23t85 66l95 -94q-50 -59 -127.5 -94t-159.5 -35q-79 0 -147.5 28t-118.5 76t-78.5 114t-28.5 142t29 142.5t79 114.5t118.5 76t146.5 28q84 0 163 -35.5t128 -95.5l-98 -97q-37 46 -87 70.5t-106 24.5q-47 0 -88.5 -17.5t-71.5 -48t-47 -72
t-17 -90.5q0 -48 17.5 -89.5t48 -71.5t72 -47.5t90.5 -17.5zM480 784l-74 74l-74 -74h-110l115 136h140l115 -136h-112z" />
    <glyph glyph-name="Cdotaccent" unicode="&#x10a;" horiz-adv-x="718" 
d="M36 0zM413 124q55 0 103 23t85 66l95 -94q-50 -59 -127.5 -94t-159.5 -35q-79 0 -147.5 28t-118.5 76t-78.5 114t-28.5 142t29 142.5t79 114.5t118.5 76t146.5 28q84 0 163 -35.5t128 -95.5l-98 -97q-37 46 -87 70.5t-106 24.5q-47 0 -88.5 -17.5t-71.5 -48t-47 -72
t-17 -90.5q0 -48 17.5 -89.5t48 -71.5t72 -47.5t90.5 -17.5zM407 781q-32 0 -53.5 21t-21.5 52t21.5 51.5t53.5 20.5q31 0 52.5 -20.5t21.5 -51.5t-21.5 -52t-52.5 -21z" />
    <glyph glyph-name="Dcaron" unicode="&#x10e;" horiz-adv-x="738" 
d="M63 0zM63 0v700h269q78 0 146 -27t117.5 -74t78 -112t28.5 -139q0 -73 -28.5 -137t-78 -110.5t-117.5 -73.5t-146 -27h-269zM331 571h-123v-442h123q46 0 86.5 17t70.5 46.5t47 69.5t17 86q0 47 -17 88t-47 71t-70.5 47t-86.5 17zM296 920l74 -73l73 73h110l-115 -135
h-140l-115 135h113z" />
    <glyph glyph-name="Dcroat" unicode="&#x110;" horiz-adv-x="770" 
d="M95 0v293h-78v115h78v292h269q78 0 146 -27t117.5 -74t78 -112t28.5 -139q0 -73 -28.5 -137t-78 -110.5t-117.5 -73.5t-146 -27h-269zM363 571h-123v-163h165v-115h-165v-164h123q46 0 86.5 17t70.5 46.5t47 69.5t17 86q0 47 -17 88t-47 71t-70.5 47t-86.5 17z" />
    <glyph glyph-name="Eacute" unicode="&#xc9;" horiz-adv-x="645" 
d="M63 0zM63 0v700h538v-126h-393v-160h259v-122h-259v-166h397v-126h-542zM365 917h156l-135 -130h-111z" />
    <glyph glyph-name="Ebreve" unicode="&#x114;" horiz-adv-x="645" 
d="M63 0zM63 0v700h538v-126h-393v-160h259v-122h-259v-166h397v-126h-542zM344 856q34 0 57 20t35 60l84 -22q-16 -64 -62 -99.5t-114 -35.5q-67 0 -113 35.5t-62 99.5l84 22q13 -40 35.5 -60t55.5 -20z" />
    <glyph glyph-name="Ecaron" unicode="&#x11a;" horiz-adv-x="645" 
d="M63 0zM63 0v700h538v-126h-393v-160h259v-122h-259v-166h397v-126h-542zM271 920l74 -73l73 73h110l-115 -135h-140l-115 135h113z" />
    <glyph glyph-name="Ecircumflex" unicode="&#xca;" horiz-adv-x="645" 
d="M63 0zM63 0v700h538v-126h-393v-160h259v-122h-259v-166h397v-126h-542zM418 784l-74 74l-74 -74h-110l115 136h140l115 -136h-112z" />
    <glyph glyph-name="Edieresis" unicode="&#xcb;" horiz-adv-x="645" 
d="M63 0zM63 0v700h538v-126h-393v-160h259v-122h-259v-166h397v-126h-542zM235 783q-31 0 -53 21t-22 52t21.5 51.5t53.5 20.5t53.5 -20.5t21.5 -51.5t-22 -52t-53 -21zM454 783q-32 0 -53.5 21t-21.5 52t21 51.5t54 20.5q32 0 53 -20.5t21 -51.5t-21.5 -52t-52.5 -21z" />
    <glyph glyph-name="Edotaccent" unicode="&#x116;" horiz-adv-x="645" 
d="M63 0zM63 0v700h538v-126h-393v-160h259v-122h-259v-166h397v-126h-542zM345 781q-32 0 -53.5 21t-21.5 52t21.5 51.5t53.5 20.5q31 0 52.5 -20.5t21.5 -51.5t-21.5 -52t-52.5 -21z" />
    <glyph glyph-name="Egrave" unicode="&#xc8;" horiz-adv-x="645" 
d="M63 0zM63 0v700h538v-126h-393v-160h259v-122h-259v-166h397v-126h-542zM329 917l88 -130h-111l-135 130h158z" />
    <glyph glyph-name="Emacron" unicode="&#x112;" horiz-adv-x="645" 
d="M63 0zM63 0v700h538v-126h-393v-160h259v-122h-259v-166h397v-126h-542zM508 892v-90h-320v90h320z" />
    <glyph glyph-name="Eng" unicode="&#x14a;" horiz-adv-x="749" 
d="M549 4l-349 458v-462h-137v700h133l353 -459v459h136v-761q0 -73 -44 -113.5t-124 -40.5q-18 0 -39 2.5t-33 6.5v105q11 -2 21 -3t24 -1q30 0 44.5 12.5t14.5 40.5v56z" />
    <glyph glyph-name="Eogonek" unicode="&#x118;" horiz-adv-x="645" 
d="M63 0v700h538v-126h-393v-160h259v-122h-259v-166h397v-126q-46 -28 -68 -53.5t-22 -51.5q0 -21 13.5 -32.5t36.5 -11.5q10 0 21 3t19 9l19 -62q-17 -10 -39 -16t-44 -6q-48 0 -77 25.5t-29 66.5q0 36 22 67t70 62h-464z" />
    <glyph glyph-name="Eth" unicode="&#xd0;" horiz-adv-x="770" 
d="M95 0v293h-78v115h78v292h269q78 0 146 -27t117.5 -74t78 -112t28.5 -139q0 -73 -28.5 -137t-78 -110.5t-117.5 -73.5t-146 -27h-269zM363 571h-123v-163h165v-115h-165v-164h123q46 0 86.5 17t70.5 46.5t47 69.5t17 86q0 47 -17 88t-47 71t-70.5 47t-86.5 17z" />
    <glyph glyph-name="Gbreve" unicode="&#x11e;" horiz-adv-x="794" 
d="M36 0zM758 349q0 -77 -26.5 -143.5t-73 -114t-111.5 -75t-140 -27.5q-78 0 -146 28t-117.5 76.5t-78.5 114.5t-29 142t28.5 142t78 114.5t117.5 76.5t145 28q87 0 164 -35t127 -96l-101 -93q-37 44 -85.5 67.5t-104.5 23.5q-47 0 -87.5 -17.5t-70 -48t-46 -72
t-16.5 -90.5t17 -91t47 -72.5t71.5 -48t88.5 -17.5q74 0 127.5 41t66.5 105h-207v126h362v-44zM405 856q34 0 57 20t35 60l84 -22q-16 -64 -62 -99.5t-114 -35.5q-67 0 -113 35.5t-62 99.5l84 22q13 -40 35.5 -60t55.5 -20z" />
    <glyph glyph-name="Gcircumflex" unicode="&#x11c;" horiz-adv-x="794" 
d="M36 0zM758 349q0 -77 -26.5 -143.5t-73 -114t-111.5 -75t-140 -27.5q-78 0 -146 28t-117.5 76.5t-78.5 114.5t-29 142t28.5 142t78 114.5t117.5 76.5t145 28q87 0 164 -35t127 -96l-101 -93q-37 44 -85.5 67.5t-104.5 23.5q-47 0 -87.5 -17.5t-70 -48t-46 -72
t-16.5 -90.5t17 -91t47 -72.5t71.5 -48t88.5 -17.5q74 0 127.5 41t66.5 105h-207v126h362v-44zM479 784l-74 74l-74 -74h-110l115 136h140l115 -136h-112z" />
    <glyph glyph-name="uni0122" unicode="&#x122;" horiz-adv-x="794" 
d="M36 0zM758 349q0 -77 -26.5 -143.5t-73 -114t-111.5 -75t-140 -27.5q-78 0 -146 28t-117.5 76.5t-78.5 114.5t-29 142t28.5 142t78 114.5t117.5 76.5t145 28q87 0 164 -35t127 -96l-101 -93q-37 44 -85.5 67.5t-104.5 23.5q-47 0 -87.5 -17.5t-70 -48t-46 -72
t-16.5 -90.5t17 -91t47 -72.5t71.5 -48t88.5 -17.5q74 0 127.5 41t66.5 105h-207v126h362v-44zM347 -81h129l-81 -205h-99z" />
    <glyph glyph-name="Gdotaccent" unicode="&#x120;" horiz-adv-x="794" 
d="M36 0zM758 349q0 -77 -26.5 -143.5t-73 -114t-111.5 -75t-140 -27.5q-78 0 -146 28t-117.5 76.5t-78.5 114.5t-29 142t28.5 142t78 114.5t117.5 76.5t145 28q87 0 164 -35t127 -96l-101 -93q-37 44 -85.5 67.5t-104.5 23.5q-47 0 -87.5 -17.5t-70 -48t-46 -72
t-16.5 -90.5t17 -91t47 -72.5t71.5 -48t88.5 -17.5q74 0 127.5 41t66.5 105h-207v126h362v-44zM406 781q-32 0 -53.5 21t-21.5 52t21.5 51.5t53.5 20.5q31 0 52.5 -20.5t21.5 -51.5t-21.5 -52t-52.5 -21z" />
    <glyph glyph-name="Hbar" unicode="&#x126;" horiz-adv-x="756" 
d="M72 0v497h-62v116h62v87h145v-87h322v87h145v-87h62v-116h-62v-497h-145v286h-322v-286h-145zM217 419h322v78h-322v-78z" />
    <glyph glyph-name="Hcircumflex" unicode="&#x124;" horiz-adv-x="739" 
d="M63 0zM63 0v700h145v-281h322v281h145v-700h-145v286h-322v-286h-145zM443 784l-74 74l-74 -74h-110l115 136h140l115 -136h-112z" />
    <glyph glyph-name="Iacute" unicode="&#xcd;" horiz-adv-x="272" 
d="M63 0zM63 0v700h145v-700h-145zM156 917h156l-135 -130h-111z" />
    <glyph glyph-name="Ibreve" unicode="&#x12c;" horiz-adv-x="272" 
d="M0 0zM63 0v700h145v-700h-145zM135 856q34 0 57 20t35 60l84 -22q-16 -64 -62 -99.5t-114 -35.5q-67 0 -113 35.5t-62 99.5l84 22q13 -40 35.5 -60t55.5 -20z" />
    <glyph glyph-name="Icircumflex" unicode="&#xce;" horiz-adv-x="272" 
d="M0 0zM63 0v700h145v-700h-145zM209 784l-74 74l-74 -74h-110l115 136h140l115 -136h-112z" />
    <glyph glyph-name="Idieresis" unicode="&#xcf;" horiz-adv-x="272" 
d="M0 0zM63 0v700h145v-700h-145zM27 783q-31 0 -53 21t-22 52t21.5 51.5t53.5 20.5t53.5 -20.5t21.5 -51.5t-22 -52t-53 -21zM246 783q-32 0 -53.5 21t-21.5 52t21 51.5t54 20.5q32 0 53 -20.5t21 -51.5t-21.5 -52t-52.5 -21z" />
    <glyph glyph-name="Idotaccent" unicode="&#x130;" horiz-adv-x="272" 
d="M61 0zM63 0v700h145v-700h-145zM136 781q-32 0 -53.5 21t-21.5 52t21.5 51.5t53.5 20.5q31 0 52.5 -20.5t21.5 -51.5t-21.5 -52t-52.5 -21z" />
    <glyph glyph-name="Igrave" unicode="&#xcc;" horiz-adv-x="272" 
d="M0 0zM63 0v700h145v-700h-145zM120 917l88 -130h-111l-135 130h158z" />
    <glyph glyph-name="IJ" unicode="&#x132;" horiz-adv-x="913" 
d="M63 0zM63 0v700h145v-700h-145zM861 272q0 -63 -21 -115.5t-58.5 -89.5t-91 -57t-118.5 -20q-104 0 -178 53t-105 152l134 51q22 -63 59 -94t91 -31q64 0 103.5 43t39.5 112v424h145v-428z" />
    <glyph glyph-name="Imacron" unicode="&#x12a;" horiz-adv-x="272" 
d="M0 0zM63 0v700h145v-700h-145zM299 892v-90h-320v90h320z" />
    <glyph glyph-name="Iogonek" unicode="&#x12e;" horiz-adv-x="272" 
d="M63 0v700h145v-700q-46 -28 -68 -53.5t-22 -51.5q0 -21 13.5 -32.5t36.5 -11.5q10 0 21 3t19 9l19 -62q-17 -10 -39 -16t-44 -6q-48 0 -77 25.5t-29 66.5q0 36 22 67t70 62h-67z" />
    <glyph glyph-name="Itilde" unicode="&#x128;" horiz-adv-x="272" 
d="M0 0zM63 0v700h145v-700h-145zM29 776l-84 18q13 61 41.5 91t72.5 30q21 0 41.5 -8t39 -17t35.5 -17t31 -8q16 0 26 12t17 42l83 -18q-13 -61 -41.5 -91.5t-72.5 -30.5q-20 0 -40 8t-38.5 17t-36 17t-32.5 8q-16 0 -25.5 -12.5t-16.5 -40.5z" />
    <glyph glyph-name="Jcircumflex" unicode="&#x134;" horiz-adv-x="642" 
d="M17 0zM589 272q0 -63 -21 -115.5t-58.5 -89.5t-91 -57t-118.5 -20q-104 0 -178 53t-105 152l134 51q22 -63 59 -94t91 -31q64 0 103.5 43t39.5 112v424h145v-428zM593 784l-74 74l-74 -74h-110l115 136h140l115 -136h-112z" />
    <glyph glyph-name="uni0136" unicode="&#x136;" horiz-adv-x="697" 
d="M63 0zM63 0v700h145v-314l306 314h177l-338 -333l354 -367h-194l-305 328v-328h-145zM296 -81h129l-81 -205h-99z" />
    <glyph glyph-name="Lacute" unicode="&#x139;" horiz-adv-x="628" 
d="M63 0zM63 0v700h145v-572h383v-128h-528zM155 917h156l-135 -130h-111z" />
    <glyph glyph-name="Lcaron" unicode="&#x13d;" horiz-adv-x="623" 
d="M63 0zM63 0v700h145v-572h383v-128h-528zM405 720h133l-50 -242h-91z" />
    <glyph glyph-name="uni013B" unicode="&#x13b;" horiz-adv-x="628" 
d="M63 0zM63 0v700h145v-572h383v-128h-528zM287 -81h129l-81 -205h-99z" />
    <glyph glyph-name="Ldot" unicode="&#x13f;" horiz-adv-x="623" 
d="M63 0zM63 0v700h145v-572h383v-128h-528zM436 296q-32 0 -53.5 21t-21.5 52t21.5 51.5t53.5 20.5q31 0 52.5 -20.5t21.5 -51.5t-21.5 -52t-52.5 -21z" />
    <glyph glyph-name="Lslash" unicode="&#x141;" horiz-adv-x="648" 
d="M89 0v208l-78 -49v123l78 49v369h145v-277l177 112v-123l-177 -112v-172h383v-128h-528z" />
    <glyph glyph-name="Nacute" unicode="&#x143;" horiz-adv-x="749" 
d="M63 0zM63 700h138l348 -453v453h136v-700h-128l-357 468v-468h-137v700zM394 917h156l-135 -130h-111z" />
    <glyph glyph-name="Ncaron" unicode="&#x147;" horiz-adv-x="749" 
d="M63 0zM63 700h138l348 -453v453h136v-700h-128l-357 468v-468h-137v700zM301 920l74 -73l73 73h110l-115 -135h-140l-115 135h113z" />
    <glyph glyph-name="uni0145" unicode="&#x145;" horiz-adv-x="749" 
d="M63 0zM63 700h138l348 -453v453h136v-700h-128l-357 468v-468h-137v700zM312 -81h129l-81 -205h-99z" />
    <glyph glyph-name="Ntilde" unicode="&#xd1;" horiz-adv-x="749" 
d="M63 0zM63 700h138l348 -453v453h136v-700h-128l-357 468v-468h-137v700zM267 776l-84 18q13 61 41.5 91t72.5 30q21 0 41.5 -8t39 -17t35.5 -17t31 -8q16 0 26 12t17 42l83 -18q-13 -61 -41.5 -91.5t-72.5 -30.5q-20 0 -40 8t-38.5 17t-36 17t-32.5 8q-16 0 -25.5 -12.5
t-16.5 -40.5z" />
    <glyph glyph-name="Oacute" unicode="&#xd3;" horiz-adv-x="813" 
d="M36 0zM777 350q0 -75 -29 -141.5t-78.5 -115t-117.5 -76.5t-146 -28q-77 0 -145 28t-117.5 76.5t-78.5 115t-29 141.5t29 141.5t78.5 115t117.5 76.5t145 28q78 0 146 -28t117.5 -76.5t78.5 -115t29 -141.5zM628 350q0 49 -17 90.5t-46.5 72t-70.5 48t-88 17.5
t-87.5 -17.5t-70 -48t-46.5 -72t-17 -90.5q0 -48 17 -90t46.5 -72.5t70 -48t87.5 -17.5t88 17.5t70.5 48t46.5 72.5t17 90zM426 917h156l-135 -130h-111z" />
    <glyph glyph-name="Obreve" unicode="&#x14e;" horiz-adv-x="813" 
d="M36 0zM777 350q0 -75 -29 -141.5t-78.5 -115t-117.5 -76.5t-146 -28q-77 0 -145 28t-117.5 76.5t-78.5 115t-29 141.5t29 141.5t78.5 115t117.5 76.5t145 28q78 0 146 -28t117.5 -76.5t78.5 -115t29 -141.5zM628 350q0 49 -17 90.5t-46.5 72t-70.5 48t-88 17.5
t-87.5 -17.5t-70 -48t-46.5 -72t-17 -90.5q0 -48 17 -90t46.5 -72.5t70 -48t87.5 -17.5t88 17.5t70.5 48t46.5 72.5t17 90zM406 856q34 0 57 20t35 60l84 -22q-16 -64 -62 -99.5t-114 -35.5q-67 0 -113 35.5t-62 99.5l84 22q13 -40 35.5 -60t55.5 -20z" />
    <glyph glyph-name="Ocircumflex" unicode="&#xd4;" horiz-adv-x="813" 
d="M36 0zM777 350q0 -75 -29 -141.5t-78.5 -115t-117.5 -76.5t-146 -28q-77 0 -145 28t-117.5 76.5t-78.5 115t-29 141.5t29 141.5t78.5 115t117.5 76.5t145 28q78 0 146 -28t117.5 -76.5t78.5 -115t29 -141.5zM628 350q0 49 -17 90.5t-46.5 72t-70.5 48t-88 17.5
t-87.5 -17.5t-70 -48t-46.5 -72t-17 -90.5q0 -48 17 -90t46.5 -72.5t70 -48t87.5 -17.5t88 17.5t70.5 48t46.5 72.5t17 90zM480 784l-74 74l-74 -74h-110l115 136h140l115 -136h-112z" />
    <glyph glyph-name="Odieresis" unicode="&#xd6;" horiz-adv-x="813" 
d="M36 0zM777 350q0 -75 -29 -141.5t-78.5 -115t-117.5 -76.5t-146 -28q-77 0 -145 28t-117.5 76.5t-78.5 115t-29 141.5t29 141.5t78.5 115t117.5 76.5t145 28q78 0 146 -28t117.5 -76.5t78.5 -115t29 -141.5zM628 350q0 49 -17 90.5t-46.5 72t-70.5 48t-88 17.5
t-87.5 -17.5t-70 -48t-46.5 -72t-17 -90.5q0 -48 17 -90t46.5 -72.5t70 -48t87.5 -17.5t88 17.5t70.5 48t46.5 72.5t17 90zM297 783q-31 0 -53 21t-22 52t21.5 51.5t53.5 20.5t53.5 -20.5t21.5 -51.5t-22 -52t-53 -21zM516 783q-32 0 -53.5 21t-21.5 52t21 51.5t54 20.5
q32 0 53 -20.5t21 -51.5t-21.5 -52t-52.5 -21z" />
    <glyph glyph-name="OE" unicode="&#x152;" horiz-adv-x="1100" 
d="M400 0q-75 0 -141 27.5t-114.5 74.5t-76.5 111t-28 137t28 137t76.5 111t114.5 74.5t141 27.5h659v-126h-386q30 -34 50.5 -74.5t28.5 -85.5h183v-122h-182q-7 -46 -27.5 -89t-51.5 -77h385v-126h-659zM400 129q44 0 82.5 17t67 46.5t45 70t16.5 87.5t-16.5 87.5t-45 70
t-67 46.5t-82.5 17t-83 -17t-67 -46.5t-44.5 -70t-16.5 -87.5t16.5 -87.5t44.5 -70t67 -46.5t83 -17z" />
    <glyph glyph-name="Ograve" unicode="&#xd2;" horiz-adv-x="813" 
d="M36 0zM777 350q0 -75 -29 -141.5t-78.5 -115t-117.5 -76.5t-146 -28q-77 0 -145 28t-117.5 76.5t-78.5 115t-29 141.5t29 141.5t78.5 115t117.5 76.5t145 28q78 0 146 -28t117.5 -76.5t78.5 -115t29 -141.5zM628 350q0 49 -17 90.5t-46.5 72t-70.5 48t-88 17.5
t-87.5 -17.5t-70 -48t-46.5 -72t-17 -90.5q0 -48 17 -90t46.5 -72.5t70 -48t87.5 -17.5t88 17.5t70.5 48t46.5 72.5t17 90zM391 917l88 -130h-111l-135 130h158z" />
    <glyph glyph-name="Ohungarumlaut" unicode="&#x150;" horiz-adv-x="813" 
d="M36 0zM777 350q0 -75 -29 -141.5t-78.5 -115t-117.5 -76.5t-146 -28q-77 0 -145 28t-117.5 76.5t-78.5 115t-29 141.5t29 141.5t78.5 115t117.5 76.5t145 28q78 0 146 -28t117.5 -76.5t78.5 -115t29 -141.5zM628 350q0 49 -17 90.5t-46.5 72t-70.5 48t-88 17.5
t-87.5 -17.5t-70 -48t-46.5 -72t-17 -90.5q0 -48 17 -90t46.5 -72.5t70 -48t87.5 -17.5t88 17.5t70.5 48t46.5 72.5t17 90zM344 916h137l-132 -127h-106zM551 916h138l-142 -127h-97z" />
    <glyph glyph-name="Omacron" unicode="&#x14c;" horiz-adv-x="813" 
d="M36 0zM777 350q0 -75 -29 -141.5t-78.5 -115t-117.5 -76.5t-146 -28q-77 0 -145 28t-117.5 76.5t-78.5 115t-29 141.5t29 141.5t78.5 115t117.5 76.5t145 28q78 0 146 -28t117.5 -76.5t78.5 -115t29 -141.5zM628 350q0 49 -17 90.5t-46.5 72t-70.5 48t-88 17.5
t-87.5 -17.5t-70 -48t-46.5 -72t-17 -90.5q0 -48 17 -90t46.5 -72.5t70 -48t87.5 -17.5t88 17.5t70.5 48t46.5 72.5t17 90zM570 892v-90h-320v90h320z" />
    <glyph glyph-name="Oslash" unicode="&#xd8;" horiz-adv-x="813" 
d="M177 0h-128l85 103q-46 48 -72 111.5t-26 135.5q0 75 29 141.5t78.5 115t117.5 76.5t145 28q52 0 100 -13t89 -36l32 38h129l-82 -99q48 -48 75.5 -113t27.5 -138q0 -75 -29 -141.5t-78.5 -115t-117.5 -76.5t-146 -28q-54 0 -103 14t-92 39zM185 350q0 -38 11 -72.5
t30 -62.5l281 340q-22 11 -47.5 17t-53.5 6q-47 0 -87.5 -17.5t-70 -48t-46.5 -72t-17 -90.5zM628 350q0 40 -12 76.5t-33 64.5l-283 -342q23 -13 50 -20t56 -7q47 0 88 17.5t70.5 48t46.5 72.5t17 90z" />
    <glyph glyph-name="Otilde" unicode="&#xd5;" horiz-adv-x="813" 
d="M36 0zM777 350q0 -75 -29 -141.5t-78.5 -115t-117.5 -76.5t-146 -28q-77 0 -145 28t-117.5 76.5t-78.5 115t-29 141.5t29 141.5t78.5 115t117.5 76.5t145 28q78 0 146 -28t117.5 -76.5t78.5 -115t29 -141.5zM628 350q0 49 -17 90.5t-46.5 72t-70.5 48t-88 17.5
t-87.5 -17.5t-70 -48t-46.5 -72t-17 -90.5q0 -48 17 -90t46.5 -72.5t70 -48t87.5 -17.5t88 17.5t70.5 48t46.5 72.5t17 90zM299 776l-84 18q13 61 41.5 91t72.5 30q21 0 41.5 -8t39 -17t35.5 -17t31 -8q16 0 26 12t17 42l83 -18q-13 -61 -41.5 -91.5t-72.5 -30.5
q-20 0 -40 8t-38.5 17t-36 17t-32.5 8q-16 0 -25.5 -12.5t-16.5 -40.5z" />
    <glyph glyph-name="Racute" unicode="&#x154;" horiz-adv-x="679" 
d="M63 0zM63 0v700h342q53 0 97.5 -16t76.5 -44.5t50 -68.5t18 -88q0 -66 -37.5 -118t-99.5 -77l155 -288h-162l-137 268h-158v-268h-145zM392 575h-184v-188h184q49 0 78.5 26t29.5 68t-29.5 68t-78.5 26zM358 917h156l-135 -130h-111z" />
    <glyph glyph-name="Rcaron" unicode="&#x158;" horiz-adv-x="679" 
d="M63 0zM63 0v700h342q53 0 97.5 -16t76.5 -44.5t50 -68.5t18 -88q0 -66 -37.5 -118t-99.5 -77l155 -288h-162l-137 268h-158v-268h-145zM392 575h-184v-188h184q49 0 78.5 26t29.5 68t-29.5 68t-78.5 26zM265 920l74 -73l73 73h110l-115 -135h-140l-115 135h113z" />
    <glyph glyph-name="uni0156" unicode="&#x156;" horiz-adv-x="679" 
d="M63 0zM63 0v700h342q53 0 97.5 -16t76.5 -44.5t50 -68.5t18 -88q0 -66 -37.5 -118t-99.5 -77l155 -288h-162l-137 268h-158v-268h-145zM392 575h-184v-188h184q49 0 78.5 26t29.5 68t-29.5 68t-78.5 26zM285 -81h129l-81 -205h-99z" />
    <glyph glyph-name="Sacute" unicode="&#x15a;" horiz-adv-x="632" 
d="M3 0zM3 111l83 104q61 -53 117.5 -77.5t119.5 -24.5q65 0 104 24t39 64q0 36 -26.5 56t-88.5 30l-139 24q-90 15 -136.5 63t-46.5 124q0 98 74.5 155t201.5 57q76 0 153.5 -26t135.5 -72l-78 -108q-56 43 -110 63.5t-111 20.5q-58 0 -93 -21.5t-35 -57.5q0 -32 23 -50
t77 -26l132 -22q104 -17 156.5 -66.5t52.5 -130.5q0 -102 -80.5 -163t-214.5 -61q-84 0 -165.5 32t-144.5 89zM320 917h156l-135 -130h-111z" />
    <glyph glyph-name="Scaron" unicode="&#x160;" horiz-adv-x="632" 
d="M3 0zM3 111l83 104q61 -53 117.5 -77.5t119.5 -24.5q65 0 104 24t39 64q0 36 -26.5 56t-88.5 30l-139 24q-90 15 -136.5 63t-46.5 124q0 98 74.5 155t201.5 57q76 0 153.5 -26t135.5 -72l-78 -108q-56 43 -110 63.5t-111 20.5q-58 0 -93 -21.5t-35 -57.5q0 -32 23 -50
t77 -26l132 -22q104 -17 156.5 -66.5t52.5 -130.5q0 -102 -80.5 -163t-214.5 -61q-84 0 -165.5 32t-144.5 89zM227 920l74 -73l73 73h110l-115 -135h-140l-115 135h113z" />
    <glyph glyph-name="uni015E" unicode="&#x15e;" horiz-adv-x="632" 
d="M3 111l83 104q61 -53 117.5 -77.5t119.5 -24.5q65 0 104 24t39 64q0 36 -26.5 56t-88.5 30l-139 24q-90 15 -136.5 63t-46.5 124q0 98 74.5 155t201.5 57q76 0 153.5 -26t135.5 -72l-78 -108q-56 43 -110 63.5t-111 20.5q-58 0 -93 -21.5t-35 -57.5q0 -32 23 -50t77 -26
l132 -22q104 -17 156.5 -66.5t52.5 -130.5q0 -97 -73 -157.5t-197 -65.5l-11 -37q43 -4 69 -28t26 -61q0 -43 -37.5 -72t-94.5 -29q-37 0 -68.5 11.5t-56.5 33.5l45 48q18 -14 37.5 -21.5t40.5 -7.5q26 0 40 10t14 28q0 17 -14.5 27t-39.5 10h-42l26 89q-74 7 -144 37.5
t-125 81.5z" />
    <glyph glyph-name="Scircumflex" unicode="&#x15c;" horiz-adv-x="632" 
d="M3 0zM3 111l83 104q61 -53 117.5 -77.5t119.5 -24.5q65 0 104 24t39 64q0 36 -26.5 56t-88.5 30l-139 24q-90 15 -136.5 63t-46.5 124q0 98 74.5 155t201.5 57q76 0 153.5 -26t135.5 -72l-78 -108q-56 43 -110 63.5t-111 20.5q-58 0 -93 -21.5t-35 -57.5q0 -32 23 -50
t77 -26l132 -22q104 -17 156.5 -66.5t52.5 -130.5q0 -102 -80.5 -163t-214.5 -61q-84 0 -165.5 32t-144.5 89zM373 784l-74 74l-74 -74h-110l115 136h140l115 -136h-112z" />
    <glyph glyph-name="uni0218" unicode="&#x218;" horiz-adv-x="632" 
d="M3 0zM3 111l83 104q61 -53 117.5 -77.5t119.5 -24.5q65 0 104 24t39 64q0 36 -26.5 56t-88.5 30l-139 24q-90 15 -136.5 63t-46.5 124q0 98 74.5 155t201.5 57q76 0 153.5 -26t135.5 -72l-78 -108q-56 43 -110 63.5t-111 20.5q-58 0 -93 -21.5t-35 -57.5q0 -32 23 -50
t77 -26l132 -22q104 -17 156.5 -66.5t52.5 -130.5q0 -102 -80.5 -163t-214.5 -61q-84 0 -165.5 32t-144.5 89zM247 -81h129l-81 -205h-99z" />
    <glyph glyph-name="Tbar" unicode="&#x166;" horiz-adv-x="652" 
d="M116 395h138v177h-236v128h616v-128h-235v-177h137v-115h-137v-280h-145v280h-138v115z" />
    <glyph glyph-name="Tcaron" unicode="&#x164;" horiz-adv-x="652" 
d="M18 0zM18 572v128h616v-128h-235v-572h-145v572h-236zM253 920l74 -73l73 73h110l-115 -135h-140l-115 135h113z" />
    <glyph glyph-name="uni0162" unicode="&#x162;" horiz-adv-x="652" 
d="M18 572v128h616v-128h-235v-572h-41l-14 -46q43 -4 69 -28t26 -61q0 -43 -37.5 -72t-94.5 -29q-37 0 -68.5 11.5t-56.5 33.5l45 48q18 -14 37.5 -21.5t40.5 -7.5q26 0 40 10t14 28q0 17 -14.5 27t-39.5 10h-42l28 97h-37v572h-236z" />
    <glyph glyph-name="uni021A" unicode="&#x21a;" horiz-adv-x="652" 
d="M18 0zM18 572v128h616v-128h-235v-572h-145v572h-236zM259 -81h129l-81 -205h-99z" />
    <glyph glyph-name="Thorn" unicode="&#xde;" horiz-adv-x="679" 
d="M63 0v700h145v-130h207q50 0 92.5 -17t73 -46t48 -70t17.5 -89q0 -46 -17.5 -86t-48.5 -69t-73.5 -46t-91.5 -17h-207v-130h-145zM398 445h-190v-194h190q44 0 72.5 27t28.5 69q0 43 -28.5 71t-72.5 27z" />
    <glyph glyph-name="Uacute" unicode="&#xda;" horiz-adv-x="725" 
d="M52 0zM672 303q0 -71 -22 -129.5t-62.5 -99t-98 -62.5t-127.5 -22q-71 0 -128.5 22t-97.5 62.5t-62 98.5t-22 130v397h145v-397q0 -81 45.5 -130t120.5 -49t119.5 49t44.5 130v397h145v-397zM383 917h156l-135 -130h-111z" />
    <glyph glyph-name="Ubreve" unicode="&#x16c;" horiz-adv-x="725" 
d="M52 0zM672 303q0 -71 -22 -129.5t-62.5 -99t-98 -62.5t-127.5 -22q-71 0 -128.5 22t-97.5 62.5t-62 98.5t-22 130v397h145v-397q0 -81 45.5 -130t120.5 -49t119.5 49t44.5 130v397h145v-397zM362 856q34 0 57 20t35 60l84 -22q-16 -64 -62 -99.5t-114 -35.5
q-67 0 -113 35.5t-62 99.5l84 22q13 -40 35.5 -60t55.5 -20z" />
    <glyph glyph-name="Ucircumflex" unicode="&#xdb;" horiz-adv-x="725" 
d="M52 0zM672 303q0 -71 -22 -129.5t-62.5 -99t-98 -62.5t-127.5 -22q-71 0 -128.5 22t-97.5 62.5t-62 98.5t-22 130v397h145v-397q0 -81 45.5 -130t120.5 -49t119.5 49t44.5 130v397h145v-397zM436 784l-74 74l-74 -74h-110l115 136h140l115 -136h-112z" />
    <glyph glyph-name="Udieresis" unicode="&#xdc;" horiz-adv-x="725" 
d="M52 0zM672 303q0 -71 -22 -129.5t-62.5 -99t-98 -62.5t-127.5 -22q-71 0 -128.5 22t-97.5 62.5t-62 98.5t-22 130v397h145v-397q0 -81 45.5 -130t120.5 -49t119.5 49t44.5 130v397h145v-397zM254 783q-31 0 -53 21t-22 52t21.5 51.5t53.5 20.5t53.5 -20.5t21.5 -51.5
t-22 -52t-53 -21zM473 783q-32 0 -53.5 21t-21.5 52t21 51.5t54 20.5q32 0 53 -20.5t21 -51.5t-21.5 -52t-52.5 -21z" />
    <glyph glyph-name="Ugrave" unicode="&#xd9;" horiz-adv-x="725" 
d="M52 0zM672 303q0 -71 -22 -129.5t-62.5 -99t-98 -62.5t-127.5 -22q-71 0 -128.5 22t-97.5 62.5t-62 98.5t-22 130v397h145v-397q0 -81 45.5 -130t120.5 -49t119.5 49t44.5 130v397h145v-397zM347 917l88 -130h-111l-135 130h158z" />
    <glyph glyph-name="Uhungarumlaut" unicode="&#x170;" horiz-adv-x="725" 
d="M52 0zM672 303q0 -71 -22 -129.5t-62.5 -99t-98 -62.5t-127.5 -22q-71 0 -128.5 22t-97.5 62.5t-62 98.5t-22 130v397h145v-397q0 -81 45.5 -130t120.5 -49t119.5 49t44.5 130v397h145v-397zM301 916h137l-132 -127h-106zM508 916h138l-142 -127h-97z" />
    <glyph glyph-name="Umacron" unicode="&#x16a;" horiz-adv-x="725" 
d="M52 0zM672 303q0 -71 -22 -129.5t-62.5 -99t-98 -62.5t-127.5 -22q-71 0 -128.5 22t-97.5 62.5t-62 98.5t-22 130v397h145v-397q0 -81 45.5 -130t120.5 -49t119.5 49t44.5 130v397h145v-397zM526 892v-90h-320v90h320z" />
    <glyph glyph-name="Uogonek" unicode="&#x172;" horiz-adv-x="725" 
d="M672 303q0 -121 -62 -202t-168 -103q-45 -27 -66 -52.5t-21 -50.5q0 -21 13.5 -32.5t36.5 -11.5q10 0 21 3t19 9l19 -62q-17 -10 -39 -16t-44 -6q-48 0 -77 25.5t-29 66.5q0 33 18.5 62t58.5 57q-137 3 -218.5 87.5t-81.5 225.5v397h145v-397q0 -81 45.5 -130t120.5 -49
t119.5 49t44.5 130v397h145v-397z" />
    <glyph glyph-name="Uring" unicode="&#x16e;" horiz-adv-x="725" 
d="M52 0zM672 303q0 -71 -22 -129.5t-62.5 -99t-98 -62.5t-127.5 -22q-71 0 -128.5 22t-97.5 62.5t-62 98.5t-22 130v397h145v-397q0 -81 45.5 -130t120.5 -49t119.5 49t44.5 130v397h145v-397zM362 763q-51 0 -87 36t-36 87q0 50 36 85t87 35t87.5 -35t36.5 -85
q0 -51 -36.5 -87t-87.5 -36zM362 822q26 0 43.5 18.5t17.5 45.5q0 25 -18 43t-43 18t-42.5 -18t-17.5 -43q0 -28 17.5 -46t42.5 -18z" />
    <glyph glyph-name="Utilde" unicode="&#x168;" horiz-adv-x="725" 
d="M52 0zM672 303q0 -71 -22 -129.5t-62.5 -99t-98 -62.5t-127.5 -22q-71 0 -128.5 22t-97.5 62.5t-62 98.5t-22 130v397h145v-397q0 -81 45.5 -130t120.5 -49t119.5 49t44.5 130v397h145v-397zM255 776l-84 18q13 61 41.5 91t72.5 30q21 0 41.5 -8t39 -17t35.5 -17t31 -8
q16 0 26 12t17 42l83 -18q-13 -61 -41.5 -91.5t-72.5 -30.5q-20 0 -40 8t-38.5 17t-36 17t-32.5 8q-16 0 -25.5 -12.5t-16.5 -40.5z" />
    <glyph glyph-name="Wacute" unicode="&#x1e82;" horiz-adv-x="944" 
d="M26 0zM333 0h-152l-155 700h149l95 -475l137 475h136l136 -473l95 473h144l-155 -700h-152l-139 489zM492 917h156l-135 -130h-111z" />
    <glyph glyph-name="Wdieresis" unicode="&#x1e84;" horiz-adv-x="944" 
d="M26 0zM333 0h-152l-155 700h149l95 -475l137 475h136l136 -473l95 473h144l-155 -700h-152l-139 489zM362 783q-31 0 -53 21t-22 52t21.5 51.5t53.5 20.5t53.5 -20.5t21.5 -51.5t-22 -52t-53 -21zM581 783q-32 0 -53.5 21t-21.5 52t21 51.5t54 20.5q32 0 53 -20.5
t21 -51.5t-21.5 -52t-52.5 -21z" />
    <glyph glyph-name="Wgrave" unicode="&#x1e80;" horiz-adv-x="944" 
d="M26 0zM333 0h-152l-155 700h149l95 -475l137 475h136l136 -473l95 473h144l-155 -700h-152l-139 489zM456 917l88 -130h-111l-135 130h158z" />
    <glyph glyph-name="Wcircumflex" unicode="&#x174;" horiz-adv-x="944" 
d="M26 0zM333 0h-152l-155 700h149l95 -475l137 475h136l136 -473l95 473h144l-155 -700h-152l-139 489zM545 784l-74 74l-74 -74h-110l115 136h140l115 -136h-112z" />
    <glyph glyph-name="Yacute" unicode="&#xdd;" horiz-adv-x="706" 
d="M0 0zM280 0v268l-286 432h167l196 -304l197 304h158l-287 -433v-267h-145zM373 917h156l-135 -130h-111z" />
    <glyph glyph-name="Ycircumflex" unicode="&#x176;" horiz-adv-x="706" 
d="M0 0zM280 0v268l-286 432h167l196 -304l197 304h158l-287 -433v-267h-145zM427 784l-74 74l-74 -74h-110l115 136h140l115 -136h-112z" />
    <glyph glyph-name="Ydieresis" unicode="&#x178;" horiz-adv-x="706" 
d="M0 0zM280 0v268l-286 432h167l196 -304l197 304h158l-287 -433v-267h-145zM244 783q-31 0 -53 21t-22 52t21.5 51.5t53.5 20.5t53.5 -20.5t21.5 -51.5t-22 -52t-53 -21zM463 783q-32 0 -53.5 21t-21.5 52t21 51.5t54 20.5q32 0 53 -20.5t21 -51.5t-21.5 -52t-52.5 -21z
" />
    <glyph glyph-name="Ygrave" unicode="&#x1ef2;" horiz-adv-x="706" 
d="M0 0zM280 0v268l-286 432h167l196 -304l197 304h158l-287 -433v-267h-145zM338 917l88 -130h-111l-135 130h158z" />
    <glyph glyph-name="Zacute" unicode="&#x179;" horiz-adv-x="617" 
d="M21 0zM21 0v99l386 475h-383v126h572v-99l-386 -475h390v-126h-579zM337 917h156l-135 -130h-111z" />
    <glyph glyph-name="Zcaron" unicode="&#x17d;" horiz-adv-x="617" 
d="M21 0zM21 0v99l386 475h-383v126h572v-99l-386 -475h390v-126h-579zM244 920l74 -73l73 73h110l-115 -135h-140l-115 135h113z" />
    <glyph glyph-name="Zdotaccent" unicode="&#x17b;" horiz-adv-x="617" 
d="M21 0zM21 0v99l386 475h-383v126h572v-99l-386 -475h390v-126h-579zM317 781q-32 0 -53.5 21t-21.5 52t21.5 51.5t53.5 20.5q31 0 52.5 -20.5t21.5 -51.5t-21.5 -52t-52.5 -21z" />
    <glyph glyph-name="a" unicode="a" horiz-adv-x="555" 
d="M219 -9q-84 0 -137 44.5t-53 115.5q0 74 57 116t157 42q32 0 64 -5t63 -15v37q0 45 -28 68t-82 23q-33 0 -71.5 -10.5t-87.5 -32.5l-50 101q61 28 118.5 42t113.5 14q105 0 163.5 -50.5t58.5 -142.5v-338h-135v36q-33 -23 -69.5 -34t-81.5 -11zM160 154q0 -30 26 -47.5
t69 -17.5q34 0 62.5 8.5t52.5 24.5v78q-25 10 -52.5 14.5t-57.5 4.5q-47 0 -73.5 -17.5t-26.5 -47.5z" />
    <glyph glyph-name="b" unicode="b" horiz-adv-x="632" 
d="M602 260q0 -56 -21 -105t-57 -85t-85.5 -56.5t-105.5 -20.5q-39 0 -76 11t-68 31v-35h-135v700l137 30v-250q31 23 68.5 35.5t77.5 12.5q55 0 103.5 -21t84.5 -57t56.5 -85t20.5 -105zM315 411q-37 0 -69 -12.5t-55 -36.5v-205q22 -22 54.5 -35t69.5 -13q64 0 108 43.5
t44 107.5t-44.5 107.5t-107.5 43.5z" />
    <glyph glyph-name="c" unicode="c" horiz-adv-x="532" 
d="M309 110q35 0 65.5 14t58.5 44l82 -85q-40 -44 -96 -68.5t-116 -24.5q-57 0 -107.5 21t-87 57t-57.5 85.5t-21 106.5t21 106.5t57.5 86t87 57.5t107.5 21q62 0 119 -24.5t97 -68.5l-84 -89q-28 31 -60 47t-69 16q-59 0 -99.5 -44t-40.5 -108t41.5 -107t101.5 -43z" />
    <glyph glyph-name="d" unicode="d" horiz-adv-x="632" 
d="M443 0v43q-31 -25 -69 -37.5t-79 -12.5q-55 0 -103.5 21t-84.5 57t-56.5 85t-20.5 105t21 105t57 85t85.5 56.5t105.5 20.5q38 0 74.5 -10.5t67.5 -30.5v213l137 30v-730h-135zM165 261q0 -63 44 -107t108 -44q38 0 69.5 13t54.5 37v203q-22 23 -54.5 36t-69.5 13
q-65 0 -108.5 -43.5t-43.5 -107.5z" />
    <glyph glyph-name="e" unicode="e" horiz-adv-x="586" 
d="M521 65q-48 -39 -98.5 -57t-112.5 -18q-59 0 -110.5 21t-89 57t-59 85.5t-21.5 106.5q0 56 20.5 105.5t56.5 86t85.5 57.5t105.5 21q55 0 102.5 -21.5t82 -58.5t54 -88.5t19.5 -111.5v-36h-388q14 -49 54 -79t94 -30q34 0 64 11t51 31zM295 417q-47 0 -81 -28.5
t-47 -76.5h255q-13 46 -47.5 75.5t-79.5 29.5z" />
    <glyph glyph-name="f" unicode="f" horiz-adv-x="431" 
d="M18 521h116v50q0 87 51 134t147 47q21 0 43 -2.5t38 -6.5v-115q-19 4 -33.5 6t-30.5 2q-39 0 -58.5 -17t-19.5 -51v-47h142v-115h-142v-406h-137v406h-116v115z" />
    <glyph glyph-name="g" unicode="g" horiz-adv-x="628" 
d="M294 -3q-55 0 -103.5 21t-84 57t-56 84.5t-20.5 104.5q0 55 21 103.5t57 84.5t85 56.5t105 20.5q39 0 74.5 -11t66.5 -31v34h135v-521q0 -103 -66.5 -159t-191.5 -56q-60 0 -115.5 12t-101.5 35l48 107q43 -21 84 -31.5t82 -10.5q61 0 92.5 26.5t31.5 77.5v43
q-31 -23 -67.5 -35t-75.5 -12zM165 264q0 -63 43.5 -107t106.5 -44q37 0 68 12.5t54 34.5v205q-22 22 -54 34.5t-67 12.5q-63 0 -107 -43t-44 -105z" />
    <glyph glyph-name="h" unicode="h" 
d="M54 0v700l137 30v-250q30 25 66.5 38t79.5 13q90 0 148 -58t58 -149v-324h-137v304q0 49 -29.5 79t-78.5 30q-34 0 -61.5 -13.5t-45.5 -38.5v-361h-137z" />
    <glyph glyph-name="i" unicode="i" horiz-adv-x="244" 
d="M122 583q-32 0 -55 23t-23 55t23 55t55 23t55 -23t23 -55t-23 -55t-55 -23zM191 521v-521h-137v521h137z" />
    <glyph glyph-name="j" unicode="j" horiz-adv-x="244" 
d="M122 583q-32 0 -55 23t-23 55t23 55t55 23t55 -23t23 -55t-23 -55t-55 -23zM22 -215q-19 0 -39.5 2.5t-32.5 6.5v105q11 -2 21.5 -3t23.5 -1q31 0 45 12.5t14 40.5v573h137v-581q0 -74 -44.5 -114.5t-124.5 -40.5z" />
    <glyph glyph-name="k" unicode="k" horiz-adv-x="568" 
d="M54 0v700l137 30v-429l225 220h155l-244 -239l259 -282h-175l-220 238v-238h-137z" />
    <glyph glyph-name="l" unicode="l" horiz-adv-x="244" 
d="M191 730v-730h-137v700z" />
    <glyph glyph-name="m" unicode="m" horiz-adv-x="906" 
d="M54 0v521h137v-39q28 24 62 36.5t74 12.5q50 0 90.5 -20.5t66.5 -57.5q31 38 75 58t97 20q87 0 143 -58t56 -149v-324h-137v304q0 49 -26.5 79t-71.5 30q-31 0 -56.5 -13.5t-43.5 -38.5l2 -18t1 -19v-324h-137v304q0 49 -26.5 79t-71.5 30q-31 0 -55 -12t-42 -35v-366
h-137z" />
    <glyph glyph-name="n" unicode="n" 
d="M54 0v521h137v-41q30 25 66.5 38t79.5 13q90 0 148 -58t58 -149v-324h-137v304q0 49 -29.5 79t-78.5 30q-34 0 -61.5 -13.5t-45.5 -38.5v-361h-137z" />
    <glyph glyph-name="o" unicode="o" horiz-adv-x="616" 
d="M30 260q0 57 21.5 106.5t59 86t88.5 57.5t109 21t109 -21t88.5 -57.5t59 -86t21.5 -106.5t-21.5 -106.5t-59 -85.5t-88.5 -57t-109 -21t-109 21t-88.5 57t-59 85.5t-21.5 106.5zM308 109q60 0 102 44t42 107q0 64 -42 108t-102 44t-102 -44t-42 -108q0 -63 42 -107
t102 -44z" />
    <glyph glyph-name="p" unicode="p" horiz-adv-x="632" 
d="M54 -209v730h135v-43q31 25 69 37.5t79 12.5q55 0 103.5 -21t84.5 -57t56.5 -85t20.5 -105t-21 -105t-57 -85t-85.5 -56.5t-105.5 -20.5q-38 0 -74.5 10.5t-67.5 30.5v-243h-137zM315 411q-37 0 -69 -12.5t-55 -36.5v-205q22 -22 54.5 -35t69.5 -13q64 0 108 43.5
t44 107.5t-44.5 107.5t-107.5 43.5z" />
    <glyph glyph-name="q" unicode="q" horiz-adv-x="632" 
d="M295 -7q-55 0 -103.5 21t-84.5 57t-56.5 85t-20.5 105t21 105t57 85t85.5 56.5t105.5 20.5q39 0 76 -10.5t68 -31.5v35h135v-730h-137v250q-31 -23 -68.5 -35.5t-77.5 -12.5zM165 261q0 -63 44 -107t108 -44q38 0 69.5 13t54.5 37v203q-22 23 -54.5 36t-69.5 13
q-65 0 -108.5 -43.5t-43.5 -107.5z" />
    <glyph glyph-name="r" unicode="r" horiz-adv-x="407" 
d="M54 0v521h137v-57q25 34 60.5 51.5t78.5 17.5q20 -1 33.5 -3.5t23.5 -8.5v-120q-15 7 -33 10.5t-37 3.5q-40 0 -73.5 -20t-52.5 -58v-337h-137z" />
    <glyph glyph-name="s" unicode="s" horiz-adv-x="491" 
d="M10 62l68 91q46 -30 87 -44.5t82 -14.5q46 0 73.5 15t27.5 40q0 20 -15.5 32t-49.5 17l-100 15q-77 12 -117.5 50t-40.5 101q0 75 59 120t158 45q57 0 111 -16.5t103 -48.5l-66 -88q-43 25 -82 37.5t-79 12.5q-37 0 -59.5 -14t-22.5 -37q0 -21 16.5 -32.5t54.5 -16.5
l100 -15q76 -11 117.5 -50t41.5 -99q0 -37 -17.5 -68.5t-47.5 -54.5t-72 -36t-91 -13q-71 0 -133 18.5t-106 53.5z" />
    <glyph glyph-name="t" unicode="t" horiz-adv-x="424" 
d="M125 147v259h-107v115h107v133l137 31v-164h148v-115h-148v-231q0 -37 16 -52t56 -15q19 0 36 2.5t37 9.5v-112q-22 -7 -53 -11.5t-53 -4.5q-87 0 -131.5 39.5t-44.5 115.5z" />
    <glyph glyph-name="u" unicode="u" 
d="M187 521v-303q0 -50 29.5 -80t78.5 -30q35 0 62.5 13.5t45.5 38.5v361h137v-521h-137v42q-30 -25 -67 -38.5t-80 -13.5q-90 0 -148 58.5t-58 149.5v323h137z" />
    <glyph glyph-name="v" unicode="v" horiz-adv-x="580" 
d="M224 0l-224 521h149l143 -347l142 347h146l-224 -521h-132z" />
    <glyph glyph-name="w" unicode="w" horiz-adv-x="772" 
d="M285 0h-132l-143 521h130l86 -337l104 337h115l103 -337l86 337h128l-144 -521h-131l-101 333z" />
    <glyph glyph-name="x" unicode="x" horiz-adv-x="555" 
d="M-2 0l200 265l-195 256h159l115 -155l114 155h154l-192 -254l204 -267h-160l-123 166l-123 -166h-153z" />
    <glyph glyph-name="y" unicode="y" horiz-adv-x="576" 
d="M195 -24l8 19l-203 526h151l129 -355l148 355h148l-240 -562q-40 -94 -93 -134t-138 -40q-18 0 -34.5 1.5t-26.5 4.5v118q10 -2 21 -3t27 -1q37 0 62.5 18t40.5 53z" />
    <glyph glyph-name="z" unicode="z" horiz-adv-x="499" 
d="M27 0v97l262 309h-260v115h436v-97l-264 -309h270v-115h-444z" />
    <glyph glyph-name="aacute" unicode="&#xe1;" horiz-adv-x="555" 
d="M29 0zM219 -9q-84 0 -137 44.5t-53 115.5q0 74 57 116t157 42q32 0 64 -5t63 -15v37q0 45 -28 68t-82 23q-33 0 -71.5 -10.5t-87.5 -32.5l-50 101q61 28 118.5 42t113.5 14q105 0 163.5 -50.5t58.5 -142.5v-338h-135v36q-33 -23 -69.5 -34t-81.5 -11zM160 154
q0 -30 26 -47.5t69 -17.5q34 0 62.5 8.5t52.5 24.5v78q-25 10 -52.5 14.5t-57.5 4.5q-47 0 -73.5 -17.5t-26.5 -47.5zM290 738h156l-135 -130h-111z" />
    <glyph glyph-name="abreve" unicode="&#x103;" horiz-adv-x="555" 
d="M29 0zM219 -9q-84 0 -137 44.5t-53 115.5q0 74 57 116t157 42q32 0 64 -5t63 -15v37q0 45 -28 68t-82 23q-33 0 -71.5 -10.5t-87.5 -32.5l-50 101q61 28 118.5 42t113.5 14q105 0 163.5 -50.5t58.5 -142.5v-338h-135v36q-33 -23 -69.5 -34t-81.5 -11zM160 154
q0 -30 26 -47.5t69 -17.5q34 0 62.5 8.5t52.5 24.5v78q-25 10 -52.5 14.5t-57.5 4.5q-47 0 -73.5 -17.5t-26.5 -47.5zM269 677q34 0 57 20t35 60l84 -22q-16 -64 -62 -99.5t-114 -35.5q-67 0 -113 35.5t-62 99.5l84 22q13 -40 35.5 -60t55.5 -20z" />
    <glyph glyph-name="acircumflex" unicode="&#xe2;" horiz-adv-x="555" 
d="M29 0zM219 -9q-84 0 -137 44.5t-53 115.5q0 74 57 116t157 42q32 0 64 -5t63 -15v37q0 45 -28 68t-82 23q-33 0 -71.5 -10.5t-87.5 -32.5l-50 101q61 28 118.5 42t113.5 14q105 0 163.5 -50.5t58.5 -142.5v-338h-135v36q-33 -23 -69.5 -34t-81.5 -11zM160 154
q0 -30 26 -47.5t69 -17.5q34 0 62.5 8.5t52.5 24.5v78q-25 10 -52.5 14.5t-57.5 4.5q-47 0 -73.5 -17.5t-26.5 -47.5zM343 605l-74 74l-74 -74h-110l115 136h140l115 -136h-112z" />
    <glyph glyph-name="adieresis" unicode="&#xe4;" horiz-adv-x="555" 
d="M29 0zM219 -9q-84 0 -137 44.5t-53 115.5q0 74 57 116t157 42q32 0 64 -5t63 -15v37q0 45 -28 68t-82 23q-33 0 -71.5 -10.5t-87.5 -32.5l-50 101q61 28 118.5 42t113.5 14q105 0 163.5 -50.5t58.5 -142.5v-338h-135v36q-33 -23 -69.5 -34t-81.5 -11zM160 154
q0 -30 26 -47.5t69 -17.5q34 0 62.5 8.5t52.5 24.5v78q-25 10 -52.5 14.5t-57.5 4.5q-47 0 -73.5 -17.5t-26.5 -47.5zM161 604q-31 0 -53 21t-22 52t21.5 51.5t53.5 20.5t53.5 -20.5t21.5 -51.5t-22 -52t-53 -21zM380 604q-32 0 -53.5 21t-21.5 52t21 51.5t54 20.5
q32 0 53 -20.5t21 -51.5t-21.5 -52t-52.5 -21z" />
    <glyph glyph-name="ae" unicode="&#xe6;" horiz-adv-x="926" 
d="M219 -9q-81 0 -133.5 44.5t-52.5 115.5q0 74 56 116t154 42q33 0 65 -5t62 -15v37q0 45 -28 68t-82 23q-33 0 -71.5 -10.5t-87.5 -32.5l-50 101q61 28 118.5 42t113.5 14q62 0 107.5 -18.5t73.5 -52.5q34 34 78.5 52t95.5 18q56 0 103.5 -21.5t81.5 -58.5t53.5 -88.5
t19.5 -111.5v-36h-387q13 -49 53 -79t94 -30q35 0 65 11t50 31l90 -82q-48 -39 -98.5 -57t-112.5 -18q-63 0 -117.5 24t-92.5 65q-47 -46 -100.5 -67t-120.5 -21zM635 417q-47 0 -81 -28.5t-46 -76.5h255q-13 46 -47.5 75.5t-80.5 29.5zM164 154q0 -30 24.5 -47.5
t66.5 -17.5q40 0 74.5 14.5t64.5 44.5q-5 12 -9.5 24t-7.5 25q-26 11 -55.5 16.5t-60.5 5.5q-46 0 -71.5 -17.5t-25.5 -47.5z" />
    <glyph glyph-name="agrave" unicode="&#xe0;" horiz-adv-x="555" 
d="M29 0zM219 -9q-84 0 -137 44.5t-53 115.5q0 74 57 116t157 42q32 0 64 -5t63 -15v37q0 45 -28 68t-82 23q-33 0 -71.5 -10.5t-87.5 -32.5l-50 101q61 28 118.5 42t113.5 14q105 0 163.5 -50.5t58.5 -142.5v-338h-135v36q-33 -23 -69.5 -34t-81.5 -11zM160 154
q0 -30 26 -47.5t69 -17.5q34 0 62.5 8.5t52.5 24.5v78q-25 10 -52.5 14.5t-57.5 4.5q-47 0 -73.5 -17.5t-26.5 -47.5zM254 738l88 -130h-111l-135 130h158z" />
    <glyph glyph-name="amacron" unicode="&#x101;" horiz-adv-x="555" 
d="M29 0zM219 -9q-84 0 -137 44.5t-53 115.5q0 74 57 116t157 42q32 0 64 -5t63 -15v37q0 45 -28 68t-82 23q-33 0 -71.5 -10.5t-87.5 -32.5l-50 101q61 28 118.5 42t113.5 14q105 0 163.5 -50.5t58.5 -142.5v-338h-135v36q-33 -23 -69.5 -34t-81.5 -11zM160 154
q0 -30 26 -47.5t69 -17.5q34 0 62.5 8.5t52.5 24.5v78q-25 10 -52.5 14.5t-57.5 4.5q-47 0 -73.5 -17.5t-26.5 -47.5zM433 713v-90h-320v90h320z" />
    <glyph glyph-name="aogonek" unicode="&#x105;" horiz-adv-x="555" 
d="M219 -9q-84 0 -137 44.5t-53 115.5q0 74 57 116t157 42q32 0 64 -5t63 -15v37q0 45 -28 68t-82 23q-33 0 -71.5 -10.5t-87.5 -32.5l-50 101q61 28 118.5 42t113.5 14q105 0 163.5 -50.5t58.5 -142.5v-338q-46 -28 -68 -53.5t-22 -51.5q0 -21 13.5 -32.5t36.5 -11.5
q10 0 21 3t19 9l19 -62q-17 -10 -39 -16t-44 -6q-48 0 -77 25.5t-29 66.5q0 36 22 67t70 62h-57v36q-33 -23 -69.5 -34t-81.5 -11zM160 154q0 -30 26 -47.5t69 -17.5q34 0 62.5 8.5t52.5 24.5v78q-25 10 -52.5 14.5t-57.5 4.5q-47 0 -73.5 -17.5t-26.5 -47.5z" />
    <glyph glyph-name="aring" unicode="&#xe5;" horiz-adv-x="555" 
d="M29 0zM219 -9q-84 0 -137 44.5t-53 115.5q0 74 57 116t157 42q32 0 64 -5t63 -15v37q0 45 -28 68t-82 23q-33 0 -71.5 -10.5t-87.5 -32.5l-50 101q61 28 118.5 42t113.5 14q105 0 163.5 -50.5t58.5 -142.5v-338h-135v36q-33 -23 -69.5 -34t-81.5 -11zM160 154
q0 -30 26 -47.5t69 -17.5q34 0 62.5 8.5t52.5 24.5v78q-25 10 -52.5 14.5t-57.5 4.5q-47 0 -73.5 -17.5t-26.5 -47.5zM269 584q-51 0 -87 36t-36 87q0 50 36 85t87 35t87.5 -35t36.5 -85q0 -51 -36.5 -87t-87.5 -36zM269 643q26 0 43.5 18.5t17.5 45.5q0 25 -18 43t-43 18
t-42.5 -18t-17.5 -43q0 -28 17.5 -46t42.5 -18z" />
    <glyph glyph-name="atilde" unicode="&#xe3;" horiz-adv-x="555" 
d="M29 0zM219 -9q-84 0 -137 44.5t-53 115.5q0 74 57 116t157 42q32 0 64 -5t63 -15v37q0 45 -28 68t-82 23q-33 0 -71.5 -10.5t-87.5 -32.5l-50 101q61 28 118.5 42t113.5 14q105 0 163.5 -50.5t58.5 -142.5v-338h-135v36q-33 -23 -69.5 -34t-81.5 -11zM160 154
q0 -30 26 -47.5t69 -17.5q34 0 62.5 8.5t52.5 24.5v78q-25 10 -52.5 14.5t-57.5 4.5q-47 0 -73.5 -17.5t-26.5 -47.5zM162 597l-84 18q13 61 41.5 91t72.5 30q21 0 41.5 -8t39 -17t35.5 -17t31 -8q16 0 26 12t17 42l83 -18q-13 -61 -41.5 -91.5t-72.5 -30.5q-20 0 -40 8
t-38.5 17t-36 17t-32.5 8q-16 0 -25.5 -12.5t-16.5 -40.5z" />
    <glyph glyph-name="cacute" unicode="&#x107;" horiz-adv-x="532" 
d="M30 0zM309 110q35 0 65.5 14t58.5 44l82 -85q-40 -44 -96 -68.5t-116 -24.5q-57 0 -107.5 21t-87 57t-57.5 85.5t-21 106.5t21 106.5t57.5 86t87 57.5t107.5 21q62 0 119 -24.5t97 -68.5l-84 -89q-28 31 -60 47t-69 16q-59 0 -99.5 -44t-40.5 -108t41.5 -107t101.5 -43z
M321 738h156l-135 -130h-111z" />
    <glyph glyph-name="ccaron" unicode="&#x10d;" horiz-adv-x="532" 
d="M30 0zM309 110q35 0 65.5 14t58.5 44l82 -85q-40 -44 -96 -68.5t-116 -24.5q-57 0 -107.5 21t-87 57t-57.5 85.5t-21 106.5t21 106.5t57.5 86t87 57.5t107.5 21q62 0 119 -24.5t97 -68.5l-84 -89q-28 31 -60 47t-69 16q-59 0 -99.5 -44t-40.5 -108t41.5 -107t101.5 -43z
M228 741l74 -73l73 73h110l-115 -135h-140l-115 135h113z" />
    <glyph glyph-name="ccedilla" unicode="&#xe7;" horiz-adv-x="532" 
d="M309 110q35 0 65.5 14t58.5 44l82 -85q-35 -38 -82 -62t-98 -29l-12 -38q43 -4 69 -28t26 -61q0 -43 -37.5 -72t-94.5 -29q-37 0 -68.5 11.5t-56.5 33.5l45 48q18 -14 37.5 -21.5t40.5 -7.5q26 0 40 10t14 28q0 17 -14.5 27t-39.5 10h-42l26 89q-51 6 -95 29.5
t-75.5 58.5t-49.5 81.5t-18 98.5q0 57 21 106.5t57.5 86t87 57.5t107.5 21q62 0 119 -24.5t97 -68.5l-84 -89q-28 31 -60 47t-69 16q-59 0 -99.5 -44t-40.5 -108t41.5 -107t101.5 -43z" />
    <glyph glyph-name="ccircumflex" unicode="&#x109;" horiz-adv-x="532" 
d="M30 0zM309 110q35 0 65.5 14t58.5 44l82 -85q-40 -44 -96 -68.5t-116 -24.5q-57 0 -107.5 21t-87 57t-57.5 85.5t-21 106.5t21 106.5t57.5 86t87 57.5t107.5 21q62 0 119 -24.5t97 -68.5l-84 -89q-28 31 -60 47t-69 16q-59 0 -99.5 -44t-40.5 -108t41.5 -107t101.5 -43z
M375 605l-74 74l-74 -74h-110l115 136h140l115 -136h-112z" />
    <glyph glyph-name="cdotaccent" unicode="&#x10b;" horiz-adv-x="532" 
d="M30 0zM309 110q35 0 65.5 14t58.5 44l82 -85q-40 -44 -96 -68.5t-116 -24.5q-57 0 -107.5 21t-87 57t-57.5 85.5t-21 106.5t21 106.5t57.5 86t87 57.5t107.5 21q62 0 119 -24.5t97 -68.5l-84 -89q-28 31 -60 47t-69 16q-59 0 -99.5 -44t-40.5 -108t41.5 -107t101.5 -43z
M302 602q-32 0 -53.5 21t-21.5 52t21.5 51.5t53.5 20.5q31 0 52.5 -20.5t21.5 -51.5t-21.5 -52t-52.5 -21z" />
    <glyph glyph-name="dcaron" unicode="&#x10f;" horiz-adv-x="764" 
d="M30 0zM443 0v43q-31 -25 -69 -37.5t-79 -12.5q-55 0 -103.5 21t-84.5 57t-56.5 85t-20.5 105t21 105t57 85t85.5 56.5t105.5 20.5q38 0 74.5 -10.5t67.5 -30.5v213l137 30v-730h-135zM165 261q0 -63 44 -107t108 -44q38 0 69.5 13t54.5 37v203q-22 23 -54.5 36t-69.5 13
q-65 0 -108.5 -43.5t-43.5 -107.5zM656 720h133l-50 -242h-91z" />
    <glyph glyph-name="dcroat" unicode="&#x111;" horiz-adv-x="630" 
d="M443 0v43q-31 -25 -69 -37.5t-79 -12.5q-55 0 -103.5 21t-84.5 57t-56.5 85t-20.5 105t21 105t57 85t85.5 56.5t105.5 20.5q38 0 74.5 -10.5t67.5 -30.5v92h-140v84h140v37l137 30v-67h55v-84h-55v-579h-135zM165 261q0 -63 44 -107t108 -44q38 0 69.5 13t54.5 37v203
q-22 23 -54.5 36t-69.5 13q-65 0 -108.5 -43.5t-43.5 -107.5z" />
    <glyph glyph-name="dotlessi" unicode="&#x131;" horiz-adv-x="244" 
d="M191 521v-521h-137v521h137z" />
    <glyph glyph-name="uni0237" unicode="&#x237;" horiz-adv-x="244" 
d="M-50 -206v105q12 -2 22.5 -3t23.5 -1q30 0 44 12.5t14 40.5v573h137v-582q0 -73 -44 -113.5t-124 -40.5q-19 0 -39.5 2.5t-33.5 6.5z" />
    <glyph glyph-name="eacute" unicode="&#xe9;" horiz-adv-x="586" 
d="M30 0zM521 65q-48 -39 -98.5 -57t-112.5 -18q-59 0 -110.5 21t-89 57t-59 85.5t-21.5 106.5q0 56 20.5 105.5t56.5 86t85.5 57.5t105.5 21q55 0 102.5 -21.5t82 -58.5t54 -88.5t19.5 -111.5v-36h-388q14 -49 54 -79t94 -30q34 0 64 11t51 31zM295 417q-47 0 -81 -28.5
t-47 -76.5h255q-13 46 -47.5 75.5t-79.5 29.5zM316 738h156l-135 -130h-111z" />
    <glyph glyph-name="ebreve" unicode="&#x115;" horiz-adv-x="586" 
d="M30 0zM521 65q-48 -39 -98.5 -57t-112.5 -18q-59 0 -110.5 21t-89 57t-59 85.5t-21.5 106.5q0 56 20.5 105.5t56.5 86t85.5 57.5t105.5 21q55 0 102.5 -21.5t82 -58.5t54 -88.5t19.5 -111.5v-36h-388q14 -49 54 -79t94 -30q34 0 64 11t51 31zM295 417q-47 0 -81 -28.5
t-47 -76.5h255q-13 46 -47.5 75.5t-79.5 29.5zM296 677q34 0 57 20t35 60l84 -22q-16 -64 -62 -99.5t-114 -35.5q-67 0 -113 35.5t-62 99.5l84 22q13 -40 35.5 -60t55.5 -20z" />
    <glyph glyph-name="ecaron" unicode="&#x11b;" horiz-adv-x="586" 
d="M30 0zM521 65q-48 -39 -98.5 -57t-112.5 -18q-59 0 -110.5 21t-89 57t-59 85.5t-21.5 106.5q0 56 20.5 105.5t56.5 86t85.5 57.5t105.5 21q55 0 102.5 -21.5t82 -58.5t54 -88.5t19.5 -111.5v-36h-388q14 -49 54 -79t94 -30q34 0 64 11t51 31zM295 417q-47 0 -81 -28.5
t-47 -76.5h255q-13 46 -47.5 75.5t-79.5 29.5zM223 741l74 -73l73 73h110l-115 -135h-140l-115 135h113z" />
    <glyph glyph-name="ecircumflex" unicode="&#xea;" horiz-adv-x="586" 
d="M30 0zM521 65q-48 -39 -98.5 -57t-112.5 -18q-59 0 -110.5 21t-89 57t-59 85.5t-21.5 106.5q0 56 20.5 105.5t56.5 86t85.5 57.5t105.5 21q55 0 102.5 -21.5t82 -58.5t54 -88.5t19.5 -111.5v-36h-388q14 -49 54 -79t94 -30q34 0 64 11t51 31zM295 417q-47 0 -81 -28.5
t-47 -76.5h255q-13 46 -47.5 75.5t-79.5 29.5zM370 605l-74 74l-74 -74h-110l115 136h140l115 -136h-112z" />
    <glyph glyph-name="edieresis" unicode="&#xeb;" horiz-adv-x="586" 
d="M30 0zM521 65q-48 -39 -98.5 -57t-112.5 -18q-59 0 -110.5 21t-89 57t-59 85.5t-21.5 106.5q0 56 20.5 105.5t56.5 86t85.5 57.5t105.5 21q55 0 102.5 -21.5t82 -58.5t54 -88.5t19.5 -111.5v-36h-388q14 -49 54 -79t94 -30q34 0 64 11t51 31zM295 417q-47 0 -81 -28.5
t-47 -76.5h255q-13 46 -47.5 75.5t-79.5 29.5zM187 604q-31 0 -53 21t-22 52t21.5 51.5t53.5 20.5t53.5 -20.5t21.5 -51.5t-22 -52t-53 -21zM406 604q-32 0 -53.5 21t-21.5 52t21 51.5t54 20.5q32 0 53 -20.5t21 -51.5t-21.5 -52t-52.5 -21z" />
    <glyph glyph-name="edotaccent" unicode="&#x117;" horiz-adv-x="586" 
d="M30 0zM521 65q-48 -39 -98.5 -57t-112.5 -18q-59 0 -110.5 21t-89 57t-59 85.5t-21.5 106.5q0 56 20.5 105.5t56.5 86t85.5 57.5t105.5 21q55 0 102.5 -21.5t82 -58.5t54 -88.5t19.5 -111.5v-36h-388q14 -49 54 -79t94 -30q34 0 64 11t51 31zM295 417q-47 0 -81 -28.5
t-47 -76.5h255q-13 46 -47.5 75.5t-79.5 29.5zM296 602q-32 0 -53.5 21t-21.5 52t21.5 51.5t53.5 20.5q31 0 52.5 -20.5t21.5 -51.5t-21.5 -52t-52.5 -21z" />
    <glyph glyph-name="egrave" unicode="&#xe8;" horiz-adv-x="586" 
d="M30 0zM521 65q-48 -39 -98.5 -57t-112.5 -18q-59 0 -110.5 21t-89 57t-59 85.5t-21.5 106.5q0 56 20.5 105.5t56.5 86t85.5 57.5t105.5 21q55 0 102.5 -21.5t82 -58.5t54 -88.5t19.5 -111.5v-36h-388q14 -49 54 -79t94 -30q34 0 64 11t51 31zM295 417q-47 0 -81 -28.5
t-47 -76.5h255q-13 46 -47.5 75.5t-79.5 29.5zM280 738l88 -130h-111l-135 130h158z" />
    <glyph glyph-name="emacron" unicode="&#x113;" horiz-adv-x="586" 
d="M30 0zM521 65q-48 -39 -98.5 -57t-112.5 -18q-59 0 -110.5 21t-89 57t-59 85.5t-21.5 106.5q0 56 20.5 105.5t56.5 86t85.5 57.5t105.5 21q55 0 102.5 -21.5t82 -58.5t54 -88.5t19.5 -111.5v-36h-388q14 -49 54 -79t94 -30q34 0 64 11t51 31zM295 417q-47 0 -81 -28.5
t-47 -76.5h255q-13 46 -47.5 75.5t-79.5 29.5zM460 713v-90h-320v90h320z" />
    <glyph glyph-name="eng" unicode="&#x14b;" 
d="M54 0v521h137v-41q30 25 66.5 38t79.5 13q90 0 148 -58t58 -149v-385q0 -73 -44 -113.5t-124 -40.5q-19 0 -39 2.5t-33 6.5v105q11 -2 21.5 -3t23.5 -1q30 0 44 12.5t14 40.5v356q0 49 -29.5 79t-78.5 30q-34 0 -61.5 -13.5t-45.5 -38.5v-361h-137z" />
    <glyph glyph-name="eogonek" unicode="&#x119;" horiz-adv-x="586" 
d="M413 -199q-17 -10 -39 -16t-44 -6q-48 0 -77 25.5t-29 66.5q0 33 18.5 62t58.5 57q-57 1 -107 23t-86 58t-57 84.5t-21 104.5t20.5 105.5t56.5 86t85.5 57.5t105.5 21q55 0 102.5 -21.5t82 -58.5t54 -88.5t19.5 -111.5v-36h-388q14 -49 54 -79t94 -30q34 0 64 11t51 31
l90 -82q-31 -25 -62.5 -41.5t-66.5 -24.5q-45 -28 -66.5 -53t-21.5 -51q0 -21 13.5 -32.5t36.5 -11.5q10 0 21 3t19 9zM295 417q-47 0 -81 -28.5t-47 -76.5h255q-13 46 -47.5 75.5t-79.5 29.5z" />
    <glyph glyph-name="eth" unicode="&#xf0;" horiz-adv-x="597" 
d="M244 512l-51 71l67 43q-19 13 -39.5 23.5t-42.5 18.5l71 92q32 -14 61.5 -30.5t55.5 -35.5l98 63l51 -71l-81 -52q62 -64 95 -146.5t33 -175.5q0 -147 -74 -234t-200 -87q-54 0 -101.5 19.5t-82 54t-54.5 81t-20 100.5q0 48 19.5 91t52.5 75.5t76.5 51.5t92.5 19
q46 0 82 -14.5t61 -40.5q-8 37 -29.5 73t-52.5 67zM292 111q53 0 90.5 38t37.5 92t-37.5 91.5t-90.5 37.5q-54 0 -92 -37.5t-38 -91.5t38 -92t92 -38z" />
    <glyph glyph-name="gbreve" unicode="&#x11f;" horiz-adv-x="628" 
d="M30 0zM294 -3q-55 0 -103.5 21t-84 57t-56 84.5t-20.5 104.5q0 55 21 103.5t57 84.5t85 56.5t105 20.5q39 0 74.5 -11t66.5 -31v34h135v-521q0 -103 -66.5 -159t-191.5 -56q-60 0 -115.5 12t-101.5 35l48 107q43 -21 84 -31.5t82 -10.5q61 0 92.5 26.5t31.5 77.5v43
q-31 -23 -67.5 -35t-75.5 -12zM165 264q0 -63 43.5 -107t106.5 -44q37 0 68 12.5t54 34.5v205q-22 22 -54 34.5t-67 12.5q-63 0 -107 -43t-44 -105zM312 677q34 0 57 20t35 60l84 -22q-16 -64 -62 -99.5t-114 -35.5q-67 0 -113 35.5t-62 99.5l84 22q13 -40 35.5 -60
t55.5 -20z" />
    <glyph glyph-name="gcircumflex" unicode="&#x11d;" horiz-adv-x="628" 
d="M30 0zM294 -3q-55 0 -103.5 21t-84 57t-56 84.5t-20.5 104.5q0 55 21 103.5t57 84.5t85 56.5t105 20.5q39 0 74.5 -11t66.5 -31v34h135v-521q0 -103 -66.5 -159t-191.5 -56q-60 0 -115.5 12t-101.5 35l48 107q43 -21 84 -31.5t82 -10.5q61 0 92.5 26.5t31.5 77.5v43
q-31 -23 -67.5 -35t-75.5 -12zM165 264q0 -63 43.5 -107t106.5 -44q37 0 68 12.5t54 34.5v205q-22 22 -54 34.5t-67 12.5q-63 0 -107 -43t-44 -105zM386 605l-74 74l-74 -74h-110l115 136h140l115 -136h-112z" />
    <glyph glyph-name="uni0123" unicode="&#x123;" horiz-adv-x="626" 
d="M368 614h-129l81 205h99zM294 -3q-55 0 -103.5 21t-84 57t-56 84.5t-20.5 104.5q0 55 21 103.5t57 84.5t85 56.5t105 20.5q39 0 74.5 -11t66.5 -31v34h135v-521q0 -103 -66.5 -159t-191.5 -56q-60 0 -115.5 12t-101.5 35l48 107q43 -21 84 -31.5t82 -10.5q61 0 92.5 26.5
t31.5 77.5v43q-31 -23 -67.5 -35t-75.5 -12zM165 264q0 -63 43.5 -107t106.5 -44q37 0 68 12.5t54 34.5v205q-22 22 -54 34.5t-67 12.5q-63 0 -107 -43t-44 -105z" />
    <glyph glyph-name="gdotaccent" unicode="&#x121;" horiz-adv-x="628" 
d="M30 0zM294 -3q-55 0 -103.5 21t-84 57t-56 84.5t-20.5 104.5q0 55 21 103.5t57 84.5t85 56.5t105 20.5q39 0 74.5 -11t66.5 -31v34h135v-521q0 -103 -66.5 -159t-191.5 -56q-60 0 -115.5 12t-101.5 35l48 107q43 -21 84 -31.5t82 -10.5q61 0 92.5 26.5t31.5 77.5v43
q-31 -23 -67.5 -35t-75.5 -12zM165 264q0 -63 43.5 -107t106.5 -44q37 0 68 12.5t54 34.5v205q-22 22 -54 34.5t-67 12.5q-63 0 -107 -43t-44 -105zM313 602q-32 0 -53.5 21t-21.5 52t21.5 51.5t53.5 20.5q31 0 52.5 -20.5t21.5 -51.5t-21.5 -52t-52.5 -21z" />
    <glyph glyph-name="germandbls" unicode="&#xdf;" horiz-adv-x="685" 
d="M421 367q0 -15 10 -24t38 -20l80 -27q66 -24 95.5 -57.5t29.5 -84.5q0 -75 -55.5 -120t-147.5 -45q-63 0 -116 20t-98 61l69 74q33 -31 67.5 -46t71.5 -15q39 0 61.5 16.5t22.5 44.5q0 24 -14 38t-50 26l-85 28q-57 19 -83 45.5t-26 66.5q0 44 26.5 70t58 45t58 37.5
t26.5 47.5q0 34 -36 56t-90 22q-70 0 -107 -40t-37 -116v-470h-136v473q0 123 73.5 192.5t203.5 69.5q119 0 190.5 -46t71.5 -122q0 -50 -27 -79.5t-59 -49.5t-59 -35t-27 -36z" />
    <glyph glyph-name="hbar" unicode="&#x127;" 
d="M54 0v579h-58v84h58v37l137 30v-67h138v-84h-138v-99q30 25 66.5 38t79.5 13q90 0 148 -58t58 -149v-324h-137v304q0 49 -29.5 79t-78.5 30q-34 0 -61.5 -13.5t-45.5 -38.5v-361h-137z" />
    <glyph glyph-name="hcircumflex" unicode="&#x125;" 
d="M195 784l-74 74l-74 -74h-110l115 136h140l115 -136h-112zM54 0v700h137v-220q30 25 66.5 38t79.5 13q90 0 148 -58t58 -149v-324h-137v304q0 49 -29.5 79t-78.5 30q-34 0 -61.5 -13.5t-45.5 -38.5v-361h-137z" />
    <glyph glyph-name="iacute" unicode="&#xed;" horiz-adv-x="244" 
d="M52 0zM191 521v-521h-137v521h137zM142 738h156l-135 -130h-111z" />
    <glyph glyph-name="ibreve" unicode="&#x12d;" horiz-adv-x="244" 
d="M0 0zM191 521v-521h-137v521h137zM122 677q34 0 57 20t35 60l84 -22q-16 -64 -62 -99.5t-114 -35.5q-67 0 -113 35.5t-62 99.5l84 22q13 -40 35.5 -60t55.5 -20z" />
    <glyph glyph-name="icircumflex" unicode="&#xee;" horiz-adv-x="244" 
d="M0 0zM191 521v-521h-137v521h137zM196 605l-74 74l-74 -74h-110l115 136h140l115 -136h-112z" />
    <glyph glyph-name="idieresis" unicode="&#xef;" horiz-adv-x="244" 
d="M0 0zM191 521v-521h-137v521h137zM13 604q-31 0 -53 21t-22 52t21.5 51.5t53.5 20.5t53.5 -20.5t21.5 -51.5t-22 -52t-53 -21zM232 604q-32 0 -53.5 21t-21.5 52t21 51.5t54 20.5q32 0 53 -20.5t21 -51.5t-21.5 -52t-52.5 -21z" />
    <glyph glyph-name="idotaccent" horiz-adv-x="241" 
d="M44 0zM122 583q-32 0 -55 23t-23 55t23 55t55 23t55 -23t23 -55t-23 -55t-55 -23zM191 521v-521h-137v521h137z" />
    <glyph glyph-name="igrave" unicode="&#xec;" horiz-adv-x="244" 
d="M0 0zM191 521v-521h-137v521h137zM107 738l88 -130h-111l-135 130h158z" />
    <glyph glyph-name="ij" unicode="&#x133;" horiz-adv-x="482" 
d="M44 0zM122 583q-32 0 -55 23t-23 55t23 55t55 23t55 -23t23 -55t-23 -55t-55 -23zM191 521v-521h-137v521h137zM363 583q-32 0 -55 23t-23 55t23 55t55 23t55 -23t23 -55t-23 -55t-55 -23zM263 -215q-19 0 -39.5 2.5t-32.5 6.5v105q11 -2 21.5 -3t23.5 -1q31 0 45 12.5
t14 40.5v573h137v-581q0 -74 -44.5 -114.5t-124.5 -40.5z" />
    <glyph glyph-name="imacron" unicode="&#x12b;" horiz-adv-x="244" 
d="M0 0zM191 521v-521h-137v521h137zM286 713v-90h-320v90h320z" />
    <glyph glyph-name="iogonek" unicode="&#x12f;" horiz-adv-x="244" 
d="M122 583q-32 0 -55 23t-23 55t23 55t55 23t55 -23t23 -55t-23 -55t-55 -23zM190 0q-46 -28 -68 -53.5t-22 -51.5q0 -21 13.5 -32.5t36.5 -11.5q10 0 21 3t19 9l19 -62q-17 -10 -39 -16t-44 -6q-48 0 -77 25.5t-29 66.5q0 36 22 67t70 62h-58v521h137v-521h-1z" />
    <glyph glyph-name="itilde" unicode="&#x129;" horiz-adv-x="244" 
d="M0 0zM191 521v-521h-137v521h137zM15 597l-84 18q13 61 41.5 91t72.5 30q21 0 41.5 -8t39 -17t35.5 -17t31 -8q16 0 26 12t17 42l83 -18q-13 -61 -41.5 -91.5t-72.5 -30.5q-20 0 -40 8t-38.5 17t-36 17t-32.5 8q-16 0 -25.5 -12.5t-16.5 -40.5z" />
    <glyph glyph-name="jcircumflex" unicode="&#x135;" horiz-adv-x="244" 
d="M0 0zM-50 -206v105q12 -2 22.5 -3t23.5 -1q30 0 44 12.5t14 40.5v573h137v-582q0 -73 -44 -113.5t-124 -40.5q-19 0 -39.5 2.5t-33.5 6.5zM196 605l-74 74l-74 -74h-110l115 136h140l115 -136h-112z" />
    <glyph glyph-name="uni0137" unicode="&#x137;" horiz-adv-x="568" 
d="M54 0zM54 0v700l137 30v-429l225 220h155l-244 -239l259 -282h-175l-220 238v-238h-137zM225 -81h129l-81 -205h-99z" />
    <glyph glyph-name="kgreenlandic" unicode="&#x138;" horiz-adv-x="568" 
d="M54 0v521h137v-220l225 220h155l-244 -239l259 -282h-175l-220 238v-238h-137z" />
    <glyph glyph-name="lacute" unicode="&#x13a;" horiz-adv-x="244" 
d="M142 917h156l-135 -130h-111zM54 0v700h137v-700h-137z" />
    <glyph glyph-name="lcaron" unicode="&#x13e;" horiz-adv-x="376" 
d="M54 0zM191 730v-730h-137v700zM267 720h133l-50 -242h-91z" />
    <glyph glyph-name="uni013C" unicode="&#x13c;" horiz-adv-x="244" 
d="M9 0zM191 730v-730h-137v700zM60 -81h129l-81 -205h-99z" />
    <glyph glyph-name="ldot" unicode="&#x140;" horiz-adv-x="397" 
d="M54 0zM191 730v-730h-137v700zM322 285q-32 0 -53.5 21t-21.5 52t21.5 51.5t53.5 20.5q31 0 52.5 -20.5t21.5 -51.5t-21.5 -52t-52.5 -21z" />
    <glyph glyph-name="lslash" unicode="&#x142;" horiz-adv-x="289" 
d="M7 334l71 50v316l137 30v-249l70 49v-125l-70 -49v-356h-137v259l-71 -50v125z" />
    <glyph glyph-name="nacute" unicode="&#x144;" 
d="M54 0zM54 0v521h137v-41q30 25 66.5 38t79.5 13q90 0 148 -58t58 -149v-324h-137v304q0 49 -29.5 79t-78.5 30q-34 0 -61.5 -13.5t-45.5 -38.5v-361h-137zM319 738h156l-135 -130h-111z" />
    <glyph glyph-name="ncaron" unicode="&#x148;" 
d="M54 0zM54 0v521h137v-41q30 25 66.5 38t79.5 13q90 0 148 -58t58 -149v-324h-137v304q0 49 -29.5 79t-78.5 30q-34 0 -61.5 -13.5t-45.5 -38.5v-361h-137zM226 741l74 -73l73 73h110l-115 -135h-140l-115 135h113z" />
    <glyph glyph-name="uni0146" unicode="&#x146;" 
d="M54 0zM54 0v521h137v-41q30 25 66.5 38t79.5 13q90 0 148 -58t58 -149v-324h-137v304q0 49 -29.5 79t-78.5 30q-34 0 -61.5 -13.5t-45.5 -38.5v-361h-137zM237 -81h129l-81 -205h-99z" />
    <glyph glyph-name="ntilde" unicode="&#xf1;" 
d="M54 0zM54 0v521h137v-41q30 25 66.5 38t79.5 13q90 0 148 -58t58 -149v-324h-137v304q0 49 -29.5 79t-78.5 30q-34 0 -61.5 -13.5t-45.5 -38.5v-361h-137zM192 597l-84 18q13 61 41.5 91t72.5 30q21 0 41.5 -8t39 -17t35.5 -17t31 -8q16 0 26 12t17 42l83 -18
q-13 -61 -41.5 -91.5t-72.5 -30.5q-20 0 -40 8t-38.5 17t-36 17t-32.5 8q-16 0 -25.5 -12.5t-16.5 -40.5z" />
    <glyph glyph-name="oacute" unicode="&#xf3;" horiz-adv-x="616" 
d="M30 0zM30 260q0 57 21.5 106.5t59 86t88.5 57.5t109 21t109 -21t88.5 -57.5t59 -86t21.5 -106.5t-21.5 -106.5t-59 -85.5t-88.5 -57t-109 -21t-109 21t-88.5 57t-59 85.5t-21.5 106.5zM308 109q60 0 102 44t42 107q0 64 -42 108t-102 44t-102 -44t-42 -108q0 -63 42 -107
t102 -44zM328 738h156l-135 -130h-111z" />
    <glyph glyph-name="obreve" unicode="&#x14f;" horiz-adv-x="616" 
d="M30 0zM30 260q0 57 21.5 106.5t59 86t88.5 57.5t109 21t109 -21t88.5 -57.5t59 -86t21.5 -106.5t-21.5 -106.5t-59 -85.5t-88.5 -57t-109 -21t-109 21t-88.5 57t-59 85.5t-21.5 106.5zM308 109q60 0 102 44t42 107q0 64 -42 108t-102 44t-102 -44t-42 -108q0 -63 42 -107
t102 -44zM308 677q34 0 57 20t35 60l84 -22q-16 -64 -62 -99.5t-114 -35.5q-67 0 -113 35.5t-62 99.5l84 22q13 -40 35.5 -60t55.5 -20z" />
    <glyph glyph-name="ocircumflex" unicode="&#xf4;" horiz-adv-x="616" 
d="M30 0zM30 260q0 57 21.5 106.5t59 86t88.5 57.5t109 21t109 -21t88.5 -57.5t59 -86t21.5 -106.5t-21.5 -106.5t-59 -85.5t-88.5 -57t-109 -21t-109 21t-88.5 57t-59 85.5t-21.5 106.5zM308 109q60 0 102 44t42 107q0 64 -42 108t-102 44t-102 -44t-42 -108q0 -63 42 -107
t102 -44zM382 605l-74 74l-74 -74h-110l115 136h140l115 -136h-112z" />
    <glyph glyph-name="odieresis" unicode="&#xf6;" horiz-adv-x="616" 
d="M30 0zM30 260q0 57 21.5 106.5t59 86t88.5 57.5t109 21t109 -21t88.5 -57.5t59 -86t21.5 -106.5t-21.5 -106.5t-59 -85.5t-88.5 -57t-109 -21t-109 21t-88.5 57t-59 85.5t-21.5 106.5zM308 109q60 0 102 44t42 107q0 64 -42 108t-102 44t-102 -44t-42 -108q0 -63 42 -107
t102 -44zM199 604q-31 0 -53 21t-22 52t21.5 51.5t53.5 20.5t53.5 -20.5t21.5 -51.5t-22 -52t-53 -21zM418 604q-32 0 -53.5 21t-21.5 52t21 51.5t54 20.5q32 0 53 -20.5t21 -51.5t-21.5 -52t-52.5 -21z" />
    <glyph glyph-name="oe" unicode="&#x153;" horiz-adv-x="1010" 
d="M30 260q0 57 21.5 106.5t59 86t88.5 57.5t109 21q63 0 117.5 -26.5t91.5 -71.5q36 45 89 71t116 26q55 0 102.5 -21.5t82 -58.5t54 -88.5t19.5 -111.5v-36h-388q14 -49 54 -79t94 -30q34 0 64 11t51 31l90 -82q-48 -39 -98.5 -57t-113.5 -18q-66 0 -122 26.5t-93 71.5
q-37 -45 -91.5 -71.5t-118.5 -26.5q-58 0 -109 21t-88.5 57t-59 85.5t-21.5 106.5zM719 417q-48 0 -82 -28.5t-46 -76.5h255q-13 46 -47.5 75.5t-79.5 29.5zM308 109q60 0 102 44t42 107q0 64 -42 108t-102 44t-102 -44t-42 -108q0 -63 42 -107t102 -44z" />
    <glyph glyph-name="ograve" unicode="&#xf2;" horiz-adv-x="616" 
d="M30 0zM30 260q0 57 21.5 106.5t59 86t88.5 57.5t109 21t109 -21t88.5 -57.5t59 -86t21.5 -106.5t-21.5 -106.5t-59 -85.5t-88.5 -57t-109 -21t-109 21t-88.5 57t-59 85.5t-21.5 106.5zM308 109q60 0 102 44t42 107q0 64 -42 108t-102 44t-102 -44t-42 -108q0 -63 42 -107
t102 -44zM293 738l88 -130h-111l-135 130h158z" />
    <glyph glyph-name="ohungarumlaut" unicode="&#x151;" horiz-adv-x="616" 
d="M30 0zM30 260q0 57 21.5 106.5t59 86t88.5 57.5t109 21t109 -21t88.5 -57.5t59 -86t21.5 -106.5t-21.5 -106.5t-59 -85.5t-88.5 -57t-109 -21t-109 21t-88.5 57t-59 85.5t-21.5 106.5zM308 109q60 0 102 44t42 107q0 64 -42 108t-102 44t-102 -44t-42 -108q0 -63 42 -107
t102 -44zM246 737h137l-132 -127h-106zM453 737h138l-142 -127h-97z" />
    <glyph glyph-name="omacron" unicode="&#x14d;" horiz-adv-x="616" 
d="M30 0zM30 260q0 57 21.5 106.5t59 86t88.5 57.5t109 21t109 -21t88.5 -57.5t59 -86t21.5 -106.5t-21.5 -106.5t-59 -85.5t-88.5 -57t-109 -21t-109 21t-88.5 57t-59 85.5t-21.5 106.5zM308 109q60 0 102 44t42 107q0 64 -42 108t-102 44t-102 -44t-42 -108q0 -63 42 -107
t102 -44zM472 713v-90h-320v90h320z" />
    <glyph glyph-name="oslash" unicode="&#xf8;" horiz-adv-x="616" 
d="M46 0l60 73q-35 36 -55.5 84t-20.5 103q0 57 21.5 106.5t59 86t88.5 57.5t109 21q40 0 77 -10t68 -28l23 28h94l-60 -73q35 -36 55.5 -84.5t20.5 -103.5q0 -57 -21.5 -106.5t-59 -85.5t-88.5 -57t-109 -21q-40 0 -77 10t-68 29l-24 -29h-93zM164 260q0 -24 6.5 -46
t18.5 -40l184 222q-14 7 -30.5 11.5t-34.5 4.5q-60 0 -102 -44t-42 -108zM308 109q60 0 102 44t42 107q0 25 -6.5 47t-18.5 41l-185 -223q15 -7 31.5 -11.5t34.5 -4.5z" />
    <glyph glyph-name="otilde" unicode="&#xf5;" horiz-adv-x="616" 
d="M30 0zM30 260q0 57 21.5 106.5t59 86t88.5 57.5t109 21t109 -21t88.5 -57.5t59 -86t21.5 -106.5t-21.5 -106.5t-59 -85.5t-88.5 -57t-109 -21t-109 21t-88.5 57t-59 85.5t-21.5 106.5zM308 109q60 0 102 44t42 107q0 64 -42 108t-102 44t-102 -44t-42 -108q0 -63 42 -107
t102 -44zM201 597l-84 18q13 61 41.5 91t72.5 30q21 0 41.5 -8t39 -17t35.5 -17t31 -8q16 0 26 12t17 42l83 -18q-13 -61 -41.5 -91.5t-72.5 -30.5q-20 0 -40 8t-38.5 17t-36 17t-32.5 8q-16 0 -25.5 -12.5t-16.5 -40.5z" />
    <glyph glyph-name="racute" unicode="&#x155;" horiz-adv-x="407" 
d="M54 0zM54 0v521h137v-57q25 34 60.5 51.5t78.5 17.5q20 -1 33.5 -3.5t23.5 -8.5v-120q-15 7 -33 10.5t-37 3.5q-40 0 -73.5 -20t-52.5 -58v-337h-137zM251 738h156l-135 -130h-111z" />
    <glyph glyph-name="rcaron" unicode="&#x159;" horiz-adv-x="407" 
d="M45 0zM54 0v521h137v-57q25 34 60.5 51.5t78.5 17.5q20 -1 33.5 -3.5t23.5 -8.5v-120q-15 7 -33 10.5t-37 3.5q-40 0 -73.5 -20t-52.5 -58v-337h-137zM158 741l74 -73l73 73h110l-115 -135h-140l-115 135h113z" />
    <glyph glyph-name="uni0157" unicode="&#x157;" horiz-adv-x="407" 
d="M5 0zM54 0v521h137v-57q25 34 60.5 51.5t78.5 17.5q20 -1 33.5 -3.5t23.5 -8.5v-120q-15 7 -33 10.5t-37 3.5q-40 0 -73.5 -20t-52.5 -58v-337h-137zM56 -81h129l-81 -205h-99z" />
    <glyph glyph-name="sacute" unicode="&#x15b;" horiz-adv-x="491" 
d="M10 0zM10 62l68 91q46 -30 87 -44.5t82 -14.5q46 0 73.5 15t27.5 40q0 20 -15.5 32t-49.5 17l-100 15q-77 12 -117.5 50t-40.5 101q0 75 59 120t158 45q57 0 111 -16.5t103 -48.5l-66 -88q-43 25 -82 37.5t-79 12.5q-37 0 -59.5 -14t-22.5 -37q0 -21 16.5 -32.5
t54.5 -16.5l100 -15q76 -11 117.5 -50t41.5 -99q0 -37 -17.5 -68.5t-47.5 -54.5t-72 -36t-91 -13q-71 0 -133 18.5t-106 53.5zM261 738h156l-135 -130h-111z" />
    <glyph glyph-name="scaron" unicode="&#x161;" horiz-adv-x="491" 
d="M10 0zM10 62l68 91q46 -30 87 -44.5t82 -14.5q46 0 73.5 15t27.5 40q0 20 -15.5 32t-49.5 17l-100 15q-77 12 -117.5 50t-40.5 101q0 75 59 120t158 45q57 0 111 -16.5t103 -48.5l-66 -88q-43 25 -82 37.5t-79 12.5q-37 0 -59.5 -14t-22.5 -37q0 -21 16.5 -32.5
t54.5 -16.5l100 -15q76 -11 117.5 -50t41.5 -99q0 -37 -17.5 -68.5t-47.5 -54.5t-72 -36t-91 -13q-71 0 -133 18.5t-106 53.5zM168 741l74 -73l73 73h110l-115 -135h-140l-115 135h113z" />
    <glyph glyph-name="uni015F" unicode="&#x15f;" horiz-adv-x="491" 
d="M10 62l68 91q46 -30 87 -44.5t82 -14.5q46 0 73.5 15t27.5 40q0 20 -15.5 32t-49.5 17l-100 15q-77 12 -117.5 50t-40.5 101q0 75 59 120t158 45q57 0 111 -16.5t103 -48.5l-66 -88q-43 25 -82 37.5t-79 12.5q-37 0 -59.5 -14t-22.5 -37q0 -21 16.5 -32.5t54.5 -16.5
l100 -15q76 -11 117.5 -50t41.5 -99q0 -68 -56 -116t-143 -55l-11 -37q43 -4 69 -28t26 -61q0 -43 -37.5 -72t-94.5 -29q-37 0 -68.5 11.5t-56.5 33.5l45 48q18 -14 37.5 -21.5t40.5 -7.5q26 0 40 10t14 28q0 17 -14.5 27t-39.5 10h-42l26 88q-60 4 -112 22t-90 49z" />
    <glyph glyph-name="scircumflex" unicode="&#x15d;" horiz-adv-x="491" 
d="M10 0zM10 62l68 91q46 -30 87 -44.5t82 -14.5q46 0 73.5 15t27.5 40q0 20 -15.5 32t-49.5 17l-100 15q-77 12 -117.5 50t-40.5 101q0 75 59 120t158 45q57 0 111 -16.5t103 -48.5l-66 -88q-43 25 -82 37.5t-79 12.5q-37 0 -59.5 -14t-22.5 -37q0 -21 16.5 -32.5
t54.5 -16.5l100 -15q76 -11 117.5 -50t41.5 -99q0 -37 -17.5 -68.5t-47.5 -54.5t-72 -36t-91 -13q-71 0 -133 18.5t-106 53.5zM314 605l-74 74l-74 -74h-110l115 136h140l115 -136h-112z" />
    <glyph glyph-name="uni0219" unicode="&#x219;" horiz-adv-x="491" 
d="M10 0zM10 62l68 91q46 -30 87 -44.5t82 -14.5q46 0 73.5 15t27.5 40q0 20 -15.5 32t-49.5 17l-100 15q-77 12 -117.5 50t-40.5 101q0 75 59 120t158 45q57 0 111 -16.5t103 -48.5l-66 -88q-43 25 -82 37.5t-79 12.5q-37 0 -59.5 -14t-22.5 -37q0 -21 16.5 -32.5
t54.5 -16.5l100 -15q76 -11 117.5 -50t41.5 -99q0 -37 -17.5 -68.5t-47.5 -54.5t-72 -36t-91 -13q-71 0 -133 18.5t-106 53.5zM187 -81h129l-81 -205h-99z" />
    <glyph glyph-name="tbar" unicode="&#x167;" horiz-adv-x="433" 
d="M125 147v82h-107v99h107v78h-107v115h107v133l137 31v-164h148v-115h-148v-78h149v-99h-149v-54q0 -37 16 -52t56 -15q19 0 36 2.5t37 9.5v-112q-22 -7 -53 -11.5t-53 -4.5q-87 0 -131.5 39.5t-44.5 115.5z" />
    <glyph glyph-name="tcaron" unicode="&#x165;" horiz-adv-x="432" 
d="M331 787l137 23l-42 -221h-104zM125 147v259h-107v115h107v133l137 31v-164h148v-115h-148v-231q0 -37 16 -52t56 -15q19 0 36 2.5t37 9.5v-112q-22 -7 -53 -11.5t-53 -4.5q-87 0 -131.5 39.5t-44.5 115.5z" />
    <glyph glyph-name="uni0163" unicode="&#x163;" horiz-adv-x="424" 
d="M125 147v259h-107v115h107v133l137 31v-164h148v-115h-148v-231q0 -37 16 -52t56 -15q19 0 36 2.5t37 9.5v-112q-22 -7 -52.5 -11.5t-49.5 -4.5l-12 -38q43 -4 69 -28t26 -61q0 -43 -37.5 -72t-94.5 -29q-37 0 -68.5 11.5t-56.5 33.5l45 48q18 -14 37.5 -21.5t40.5 -7.5
q26 0 40 10t14 28q0 17 -14.5 27t-39.5 10h-42l27 95q-56 13 -85 50.5t-29 98.5z" />
    <glyph glyph-name="uni021B" unicode="&#x21b;" horiz-adv-x="424" 
d="M18 0zM125 147v259h-107v115h107v133l137 31v-164h148v-115h-148v-231q0 -37 16 -52t56 -15q19 0 36 2.5t37 9.5v-112q-22 -7 -53 -11.5t-53 -4.5q-87 0 -131.5 39.5t-44.5 115.5zM213 -81h129l-81 -205h-99z" />
    <glyph glyph-name="thorn" unicode="&#xfe;" horiz-adv-x="634" 
d="M54 -209v909l137 30v-250q31 23 68.5 35.5t77.5 12.5q55 0 103.5 -21t84.5 -57t56.5 -85t20.5 -105t-21 -105t-57 -85t-85.5 -56.5t-105.5 -20.5q-38 0 -74.5 10.5t-67.5 30.5v-243h-137zM315 411q-37 0 -69 -12.5t-55 -36.5v-205q22 -22 54.5 -35t69.5 -13
q64 0 108 43.5t44 107.5t-44.5 107.5t-107.5 43.5z" />
    <glyph glyph-name="uacute" unicode="&#xfa;" 
d="M50 0zM187 521v-303q0 -50 29.5 -80t78.5 -30q35 0 62.5 13.5t45.5 38.5v361h137v-521h-137v42q-30 -25 -67 -38.5t-80 -13.5q-90 0 -148 58.5t-58 149.5v323h137zM317 738h156l-135 -130h-111z" />
    <glyph glyph-name="ubreve" unicode="&#x16d;" 
d="M50 0zM187 521v-303q0 -50 29.5 -80t78.5 -30q35 0 62.5 13.5t45.5 38.5v361h137v-521h-137v42q-30 -25 -67 -38.5t-80 -13.5q-90 0 -148 58.5t-58 149.5v323h137zM297 677q34 0 57 20t35 60l84 -22q-16 -64 -62 -99.5t-114 -35.5q-67 0 -113 35.5t-62 99.5l84 22
q13 -40 35.5 -60t55.5 -20z" />
    <glyph glyph-name="ucircumflex" unicode="&#xfb;" 
d="M50 0zM187 521v-303q0 -50 29.5 -80t78.5 -30q35 0 62.5 13.5t45.5 38.5v361h137v-521h-137v42q-30 -25 -67 -38.5t-80 -13.5q-90 0 -148 58.5t-58 149.5v323h137zM371 605l-74 74l-74 -74h-110l115 136h140l115 -136h-112z" />
    <glyph glyph-name="udieresis" unicode="&#xfc;" 
d="M50 0zM187 521v-303q0 -50 29.5 -80t78.5 -30q35 0 62.5 13.5t45.5 38.5v361h137v-521h-137v42q-30 -25 -67 -38.5t-80 -13.5q-90 0 -148 58.5t-58 149.5v323h137zM188 604q-31 0 -53 21t-22 52t21.5 51.5t53.5 20.5t53.5 -20.5t21.5 -51.5t-22 -52t-53 -21zM407 604
q-32 0 -53.5 21t-21.5 52t21 51.5t54 20.5q32 0 53 -20.5t21 -51.5t-21.5 -52t-52.5 -21z" />
    <glyph glyph-name="ugrave" unicode="&#xf9;" 
d="M50 0zM187 521v-303q0 -50 29.5 -80t78.5 -30q35 0 62.5 13.5t45.5 38.5v361h137v-521h-137v42q-30 -25 -67 -38.5t-80 -13.5q-90 0 -148 58.5t-58 149.5v323h137zM282 738l88 -130h-111l-135 130h158z" />
    <glyph glyph-name="uhungarumlaut" unicode="&#x171;" 
d="M50 0zM187 521v-303q0 -50 29.5 -80t78.5 -30q35 0 62.5 13.5t45.5 38.5v361h137v-521h-137v42q-30 -25 -67 -38.5t-80 -13.5q-90 0 -148 58.5t-58 149.5v323h137zM235 737h137l-132 -127h-106zM442 737h138l-142 -127h-97z" />
    <glyph glyph-name="umacron" unicode="&#x16b;" 
d="M50 0zM187 521v-303q0 -50 29.5 -80t78.5 -30q35 0 62.5 13.5t45.5 38.5v361h137v-521h-137v42q-30 -25 -67 -38.5t-80 -13.5q-90 0 -148 58.5t-58 149.5v323h137zM461 713v-90h-320v90h320z" />
    <glyph glyph-name="uogonek" unicode="&#x173;" 
d="M541 0q-46 -28 -68 -53.5t-22 -51.5q0 -21 13.5 -32.5t36.5 -11.5q10 0 21 3t19 9l19 -62q-17 -10 -39 -16t-44 -6q-48 0 -77 25.5t-29 66.5q0 36 22 67t70 62h-60v42q-30 -25 -67 -38.5t-80 -13.5q-90 0 -148 58.5t-58 149.5v323h137v-303q0 -50 29.5 -80t78.5 -30
q35 0 62.5 13.5t45.5 38.5v361h137v-521h1z" />
    <glyph glyph-name="uring" unicode="&#x16f;" 
d="M50 0zM187 521v-303q0 -50 29.5 -80t78.5 -30q35 0 62.5 13.5t45.5 38.5v361h137v-521h-137v42q-30 -25 -67 -38.5t-80 -13.5q-90 0 -148 58.5t-58 149.5v323h137zM297 584q-51 0 -87 36t-36 87q0 50 36 85t87 35t87.5 -35t36.5 -85q0 -51 -36.5 -87t-87.5 -36zM297 643
q26 0 43.5 18.5t17.5 45.5q0 25 -18 43t-43 18t-42.5 -18t-17.5 -43q0 -28 17.5 -46t42.5 -18z" />
    <glyph glyph-name="utilde" unicode="&#x169;" 
d="M50 0zM187 521v-303q0 -50 29.5 -80t78.5 -30q35 0 62.5 13.5t45.5 38.5v361h137v-521h-137v42q-30 -25 -67 -38.5t-80 -13.5q-90 0 -148 58.5t-58 149.5v323h137zM190 597l-84 18q13 61 41.5 91t72.5 30q21 0 41.5 -8t39 -17t35.5 -17t31 -8q16 0 26 12t17 42l83 -18
q-13 -61 -41.5 -91.5t-72.5 -30.5q-20 0 -40 8t-38.5 17t-36 17t-32.5 8q-16 0 -25.5 -12.5t-16.5 -40.5z" />
    <glyph glyph-name="wacute" unicode="&#x1e83;" horiz-adv-x="772" 
d="M10 0zM285 0h-132l-143 521h130l86 -337l104 337h115l103 -337l86 337h128l-144 -521h-131l-101 333zM406 738h156l-135 -130h-111z" />
    <glyph glyph-name="wdieresis" unicode="&#x1e85;" horiz-adv-x="772" 
d="M10 0zM285 0h-132l-143 521h130l86 -337l104 337h115l103 -337l86 337h128l-144 -521h-131l-101 333zM277 604q-31 0 -53 21t-22 52t21.5 51.5t53.5 20.5t53.5 -20.5t21.5 -51.5t-22 -52t-53 -21zM496 604q-32 0 -53.5 21t-21.5 52t21 51.5t54 20.5q32 0 53 -20.5
t21 -51.5t-21.5 -52t-52.5 -21z" />
    <glyph glyph-name="wgrave" unicode="&#x1e81;" horiz-adv-x="772" 
d="M10 0zM285 0h-132l-143 521h130l86 -337l104 337h115l103 -337l86 337h128l-144 -521h-131l-101 333zM371 738l88 -130h-111l-135 130h158z" />
    <glyph glyph-name="wcircumflex" unicode="&#x175;" horiz-adv-x="772" 
d="M10 0zM285 0h-132l-143 521h130l86 -337l104 337h115l103 -337l86 337h128l-144 -521h-131l-101 333zM460 605l-74 74l-74 -74h-110l115 136h140l115 -136h-112z" />
    <glyph glyph-name="yacute" unicode="&#xfd;" horiz-adv-x="576" 
d="M0 0zM195 -24l8 19l-203 526h151l129 -355l148 355h148l-240 -562q-40 -94 -93 -134t-138 -40q-18 0 -34.5 1.5t-26.5 4.5v118q10 -2 21 -3t27 -1q37 0 62.5 18t40.5 53zM307 738h156l-135 -130h-111z" />
    <glyph glyph-name="ycircumflex" unicode="&#x177;" horiz-adv-x="576" 
d="M0 0zM195 -24l8 19l-203 526h151l129 -355l148 355h148l-240 -562q-40 -94 -93 -134t-138 -40q-18 0 -34.5 1.5t-26.5 4.5v118q10 -2 21 -3t27 -1q37 0 62.5 18t40.5 53zM360 605l-74 74l-74 -74h-110l115 136h140l115 -136h-112z" />
    <glyph glyph-name="ydieresis" unicode="&#xff;" horiz-adv-x="576" 
d="M0 0zM195 -24l8 19l-203 526h151l129 -355l148 355h148l-240 -562q-40 -94 -93 -134t-138 -40q-18 0 -34.5 1.5t-26.5 4.5v118q10 -2 21 -3t27 -1q37 0 62.5 18t40.5 53zM177 604q-31 0 -53 21t-22 52t21.5 51.5t53.5 20.5t53.5 -20.5t21.5 -51.5t-22 -52t-53 -21z
M396 604q-32 0 -53.5 21t-21.5 52t21 51.5t54 20.5q32 0 53 -20.5t21 -51.5t-21.5 -52t-52.5 -21z" />
    <glyph glyph-name="ygrave" unicode="&#x1ef3;" horiz-adv-x="576" 
d="M0 0zM195 -24l8 19l-203 526h151l129 -355l148 355h148l-240 -562q-40 -94 -93 -134t-138 -40q-18 0 -34.5 1.5t-26.5 4.5v118q10 -2 21 -3t27 -1q37 0 62.5 18t40.5 53zM271 738l88 -130h-111l-135 130h158z" />
    <glyph glyph-name="zacute" unicode="&#x17a;" horiz-adv-x="499" 
d="M27 0zM27 0v97l262 309h-260v115h436v-97l-264 -309h270v-115h-444zM265 738h156l-135 -130h-111z" />
    <glyph glyph-name="zcaron" unicode="&#x17e;" horiz-adv-x="499" 
d="M27 0zM27 0v97l262 309h-260v115h436v-97l-264 -309h270v-115h-444zM172 741l74 -73l73 73h110l-115 -135h-140l-115 135h113z" />
    <glyph glyph-name="zdotaccent" unicode="&#x17c;" horiz-adv-x="499" 
d="M27 0zM27 0v97l262 309h-260v115h436v-97l-264 -309h270v-115h-444zM246 602q-32 0 -53.5 21t-21.5 52t21.5 51.5t53.5 20.5q31 0 52.5 -20.5t21.5 -51.5t-21.5 -52t-52.5 -21z" />
    <glyph glyph-name="ordfeminine" unicode="&#xaa;" horiz-adv-x="438" 
d="M172 301q-63 0 -103 33.5t-40 87.5q0 55 42.5 86.5t118.5 31.5q24 0 48 -3.5t46 -10.5v25q0 33 -20.5 49.5t-60.5 16.5q-23 0 -52 -8t-67 -24l-39 80q47 22 90.5 32.5t86.5 10.5q80 0 124.5 -39t44.5 -108v-254h-107v27q-25 -17 -52 -25t-60 -8zM132 424q0 -21 19 -33.5
t50 -12.5q24 0 45 5.5t38 17.5v56q-19 6 -38.5 9t-41.5 3q-34 0 -53 -12t-19 -33z" />
    <glyph glyph-name="ordmasculine" unicode="&#xba;" horiz-adv-x="483" 
d="M29 503q0 43 16.5 80.5t44.5 65t66.5 43.5t82.5 16t83 -16t67 -43.5t44.5 -65t16.5 -80.5q0 -42 -16.5 -79.5t-44.5 -64.5t-67 -43t-83 -16t-82.5 16t-66.5 43t-44.5 64.5t-16.5 79.5zM345 503q0 46 -30.5 78t-75.5 32q-43 0 -73.5 -32t-30.5 -78t30.5 -77.5t73.5 -31.5
q45 0 75.5 31.5t30.5 77.5z" />
    <glyph glyph-name="a.school" horiz-adv-x="632" 
d="M443 0v43q-31 -25 -69 -37.5t-79 -12.5q-55 0 -103.5 21t-84.5 57t-56.5 85t-20.5 105t21 105t57 85t85.5 56.5t105.5 20.5q38 0 74.5 -10.5t67.5 -30.5v34h137v-521h-135zM165 261q0 -63 44 -107t108 -44q38 0 69.5 13t54.5 37v203q-22 23 -54.5 36t-69.5 13
q-65 0 -108.5 -43.5t-43.5 -107.5z" />
    <glyph glyph-name="aacute.school" horiz-adv-x="632" 
d="M30 0zM443 0v43q-31 -25 -69 -37.5t-79 -12.5q-55 0 -103.5 21t-84.5 57t-56.5 85t-20.5 105t21 105t57 85t85.5 56.5t105.5 20.5q38 0 74.5 -10.5t67.5 -30.5v34h137v-521h-135zM165 261q0 -63 44 -107t108 -44q38 0 69.5 13t54.5 37v203q-22 23 -54.5 36t-69.5 13
q-65 0 -108.5 -43.5t-43.5 -107.5zM335 738h156l-135 -130h-111z" />
    <glyph glyph-name="abreve.school" horiz-adv-x="632" 
d="M30 0zM443 0v43q-31 -25 -69 -37.5t-79 -12.5q-55 0 -103.5 21t-84.5 57t-56.5 85t-20.5 105t21 105t57 85t85.5 56.5t105.5 20.5q38 0 74.5 -10.5t67.5 -30.5v34h137v-521h-135zM165 261q0 -63 44 -107t108 -44q38 0 69.5 13t54.5 37v203q-22 23 -54.5 36t-69.5 13
q-65 0 -108.5 -43.5t-43.5 -107.5zM314 677q34 0 57 20t35 60l84 -22q-16 -64 -62 -99.5t-114 -35.5q-67 0 -113 35.5t-62 99.5l84 22q13 -40 35.5 -60t55.5 -20z" />
    <glyph glyph-name="acircumflex.school" horiz-adv-x="632" 
d="M30 0zM443 0v43q-31 -25 -69 -37.5t-79 -12.5q-55 0 -103.5 21t-84.5 57t-56.5 85t-20.5 105t21 105t57 85t85.5 56.5t105.5 20.5q38 0 74.5 -10.5t67.5 -30.5v34h137v-521h-135zM165 261q0 -63 44 -107t108 -44q38 0 69.5 13t54.5 37v203q-22 23 -54.5 36t-69.5 13
q-65 0 -108.5 -43.5t-43.5 -107.5zM388 605l-74 74l-74 -74h-110l115 136h140l115 -136h-112z" />
    <glyph glyph-name="adieresis.school" horiz-adv-x="632" 
d="M30 0zM443 0v43q-31 -25 -69 -37.5t-79 -12.5q-55 0 -103.5 21t-84.5 57t-56.5 85t-20.5 105t21 105t57 85t85.5 56.5t105.5 20.5q38 0 74.5 -10.5t67.5 -30.5v34h137v-521h-135zM165 261q0 -63 44 -107t108 -44q38 0 69.5 13t54.5 37v203q-22 23 -54.5 36t-69.5 13
q-65 0 -108.5 -43.5t-43.5 -107.5zM206 604q-31 0 -53 21t-22 52t21.5 51.5t53.5 20.5t53.5 -20.5t21.5 -51.5t-22 -52t-53 -21zM425 604q-32 0 -53.5 21t-21.5 52t21 51.5t54 20.5q32 0 53 -20.5t21 -51.5t-21.5 -52t-52.5 -21z" />
    <glyph glyph-name="agrave.school" horiz-adv-x="632" 
d="M30 0zM443 0v43q-31 -25 -69 -37.5t-79 -12.5q-55 0 -103.5 21t-84.5 57t-56.5 85t-20.5 105t21 105t57 85t85.5 56.5t105.5 20.5q38 0 74.5 -10.5t67.5 -30.5v34h137v-521h-135zM165 261q0 -63 44 -107t108 -44q38 0 69.5 13t54.5 37v203q-22 23 -54.5 36t-69.5 13
q-65 0 -108.5 -43.5t-43.5 -107.5zM299 738l88 -130h-111l-135 130h158z" />
    <glyph glyph-name="amacron.school" horiz-adv-x="632" 
d="M30 0zM443 0v43q-31 -25 -69 -37.5t-79 -12.5q-55 0 -103.5 21t-84.5 57t-56.5 85t-20.5 105t21 105t57 85t85.5 56.5t105.5 20.5q38 0 74.5 -10.5t67.5 -30.5v34h137v-521h-135zM165 261q0 -63 44 -107t108 -44q38 0 69.5 13t54.5 37v203q-22 23 -54.5 36t-69.5 13
q-65 0 -108.5 -43.5t-43.5 -107.5zM478 713v-90h-320v90h320z" />
    <glyph glyph-name="aogonek.school" horiz-adv-x="632" 
d="M443 0v43q-31 -25 -69 -37.5t-79 -12.5q-55 0 -103.5 21t-84.5 57t-56.5 85t-20.5 105t21 105t57 85t85.5 56.5t105.5 20.5q38 0 74.5 -10.5t67.5 -30.5v34h137v-521q-46 -28 -68 -53.5t-22 -51.5q0 -21 13.5 -32.5t36.5 -11.5q10 0 21 3t19 9l19 -62q-17 -10 -39 -16
t-44 -6q-48 0 -77 25.5t-29 66.5q0 36 22 67t70 62h-57zM165 261q0 -63 44 -107t108 -44q38 0 69.5 13t54.5 37v203q-22 23 -54.5 36t-69.5 13q-65 0 -108.5 -43.5t-43.5 -107.5z" />
    <glyph glyph-name="aring.school" horiz-adv-x="632" 
d="M30 0zM443 0v43q-31 -25 -69 -37.5t-79 -12.5q-55 0 -103.5 21t-84.5 57t-56.5 85t-20.5 105t21 105t57 85t85.5 56.5t105.5 20.5q38 0 74.5 -10.5t67.5 -30.5v34h137v-521h-135zM165 261q0 -63 44 -107t108 -44q38 0 69.5 13t54.5 37v203q-22 23 -54.5 36t-69.5 13
q-65 0 -108.5 -43.5t-43.5 -107.5zM314 584q-51 0 -87 36t-36 87q0 50 36 85t87 35t87.5 -35t36.5 -85q0 -51 -36.5 -87t-87.5 -36zM314 643q26 0 43.5 18.5t17.5 45.5q0 25 -18 43t-43 18t-42.5 -18t-17.5 -43q0 -28 17.5 -46t42.5 -18z" />
    <glyph glyph-name="atilde.school" horiz-adv-x="632" 
d="M30 0zM443 0v43q-31 -25 -69 -37.5t-79 -12.5q-55 0 -103.5 21t-84.5 57t-56.5 85t-20.5 105t21 105t57 85t85.5 56.5t105.5 20.5q38 0 74.5 -10.5t67.5 -30.5v34h137v-521h-135zM165 261q0 -63 44 -107t108 -44q38 0 69.5 13t54.5 37v203q-22 23 -54.5 36t-69.5 13
q-65 0 -108.5 -43.5t-43.5 -107.5zM208 597l-84 18q13 61 41.5 91t72.5 30q21 0 41.5 -8t39 -17t35.5 -17t31 -8q16 0 26 12t17 42l83 -18q-13 -61 -41.5 -91.5t-72.5 -30.5q-20 0 -40 8t-38.5 17t-36 17t-32.5 8q-16 0 -25.5 -12.5t-16.5 -40.5z" />
    <glyph glyph-name="g.alt" horiz-adv-x="600" 
d="M53 335q0 41 18 76.5t50 62t75 42t92 15.5q43 0 82 -12t69 -34q24 36 55.5 54.5t67.5 18.5q10 0 18 -1.5t15 -3.5l2 -103q-7 1 -17 2t-20 1q-19 0 -38 -3.5t-35 -10.5q16 -22 25.5 -49t9.5 -55q0 -41 -18 -76.5t-49 -61t-74 -40t-93 -14.5q-14 0 -27.5 1.5t-26.5 3.5
q-15 -5 -23.5 -13.5t-8.5 -19.5q0 -16 13.5 -24.5t41.5 -9.5l175 -5q75 -1 117.5 -33.5t42.5 -87.5q0 -39 -22 -71t-62.5 -54.5t-99 -34.5t-129.5 -12q-126 0 -193 31t-67 90q0 33 27 59t73 40q-17 13 -26 32t-9 41q0 32 20 57.5t55 39.5q-49 25 -77.5 68t-28.5 94zM394 335
q0 40 -30.5 67t-75.5 27q-46 0 -76 -27t-30 -67q0 -41 30 -68t76 -27q45 0 75.5 27.5t30.5 67.5zM143 -78q0 -27 34 -40.5t100 -13.5q82 0 130 16.5t48 44.5q0 14 -11.5 22.5t-33.5 8.5l-151 4q-16 1 -31 2.5t-28 3.5q-27 -6 -42 -18.5t-15 -29.5z" />
    <glyph glyph-name="gbreve.alt" horiz-adv-x="600" 
d="M19 0zM53 335q0 41 18 76.5t50 62t75 42t92 15.5q43 0 82 -12t69 -34q24 36 55.5 54.5t67.5 18.5q10 0 18 -1.5t15 -3.5l2 -103q-7 1 -17 2t-20 1q-19 0 -38 -3.5t-35 -10.5q16 -22 25.5 -49t9.5 -55q0 -41 -18 -76.5t-49 -61t-74 -40t-93 -14.5q-14 0 -27.5 1.5
t-26.5 3.5q-15 -5 -23.5 -13.5t-8.5 -19.5q0 -16 13.5 -24.5t41.5 -9.5l175 -5q75 -1 117.5 -33.5t42.5 -87.5q0 -39 -22 -71t-62.5 -54.5t-99 -34.5t-129.5 -12q-126 0 -193 31t-67 90q0 33 27 59t73 40q-17 13 -26 32t-9 41q0 32 20 57.5t55 39.5q-49 25 -77.5 68
t-28.5 94zM394 335q0 40 -30.5 67t-75.5 27q-46 0 -76 -27t-30 -67q0 -41 30 -68t76 -27q45 0 75.5 27.5t30.5 67.5zM143 -78q0 -27 34 -40.5t100 -13.5q82 0 130 16.5t48 44.5q0 14 -11.5 22.5t-33.5 8.5l-151 4q-16 1 -31 2.5t-28 3.5q-27 -6 -42 -18.5t-15 -29.5z
M288 677q34 0 57 20t35 60l84 -22q-16 -64 -62 -99.5t-114 -35.5q-67 0 -113 35.5t-62 99.5l84 22q13 -40 35.5 -60t55.5 -20z" />
    <glyph glyph-name="gcircumflex.alt" horiz-adv-x="600" 
d="M19 0zM53 335q0 41 18 76.5t50 62t75 42t92 15.5q43 0 82 -12t69 -34q24 36 55.5 54.5t67.5 18.5q10 0 18 -1.5t15 -3.5l2 -103q-7 1 -17 2t-20 1q-19 0 -38 -3.5t-35 -10.5q16 -22 25.5 -49t9.5 -55q0 -41 -18 -76.5t-49 -61t-74 -40t-93 -14.5q-14 0 -27.5 1.5
t-26.5 3.5q-15 -5 -23.5 -13.5t-8.5 -19.5q0 -16 13.5 -24.5t41.5 -9.5l175 -5q75 -1 117.5 -33.5t42.5 -87.5q0 -39 -22 -71t-62.5 -54.5t-99 -34.5t-129.5 -12q-126 0 -193 31t-67 90q0 33 27 59t73 40q-17 13 -26 32t-9 41q0 32 20 57.5t55 39.5q-49 25 -77.5 68
t-28.5 94zM394 335q0 40 -30.5 67t-75.5 27q-46 0 -76 -27t-30 -67q0 -41 30 -68t76 -27q45 0 75.5 27.5t30.5 67.5zM143 -78q0 -27 34 -40.5t100 -13.5q82 0 130 16.5t48 44.5q0 14 -11.5 22.5t-33.5 8.5l-151 4q-16 1 -31 2.5t-28 3.5q-27 -6 -42 -18.5t-15 -29.5z
M362 605l-74 74l-74 -74h-110l115 136h140l115 -136h-112z" />
    <glyph glyph-name="gcommaaccent.alt" horiz-adv-x="600" 
d="M362 611h-129l81 205h99zM53 335q0 41 18 76.5t50 62t75 42t92 15.5q43 0 82 -12t69 -34q24 36 55.5 54.5t67.5 18.5q10 0 18 -1.5t15 -3.5l2 -103q-7 1 -17 2t-20 1q-19 0 -38 -3.5t-35 -10.5q16 -22 25.5 -49t9.5 -55q0 -41 -18 -76.5t-49 -61t-74 -40t-93 -14.5
q-14 0 -27.5 1.5t-26.5 3.5q-15 -5 -23.5 -13.5t-8.5 -19.5q0 -16 13.5 -24.5t41.5 -9.5l175 -5q75 -1 117.5 -33.5t42.5 -87.5q0 -39 -22 -71t-62.5 -54.5t-99 -34.5t-129.5 -12q-126 0 -193 31t-67 90q0 33 27 59t73 40q-17 13 -26 32t-9 41q0 32 20 57.5t55 39.5
q-49 25 -77.5 68t-28.5 94zM394 335q0 40 -30.5 67t-75.5 27q-46 0 -76 -27t-30 -67q0 -41 30 -68t76 -27q45 0 75.5 27.5t30.5 67.5zM143 -78q0 -27 34 -40.5t100 -13.5q82 0 130 16.5t48 44.5q0 14 -11.5 22.5t-33.5 8.5l-151 4q-16 1 -31 2.5t-28 3.5q-27 -6 -42 -18.5
t-15 -29.5z" />
    <glyph glyph-name="gdotaccent.alt" horiz-adv-x="600" 
d="M19 0zM53 335q0 41 18 76.5t50 62t75 42t92 15.5q43 0 82 -12t69 -34q24 36 55.5 54.5t67.5 18.5q10 0 18 -1.5t15 -3.5l2 -103q-7 1 -17 2t-20 1q-19 0 -38 -3.5t-35 -10.5q16 -22 25.5 -49t9.5 -55q0 -41 -18 -76.5t-49 -61t-74 -40t-93 -14.5q-14 0 -27.5 1.5
t-26.5 3.5q-15 -5 -23.5 -13.5t-8.5 -19.5q0 -16 13.5 -24.5t41.5 -9.5l175 -5q75 -1 117.5 -33.5t42.5 -87.5q0 -39 -22 -71t-62.5 -54.5t-99 -34.5t-129.5 -12q-126 0 -193 31t-67 90q0 33 27 59t73 40q-17 13 -26 32t-9 41q0 32 20 57.5t55 39.5q-49 25 -77.5 68
t-28.5 94zM394 335q0 40 -30.5 67t-75.5 27q-46 0 -76 -27t-30 -67q0 -41 30 -68t76 -27q45 0 75.5 27.5t30.5 67.5zM143 -78q0 -27 34 -40.5t100 -13.5q82 0 130 16.5t48 44.5q0 14 -11.5 22.5t-33.5 8.5l-151 4q-16 1 -31 2.5t-28 3.5q-27 -6 -42 -18.5t-15 -29.5z
M289 602q-32 0 -53.5 21t-21.5 52t21.5 51.5t53.5 20.5q31 0 52.5 -20.5t21.5 -51.5t-21.5 -52t-52.5 -21z" />
    <glyph glyph-name="fi" unicode="&#xfb01;" horiz-adv-x="672" 
d="M18 0zM18 521h116v50q0 87 51 134t147 47q21 0 43 -2.5t38 -6.5v-115q-19 4 -33.5 6t-30.5 2q-39 0 -58.5 -17t-19.5 -51v-47h142v-115h-142v-406h-137v406h-116v115zM553 583q-32 0 -55 23t-23 55t23 55t55 23t55 -23t23 -55t-23 -55t-55 -23zM622 521v-521h-137v521
h137z" />
    <glyph glyph-name="fl" unicode="&#xfb02;" horiz-adv-x="672" 
d="M18 0zM18 521h116v50q0 87 51 134t147 47q21 0 43 -2.5t38 -6.5v-115q-19 4 -33.5 6t-30.5 2q-39 0 -58.5 -17t-19.5 -51v-47h142v-115h-142v-406h-137v406h-116v115zM622 730v-730h-137v700z" />
    <glyph glyph-name="ampersand" unicode="&#x26;" horiz-adv-x="684" 
d="M659 77l-82 -97q-24 18 -48.5 37.5t-49.5 39.5q-43 -33 -95.5 -50t-112.5 -17q-110 0 -178.5 55t-68.5 144q0 65 31.5 109t104.5 84q-31 41 -44.5 77t-13.5 76q0 75 56 126t140 51q81 0 135 -47t54 -118q0 -46 -24.5 -84t-74.5 -68l-51 -31q29 -31 63 -64.5t70 -66.5
q19 33 33 72.5t23 85.5l118 -19q-15 -66 -36 -120t-48 -96q25 -22 50.5 -42t48.5 -37zM225 538q0 -22 10 -43.5t36 -53.5l41 25q27 16 39 34.5t12 42.5q0 28 -20 47.5t-49 19.5q-30 0 -49.5 -20.5t-19.5 -51.5zM151 199q0 -46 35 -73.5t95 -27.5q31 0 59 8.5t53 25.5
q-45 41 -87.5 84t-79.5 85q-40 -23 -57.5 -47t-17.5 -55z" />
    <glyph glyph-name="grave" unicode="`" horiz-adv-x="517" 
d="M285 738l88 -130h-111l-135 130h158z" />
    <glyph glyph-name="acute" unicode="&#xb4;" horiz-adv-x="517" 
d="M244 738h156l-135 -130h-111z" />
    <glyph glyph-name="circumflex" unicode="&#x2c6;" horiz-adv-x="517" 
d="M332 605l-74 74l-74 -74h-110l115 136h140l115 -136h-112z" />
    <glyph glyph-name="tilde" unicode="&#x2dc;" horiz-adv-x="517" 
d="M150 597l-84 18q13 61 41.5 91t72.5 30q21 0 41.5 -8t39 -17t35.5 -17t31 -8q16 0 26 12t17 42l83 -18q-13 -61 -41.5 -91.5t-72.5 -30.5q-20 0 -40 8t-38.5 17t-36 17t-32.5 8q-16 0 -25.5 -12.5t-16.5 -40.5z" />
    <glyph glyph-name="macron" unicode="&#xaf;" horiz-adv-x="517" 
d="M422 713v-90h-320v90h320z" />
    <glyph glyph-name="breve" unicode="&#x2d8;" horiz-adv-x="517" 
d="M258 677q34 0 57 20t35 60l84 -22q-16 -64 -62 -99.5t-114 -35.5q-67 0 -113 35.5t-62 99.5l84 22q13 -40 35.5 -60t55.5 -20z" />
    <glyph glyph-name="dotaccent" unicode="&#x2d9;" horiz-adv-x="290" 
d="M146 602q-32 0 -53.5 21t-21.5 52t21.5 51.5t53.5 20.5q31 0 52.5 -20.5t21.5 -51.5t-21.5 -52t-52.5 -21z" />
    <glyph glyph-name="dieresis" unicode="&#xa8;" horiz-adv-x="588" 
d="M185 604q-31 0 -53 21t-22 52t21.5 51.5t53.5 20.5t53.5 -20.5t21.5 -51.5t-22 -52t-53 -21zM404 604q-32 0 -53.5 21t-21.5 52t21 51.5t54 20.5q32 0 53 -20.5t21 -51.5t-21.5 -52t-52.5 -21z" />
    <glyph glyph-name="ring" unicode="&#x2da;" horiz-adv-x="517" 
d="M258 584q-51 0 -87 36t-36 87q0 50 36 85t87 35t87.5 -35t36.5 -85q0 -51 -36.5 -87t-87.5 -36zM258 643q26 0 43.5 18.5t17.5 45.5q0 25 -18 43t-43 18t-42.5 -18t-17.5 -43q0 -28 17.5 -46t42.5 -18z" />
    <glyph glyph-name="hungarumlaut" unicode="&#x2dd;" horiz-adv-x="548" 
d="M187 737h137l-132 -127h-106zM394 737h138l-142 -127h-97z" />
    <glyph glyph-name="caron" unicode="&#x2c7;" horiz-adv-x="517" 
d="M187 741l74 -73l73 73h110l-115 -135h-140l-115 135h113z" />
    <glyph glyph-name="caronSlovak" horiz-adv-x="317" 
d="M117 720h133l-50 -242h-91z" />
    <glyph glyph-name="uni00200326" horiz-adv-x="265" 
d="M68 -81h129l-81 -205h-99z" />
    <glyph glyph-name="cedilla" unicode="&#xb8;" horiz-adv-x="517" 
d="M403 -135q0 -43 -37.5 -72t-94.5 -29q-37 0 -68.5 11.5t-56.5 33.5l45 48q18 -14 37.5 -21.5t40.5 -7.5q26 0 40 10t14 28q0 17 -14.5 27t-39.5 10h-42l28 97h67l-14 -46q43 -4 69 -28t26 -61z" />
    <glyph glyph-name="ogonek" unicode="&#x2db;" horiz-adv-x="517" 
d="M327 0q-46 -28 -68 -53.5t-22 -51.5q0 -21 13.5 -32.5t36.5 -11.5q10 0 21 3t19 9l19 -62q-17 -10 -39 -16t-44 -6q-48 0 -77 25.5t-29 66.5q0 42 30 77.5t96 71.5z" />
    <glyph glyph-name="period" unicode="." horiz-adv-x="241" 
d="M120 153q34 0 58 -24t24 -58q0 -33 -24 -57t-58 -24q-33 0 -57 24t-24 57q0 34 24 58t57 24z" />
    <glyph glyph-name="comma" unicode="," horiz-adv-x="241" 
d="M67 112h142l-108 -263h-103z" />
    <glyph glyph-name="colon" unicode=":" horiz-adv-x="241" 
d="M39 0zM120 153q34 0 58 -24t24 -58q0 -33 -24 -57t-58 -24q-33 0 -57 24t-24 57q0 34 24 58t57 24zM120 531q34 0 58 -24t24 -58q0 -33 -24 -57t-58 -24q-33 0 -57 24t-24 57q0 34 24 58t57 24z" />
    <glyph glyph-name="semicolon" unicode=";" horiz-adv-x="245" 
d="M0 0zM132 531q34 0 58 -24t24 -58q0 -33 -24 -57t-58 -24q-33 0 -57 24t-24 57q0 34 24 58t57 24zM61 112h142l-108 -263h-103z" />
    <glyph glyph-name="ellipsis" unicode="&#x2026;" horiz-adv-x="698" 
d="M39 0zM120 153q34 0 58 -24t24 -58q0 -33 -24 -57t-58 -24q-33 0 -57 24t-24 57q0 34 24 58t57 24zM349 153q34 0 58 -24t24 -58q0 -33 -24 -57t-58 -24q-33 0 -57 24t-24 57q0 34 24 58t57 24zM577 153q34 0 58 -24t24 -58q0 -33 -24 -57t-58 -24q-33 0 -57 24t-24 57
q0 34 24 58t57 24z" />
    <glyph glyph-name="exclam" unicode="!" horiz-adv-x="241" 
d="M68 210l-17 527h139l-17 -527h-105zM120 -10q-33 0 -57 24t-24 57q0 34 24 58t57 24q34 0 58 -24t24 -58q0 -33 -24 -57t-58 -24z" />
    <glyph glyph-name="exclamdown" unicode="&#xa1;" horiz-adv-x="241" 
d="M173 492l17 -527h-139l17 527h105zM121 712q33 0 57 -24t24 -57q0 -34 -24 -58t-57 -24q-34 0 -58 24t-24 58q0 33 24 57t58 24z" />
    <glyph glyph-name="question" unicode="?" horiz-adv-x="526" 
d="M376 344l-27 -19q-31 -22 -43.5 -47.5t-11.5 -65.5h-115q-4 69 13 109t64 75l51 37q31 22 45 41.5t14 41.5q0 34 -30.5 56.5t-76.5 22.5t-83.5 -22.5t-57.5 -62.5l-110 46q33 71 101.5 112.5t154.5 41.5q50 0 93.5 -14t75 -39t49.5 -59t18 -74q0 -54 -27.5 -93t-96.5 -87
zM237 153q34 0 57.5 -24t23.5 -58q0 -33 -23.5 -57t-57.5 -24q-33 0 -57 24t-24 57q0 34 24 58t57 24z" />
    <glyph glyph-name="questiondown" unicode="&#xbf;" horiz-adv-x="526" 
d="M139 357l27 19q31 22 43.5 47.5t11.5 65.5h115q4 -69 -13 -109t-64 -75l-51 -37q-31 -22 -45 -41.5t-14 -41.5q0 -34 30.5 -56.5t76.5 -22.5t83.5 22.5t57.5 62.5l110 -46q-33 -71 -101.5 -112.5t-154.5 -41.5q-50 0 -93.5 14t-75 39t-49.5 59t-18 74q0 54 27.5 93
t96.5 87zM278 548q-34 0 -57.5 24t-23.5 58q0 33 23.5 57t57.5 24q33 0 57 -24t24 -57q0 -34 -24 -58t-57 -24z" />
    <glyph glyph-name="quoteleft" unicode="&#x2018;" horiz-adv-x="241" 
d="M157 478h-142l108 263h103z" />
    <glyph glyph-name="quoteright" unicode="&#x2019;" horiz-adv-x="241" 
d="M27 478zM96 741h142l-108 -263h-103z" />
    <glyph glyph-name="quotedblleft" unicode="&#x201c;" horiz-adv-x="433" 
d="M157 478h-142l108 263h103zM348 478h-142l108 263h103z" />
    <glyph glyph-name="quotedblright" unicode="&#x201d;" horiz-adv-x="433" 
d="M27 478zM288 741h142l-108 -263h-103zM96 741h142l-108 -263h-103z" />
    <glyph glyph-name="quotesinglbase" unicode="&#x201a;" horiz-adv-x="241" 
d="M0 0zM67 112h142l-108 -263h-103z" />
    <glyph glyph-name="quotedblbase" unicode="&#x201e;" horiz-adv-x="433" 
d="M0 0zM259 112h142l-108 -263h-103zM67 112h142l-108 -263h-103z" />
    <glyph glyph-name="reversequoteleft" horiz-adv-x="241" 
d="M157 741l69 -263h-103l-108 263h142z" />
    <glyph glyph-name="reversequotedblleft" horiz-adv-x="433" 
d="M157 741l69 -263h-103l-108 263h142zM349 741l69 -263h-104l-107 263h142z" />
    <glyph glyph-name="guilsinglleft" unicode="&#x2039;" horiz-adv-x="431" 
d="M401 521l-236 -259l239 -262h-143l-242 261l242 260h140z" />
    <glyph glyph-name="guilsinglright" unicode="&#x203a;" horiz-adv-x="431" 
d="M30 0l236 259l-239 262h143l242 -261l-242 -260h-140z" />
    <glyph glyph-name="guillemotleft" unicode="&#xab;" horiz-adv-x="679" 
d="M19 0zM401 521l-236 -259l239 -262h-143l-242 261l242 260h140zM648 521l-236 -259l239 -262h-143l-242 261l242 260h140z" />
    <glyph glyph-name="guillemotright" unicode="&#xbb;" horiz-adv-x="679" 
d="M278 0l236 259l-239 262h143l242 -261l-242 -260h-140zM30 0l236 259l-239 262h143l242 -261l-242 -260h-140z" />
    <glyph glyph-name="slash" unicode="/" horiz-adv-x="510" 
d="M-71 -209l423 909h138l-423 -909h-138z" />
    <glyph glyph-name="backslash" unicode="\" horiz-adv-x="518" 
d="M588 -209h-144l-423 909h144z" />
    <glyph glyph-name="bar" unicode="|" horiz-adv-x="324" 
d="M99 -212v912h127v-912h-127z" />
    <glyph glyph-name="bullet" unicode="&#x2022;" horiz-adv-x="355" 
d="M177 216q-49 0 -83 33.5t-34 81.5q0 49 34 82.5t83 33.5t83.5 -33.5t34.5 -82.5q0 -48 -34.5 -81.5t-83.5 -33.5z" />
    <glyph glyph-name="uni2002" unicode="&#x2002;" horiz-adv-x="500" 
 />
    <glyph glyph-name="uni2003" unicode="&#x2003;" horiz-adv-x="1000" 
 />
    <glyph glyph-name="uni2009" unicode="&#x2009;" horiz-adv-x="175" 
 />
    <glyph glyph-name="uni200A" unicode="&#x200a;" horiz-adv-x="100" 
 />
    <glyph glyph-name="uni200B" unicode="&#x200b;" horiz-adv-x="0" 
 />
    <glyph glyph-name="periodcentered" unicode="&#xb7;" horiz-adv-x="241" 
d="M39 204zM120 367q34 0 58 -24t24 -58q0 -33 -24 -57t-58 -24q-33 0 -57 24t-24 57q0 34 24 58t57 24z" />
    <glyph glyph-name="hyphen" unicode="-" horiz-adv-x="459" 
d="M41 343h376v-116h-376v116z" />
    <glyph glyph-name="endash" unicode="&#x2013;" horiz-adv-x="559" 
d="M41 343h476v-116h-476v116z" />
    <glyph glyph-name="emdash" unicode="&#x2014;" horiz-adv-x="709" 
d="M41 343h626v-116h-626v116z" />
    <glyph glyph-name="uni2015" unicode="&#x2015;" horiz-adv-x="959" 
d="M41 343h876v-116h-876v116z" />
    <glyph glyph-name="periodcentered.cap" horiz-adv-x="241" 
d="M39 269zM39 269zM120 432q34 0 58 -24t24 -58q0 -33 -24 -57t-58 -24q-33 0 -57 24t-24 57q0 34 24 58t57 24z" />
    <glyph glyph-name="hyphen.cap" horiz-adv-x="459" 
d="M41 292zM41 408h376v-116h-376v116z" />
    <glyph glyph-name="endash.cap" horiz-adv-x="559" 
d="M41 292zM41 408h476v-116h-476v116z" />
    <glyph glyph-name="emdash.cap" horiz-adv-x="709" 
d="M41 292zM41 408h626v-116h-626v116z" />
    <glyph glyph-name="uni2015.cap" horiz-adv-x="959" 
d="M41 292zM41 408h876v-116h-876v116z" />
    <glyph glyph-name="parenleft" unicode="(" horiz-adv-x="412" 
d="M53 247q0 152 67 273t192 194l76 -86q-101 -62 -154.5 -160t-53.5 -221q0 -122 53.5 -220t154.5 -160l-76 -86q-125 73 -192 193.5t-67 272.5z" />
    <glyph glyph-name="parenright" unicode=")" horiz-adv-x="412" 
d="M359 248q0 -152 -67 -273t-192 -194l-76 86q101 62 154.5 160t53.5 221q0 122 -53.5 220t-154.5 160l76 86q125 -73 192 -193.5t67 -272.5z" />
    <glyph glyph-name="bracketleft" unicode="[" horiz-adv-x="394" 
d="M356 -213h-300v913h300v-107h-170v-698h170v-108z" />
    <glyph glyph-name="bracketright" unicode="]" horiz-adv-x="394" 
d="M38 700h300v-913h-300v107h170v698h-170v108z" />
    <glyph glyph-name="braceleft" unicode="{" horiz-adv-x="429" 
d="M289 85l-37 -100q-16 -42 -0.5 -70t55.5 -28q16 0 31 2.5t31 8.5l20 -99q-25 -8 -49.5 -12.5t-49.5 -4.5q-50 0 -87 16t-58.5 44t-25 66t12.5 82l34 91q19 49 0 81.5t-67 32.5h-83v102h83q48 0 67 32.5t0 81.5l-34 91q-16 44 -12.5 82.5t25 66t58.5 43.5t87 16
q25 0 49.5 -4.5t49.5 -12.5l-20 -98q-16 5 -31 8t-31 3q-40 -1 -55.5 -29t0.5 -70l37 -100q21 -57 -8.5 -102.5t-92.5 -58.5q63 -13 92.5 -58.5t8.5 -102.5z" />
    <glyph glyph-name="braceright" unicode="}" horiz-adv-x="429" 
d="M140 408l37 100q16 42 0.5 70t-55.5 28q-16 0 -31 -2.5t-31 -8.5l-20 99q25 8 49.5 12.5t49.5 4.5q50 0 87 -16t58.5 -44t25 -66t-12.5 -82l-34 -91q-19 -49 0 -81.5t67 -32.5h83v-102h-83q-48 0 -67 -32.5t0 -81.5l34 -91q16 -44 12.5 -82.5t-25 -66t-58.5 -43.5
t-87 -16q-25 0 -49.5 4.5t-49.5 12.5l20 98q16 -5 31 -8t31 -3q40 1 55.5 29t-0.5 70l-37 100q-21 57 8.5 102.5t92.5 58.5q-63 13 -92.5 58.5t-8.5 102.5z" />
    <glyph glyph-name="asterisk" unicode="*" horiz-adv-x="475" 
d="M384 367l-103 65l2 -116h-89l2 116l-105 -65l-48 75l113 66l-113 67l49 74l104 -65l-2 116h89l-2 -117l104 66l49 -74l-113 -67l113 -66z" />
    <glyph glyph-name="dagger" unicode="&#x2020;" horiz-adv-x="449" 
d="M170 0v413h-121v106h121v181h111v-181h120v-106h-120v-413h-111z" />
    <glyph glyph-name="daggerdbl" unicode="&#x2021;" horiz-adv-x="449" 
d="M170 0v181h-121v106h121v126h-121v106h121v181h111v-181h120v-106h-120v-126h120v-106h-120v-181h-111z" />
    <glyph glyph-name="section" unicode="&#xa7;" horiz-adv-x="579" 
d="M478 100q0 -69 -54.5 -111.5t-144.5 -42.5q-53 0 -104.5 14.5t-96.5 41.5l53 82q43 -25 80 -37.5t70 -11.5q34 0 54 15t20 40q0 19 -13.5 33t-45.5 25l-106 35q-84 28 -118 61.5t-34 90.5q0 46 25.5 80t70.5 52q-17 17 -25.5 39t-8.5 48q0 70 55.5 113t145.5 43
q51 0 102 -14t98 -42l-52 -82q-43 25 -80.5 37t-69.5 12q-35 0 -55 -15t-20 -41q0 -19 14 -33t46 -24l104 -35q84 -28 118.5 -62t34.5 -90q0 -46 -25 -80.5t-70 -53.5q16 -17 24 -39t8 -48zM221 283l136 -44q32 4 51 22t19 44q0 23 -16.5 40t-52.5 28l-136 43
q-32 -4 -51 -22t-19 -44q0 -23 16 -38.5t53 -28.5z" />
    <glyph glyph-name="paragraph" unicode="&#xb6;" horiz-adv-x="700" 
d="M314 0v253h-38q-54 0 -100 16t-79 45t-51.5 69.5t-18.5 89.5q0 102 68.5 164.5t180.5 62.5h359v-700h-113v253h-96v-253h-112zM522 361v228h-96v-228h96zM271 361h43v228h-43q-54 0 -88 -31t-34 -82t34 -83t88 -32z" />
    <glyph glyph-name="asciicircum" unicode="^" horiz-adv-x="553" 
d="M34 350l184 350h117l184 -350h-113l-129 248l-130 -248h-113z" />
    <glyph glyph-name="asciitilde" unicode="~" horiz-adv-x="607" 
d="M269 441l89 -42q22 -10 36 -14.5t25 -4.5q28 0 44 19.5t21 59.5l96 -11q-10 -81 -48.5 -125.5t-98.5 -44.5q-22 0 -46.5 6t-49.5 19l-88 42q-23 10 -37 14.5t-25 4.5q-27 0 -43 -19.5t-21 -59.5l-96 11q10 81 48.5 125.5t98.5 44.5q22 0 46.5 -6t48.5 -19z" />
    <glyph glyph-name="underscore" unicode="_" horiz-adv-x="494" 
d="M495 -80v-96h-496v96h496z" />
    <glyph glyph-name="quotesingle" unicode="'" horiz-adv-x="251" 
d="M76 425l-17 280h133l-16 -280h-100z" />
    <glyph glyph-name="quotedbl" unicode="&#x22;" horiz-adv-x="435" 
d="M59 425zM76 425l-17 280h133l-16 -280h-100zM261 425l-17 280h133l-16 -280h-100z" />
    <glyph glyph-name="at" unicode="@" horiz-adv-x="788" 
d="M352 48q-61 0 -103 45t-42 110q0 38 14 71.5t37.5 58t56 39t69.5 14.5q27 0 51 -8.5t42 -24.5l4 19h90l-43 -203q-6 -27 6 -41.5t38 -14.5q47 0 77 44.5t30 113.5q0 54 -20.5 100t-57 80t-86.5 53t-108 19q-63 0 -118 -24t-94.5 -65.5t-62.5 -98.5t-23 -122t22 -119
t62 -93t95.5 -60.5t121.5 -21.5q46 0 87.5 9t77.5 28l26 -56q-47 -22 -94 -33t-97 -11q-79 0 -147 26.5t-117 73t-77 111.5t-28 140q0 80 28 148.5t77 118.5t117 78.5t147 28.5q71 0 133 -23.5t107.5 -64.5t71.5 -97t26 -120q0 -50 -14 -92t-39 -72t-60 -47t-76 -17
q-36 0 -62 11t-40 30q-23 -19 -50 -30t-55 -11zM293 210q0 -39 22.5 -63.5t57.5 -24.5q18 0 35 6.5t31 19.5q0 6 1 14.5t3 18.5l18 92q-12 18 -31 27.5t-44 9.5q-37 0 -65 -29.5t-28 -70.5z" />
    <glyph glyph-name="at.cap" horiz-adv-x="799" 
d="M41 0zM352 179q-61 0 -103 45t-42 110q0 38 14 71.5t37.5 58t56 39t69.5 14.5q27 0 51 -8.5t42 -24.5l4 19h90l-43 -203q-6 -27 6 -41.5t38 -14.5q47 0 77 44.5t30 113.5q0 54 -20.5 100t-57 80t-86.5 53t-108 19q-63 0 -118 -24t-94.5 -65.5t-62.5 -98.5t-23 -122
t22 -119t62 -93t95.5 -60.5t121.5 -21.5q46 0 87.5 9t77.5 28l26 -56q-47 -22 -94 -33t-97 -11q-79 0 -147 26.5t-117 73t-77 111.5t-28 140q0 80 28 148.5t77 118.5t117 78.5t147 28.5q71 0 133 -23.5t107.5 -64.5t71.5 -97t26 -120q0 -50 -14 -92t-39 -72t-60 -47t-76 -17
q-36 0 -62 11t-40 30q-23 -19 -50 -30t-55 -11zM293 341q0 -39 22.5 -63.5t57.5 -24.5q18 0 35 6.5t31 19.5q0 6 1 14.5t3 18.5l18 92q-12 18 -31 27.5t-44 9.5q-37 0 -65 -29.5t-28 -70.5z" />
    <glyph glyph-name="copyright" unicode="&#xa9;" horiz-adv-x="789" 
d="M36 350q0 75 28 141.5t76 115t113.5 76.5t140.5 28t140.5 -28t113.5 -76.5t76 -115t28 -141.5t-28 -141.5t-76 -115t-113.5 -76.5t-140.5 -28t-140.5 28t-113.5 76.5t-76 115t-28 141.5zM688 350q0 62 -23 117.5t-63 96t-93.5 64t-114.5 23.5t-114.5 -23.5t-93 -64
t-62.5 -96t-23 -117.5t23 -117.5t62.5 -96t93 -64t114.5 -23.5t114.5 23.5t93.5 64t63 96t23 117.5zM211 351q0 40 15 74.5t40.5 60t60.5 40t75 14.5q43 0 83 -17t68 -48l-59 -62q-20 22 -42 32.5t-47 10.5q-41 0 -69 -30t-28 -75t28 -74.5t70 -29.5q25 0 46 10t40 31
l58 -61q-28 -31 -66.5 -48t-81.5 -17q-40 0 -75 14.5t-60.5 40t-40.5 60t-15 74.5z" />
    <glyph glyph-name="registered" unicode="&#xae;" horiz-adv-x="487" 
d="M243 306q-43 0 -80.5 16t-65 44t-43.5 66t-16 81t16 81t43.5 66t65 44t80.5 16t80.5 -16t65 -44t43.5 -66t16 -81t-16 -81t-43.5 -66t-65 -44t-80.5 -16zM242 351q69 0 113.5 46t44.5 116t-44.5 116t-113.5 46q-67 0 -111 -46t-44 -116t44 -116t111 -46zM171 420v188h85
q30 0 47 -16.5t17 -43.5q0 -16 -8.5 -30t-24.5 -22l44 -76h-52l-35 66h-26v-66h-47zM246 571h-28v-51h28q12 0 19.5 7t7.5 19t-7 18.5t-20 6.5z" />
    <glyph glyph-name="trademark" unicode="&#x2122;" horiz-adv-x="689" 
d="M328 700h85l73 -148l73 148h85v-279h-67l2 197l-93 -179l-95 178l1 -196h-64v279zM26 700h257v-59h-93v-220h-71v220h-93v59z" />
    <glyph glyph-name="Euro" unicode="&#x20ac;" horiz-adv-x="790" 
d="M241 350v-16t1 -15h223l-27 -70h-181q25 -68 81 -108t134 -40q59 0 111 23t81 63l91 -69q-48 -63 -120.5 -96t-162.5 -33q-131 0 -224.5 71.5t-123.5 188.5h-89v70h78q-1 7 -1 15v16v16t1 15h-78v71h89q30 116 124 187.5t225 71.5q91 0 163.5 -33t119.5 -96l-93 -70
q-29 41 -79.5 64t-110.5 23q-78 0 -134 -39.5t-81 -107.5h256l-27 -71h-245q-1 -7 -1 -15v-16z" />
    <glyph glyph-name="dollar" unicode="$" horiz-adv-x="601" 
d="M258 -75v94q-73 6 -138 34t-114 74l71 97q38 -37 85 -60.5t96 -31.5v162l-55 11q-97 18 -139.5 60t-42.5 120q0 90 63.5 143t173.5 57v74h66v-77q60 -6 120.5 -26.5t111.5 -52.5l-58 -105q-46 28 -90 45t-84 24v-159l53 -9q104 -20 151 -61.5t47 -115.5q0 -89 -67.5 -144
t-183.5 -60v-93h-66zM252 417l6 -1v156q-50 -1 -80 -22t-30 -54q0 -37 21 -53t83 -26zM328 287l-4 1v-160q54 4 86.5 26t32.5 56q0 35 -23 50.5t-92 26.5z" />
    <glyph glyph-name="cent" unicode="&#xa2;" horiz-adv-x="532" 
d="M272 -110v102q-52 5 -96.5 28t-76.5 58t-50.5 82t-18.5 100t18.5 100t50.5 82.5t76.5 58.5t96.5 28v94h62v-94q53 -5 101.5 -28.5t83.5 -62.5l-84 -89q-23 25 -48 40.5t-53 20.5v-298q27 4 52 17.5t47 38.5l82 -85q-35 -38 -82.5 -62t-98.5 -29v-102h-62zM166 260
q0 -54 30 -93.5t76 -51.5v293q-46 -12 -76 -53t-30 -95z" />
    <glyph glyph-name="sterling" unicode="&#xa3;" horiz-adv-x="648" 
d="M220 25q-10 2 -20 3.5t-18 1.5q-30 0 -51.5 -15.5t-37.5 -49.5l-103 64q28 51 64.5 78t84.5 32q8 8 12.5 19.5t4.5 24.5q0 2 -0.5 5.5t-2.5 14t-5.5 30t-10.5 53.5h-97v89h80q-9 47 -12 68t-3 37q0 102 66.5 166t176.5 64q99 0 162.5 -46t90.5 -136l-113 -37
q-17 52 -50.5 79t-84.5 27q-57 0 -88.5 -31t-31.5 -86q0 -10 3 -29.5t14 -75.5h188v-89h-171q8 -40 10 -55t2 -24q0 -24 -7 -44t-21 -36l164 -38q10 -3 20 -4t19 -1q29 0 49.5 14.5t36.5 44.5l100 -60q-31 -55 -72.5 -82.5t-96.5 -27.5q-16 0 -35 2.5t-38 7.5z" />
    <glyph glyph-name="yen" unicode="&#xa5;" horiz-adv-x="710" 
d="M106 214h174v54l-4 6h-170v73h122l-234 353h167l196 -304l197 304h158l-234 -353h126v-73h-174l-5 -7v-53h179v-72h-179v-142h-145v142h-174v72z" />
    <glyph glyph-name="numbersign" unicode="#" horiz-adv-x="739" 
d="M70 0l55 194h-96v98h124l34 116h-108v98h136l55 194h124l-55 -194h151l55 194h122l-55 -194h97v-98h-125l-34 -116h109v-98h-137l-55 -194h-122l55 194h-151l-55 -194h-124zM277 292h151l34 116h-151z" />
    <glyph glyph-name="zero" unicode="0" horiz-adv-x="685" 
d="M342 -10q-69 0 -126 26t-97 73t-62.5 114t-22.5 148q0 80 22.5 147t63 114t97.5 73t125 26q69 0 126 -26t97 -73t62.5 -114t22.5 -147q0 -81 -22 -148t-62.5 -114t-97.5 -73t-126 -26zM342 109q81 0 128 65t47 177q0 110 -47.5 175.5t-127.5 65.5t-127 -65.5t-47 -175.5
q0 -112 47 -177t127 -65z" />
    <glyph glyph-name="one" unicode="1" horiz-adv-x="349" 
d="M295 700v-700h-137v561l-137 -56v119l187 76h87z" />
    <glyph glyph-name="two" unicode="2" horiz-adv-x="573" 
d="M38 0v96l276 247q47 43 67 75.5t20 67.5q0 46 -36 76t-90 30q-50 0 -93.5 -20t-94.5 -66l-77 92q61 55 129 83t140 28q56 0 103.5 -15.5t81 -43.5t52 -68t18.5 -87q0 -60 -30 -111t-104 -117l-171 -152h314v-115h-505z" />
    <glyph glyph-name="three" unicode="3" horiz-adv-x="616" 
d="M575 195q0 -44 -21 -82t-58.5 -65t-89 -42.5t-112.5 -15.5q-81 0 -154 29t-122 80l92 85q42 -42 83 -59t100 -17q64 0 104 27t40 70q0 39 -36.5 62t-96.5 23h-64v109h50q54 0 90 29t36 73q0 39 -35.5 65t-89.5 26q-51 0 -90 -18.5t-84 -63.5l-93 85q51 54 123 85t149 31
q56 0 103.5 -14.5t81.5 -40.5t53 -62t19 -79q0 -52 -28 -94.5t-76 -67.5q57 -20 91.5 -62t34.5 -96z" />
    <glyph glyph-name="four" unicode="4" horiz-adv-x="673" 
d="M559 700v-421h86v-115h-86v-164h-137v164h-395v110l374 426h158zM185 279h237v269z" />
    <glyph glyph-name="five" unicode="5" horiz-adv-x="603" 
d="M63 333l17 367h451v-115h-340l-7 -163q31 11 63.5 16t67.5 5q114 0 185 -59.5t71 -155.5q0 -53 -20.5 -97t-58 -75.5t-90.5 -49t-116 -17.5q-75 0 -142 24t-119 70l83 93q46 -38 88.5 -54.5t93.5 -16.5q63 0 102 32t39 84q0 50 -42 81.5t-108 31.5q-31 0 -64.5 -7.5
t-64.5 -20.5z" />
    <glyph glyph-name="six" unicode="6" horiz-adv-x="636" 
d="M342 -11q-69 0 -126 25.5t-97.5 71t-63 109.5t-22.5 141q0 84 25 153.5t70 118.5t109 76t141 27q57 0 113 -18.5t94 -49.5l-78 -98q-31 24 -65 35t-74 11q-90 0 -141.5 -61.5t-56.5 -174.5q34 38 84 59.5t106 21.5q53 0 98 -16t77.5 -44.5t50.5 -68t18 -86.5
q0 -50 -20 -92.5t-54.5 -73.5t-83 -48.5t-104.5 -17.5zM338 328q-47 0 -87.5 -20t-72.5 -57q16 -66 58 -106t100 -40q57 0 95.5 32t38.5 81t-37 79.5t-95 30.5z" />
    <glyph glyph-name="seven" unicode="7" horiz-adv-x="600" 
d="M101 0l324 581h-406v119h562v-101l-317 -599h-163z" />
    <glyph glyph-name="eight" unicode="8" horiz-adv-x="633" 
d="M316 -11q-61 0 -112.5 15.5t-88.5 42.5t-57.5 65t-20.5 84q0 54 33.5 98t87.5 66q-44 25 -71 65t-27 89q0 42 19.5 78t53.5 62.5t81.5 41.5t101.5 15t101.5 -15t82 -41.5t54 -62.5t19.5 -78q0 -49 -27 -89.5t-71 -64.5q54 -22 87.5 -66t33.5 -98q0 -46 -20.5 -84
t-57.5 -65t-88.5 -42.5t-113.5 -15.5zM316 411q52 0 87.5 27t35.5 67t-35 67.5t-88 27.5q-52 0 -87 -27.5t-35 -67.5t35.5 -67t86.5 -27zM316 101q62 0 102.5 29t40.5 74q0 44 -40.5 73.5t-102.5 29.5q-61 0 -101.5 -29.5t-40.5 -73.5q0 -45 40.5 -74t101.5 -29z" />
    <glyph glyph-name="nine" unicode="9" horiz-adv-x="636" 
d="M294 712q69 0 126 -25.5t97.5 -71t63 -109.5t22.5 -141q0 -84 -25 -153.5t-70 -118.5t-109 -76t-141 -27q-57 0 -113 18.5t-94 49.5l78 98q31 -24 65 -35t74 -11q90 0 141.5 61.5t56.5 174.5q-34 -38 -84 -59.5t-106 -21.5q-53 0 -98 16t-77.5 44.5t-50.5 68t-18 86.5
q0 50 20 92.5t54.5 73.5t83 48.5t104.5 17.5zM298 373q47 0 87.5 20t72.5 57q-16 66 -58 106t-100 40q-57 0 -95.5 -32t-38.5 -81t37 -79.5t95 -30.5z" />
    <glyph glyph-name="uni2070" unicode="&#x2070;" horiz-adv-x="362" 
d="M22 345zM182 345q-72 0 -116 50t-44 131q0 80 44 130t116 50q71 0 115 -50t44 -130q0 -81 -43.5 -131t-115.5 -50zM182 418q36 0 56.5 29t20.5 79q0 49 -21 78t-56 29q-36 0 -56.5 -29t-21.5 -78q1 -50 21 -79t57 -29z" />
    <glyph glyph-name="onesuperior" unicode="&#xb9;" horiz-adv-x="195" 
d="M16 350zM174 700v-350h-84v265l-74 -30v73l105 42h53z" />
    <glyph glyph-name="twosuperior" unicode="&#xb2;" horiz-adv-x="307" 
d="M9 350zM27 350v60l141 121q17 16 26 29.5t8 27.5q1 19 -14.5 32t-39.5 13q-25 0 -46.5 -10.5t-46.5 -32.5l-46 56q31 28 67 43t75 16q59 -1 96.5 -31.5t37.5 -80.5q0 -30 -15.5 -56.5t-49.5 -55.5l-72 -61h140v-70h-261z" />
    <glyph glyph-name="threesuperior" unicode="&#xb3;" horiz-adv-x="329" 
d="M15 345zM306 449q0 -45 -42 -74.5t-105 -29.5q-43 0 -81.5 15t-62.5 42l57 52q20 -21 38.5 -29t47.5 -7q28 -1 45 10t17 28q0 14 -14.5 22.5t-40.5 8.5h-33v67h24q25 0 40 11.5t16 29.5q-1 16 -16 26.5t-39 10.5q-25 0 -42.5 -9t-39.5 -31l-57 52q25 28 64 45t79 17
q60 0 98 -28t38 -72q0 -25 -13 -46.5t-35 -34.5q26 -10 41.5 -30.5t15.5 -45.5z" />
    <glyph glyph-name="uni2074" unicode="&#x2074;" horiz-adv-x="356" 
d="M21 350zM302 700v-203h44v-71h-44v-76h-84v76h-197v69l182 205h99zM117 497h101v113z" />
    <glyph glyph-name="uni2075" unicode="&#x2075;" horiz-adv-x="324" 
d="M20 344zM38 512l9 188h237v-70h-169l-2 -65q15 5 29 7t29 2q60 0 96.5 -30.5t36.5 -79.5q0 -53 -42 -86.5t-108 -33.5q-39 0 -73 12.5t-61 34.5l51 59q22 -18 42 -26t43 -8q28 0 44.5 12.5t16.5 34.5q0 19 -18 32t-47 13q-13 0 -28.5 -3t-28.5 -10z" />
    <glyph glyph-name="uni2076" unicode="&#x2076;" horiz-adv-x="338" 
d="M20 344zM182 344q-72 0 -117 49.5t-45 127.5q0 83 49.5 134t128.5 51q31 0 62.5 -11t51.5 -28l-50 -60q-15 13 -32 19t-39 6q-40 0 -61 -25.5t-25 -75.5q17 17 40.5 26.5t49.5 9.5q54 0 88.5 -29.5t34.5 -76.5q0 -50 -39 -83.5t-97 -33.5zM182 502q-21 0 -38.5 -8
t-31.5 -24q8 -25 25.5 -39.5t40.5 -14.5q25 0 41 12t16 31t-14.5 31t-38.5 12z" />
    <glyph glyph-name="uni2077" unicode="&#x2077;" horiz-adv-x="320" 
d="M18 350zM61 350l150 277h-193v73h290v-62l-146 -288h-101z" />
    <glyph glyph-name="uni2078" unicode="&#x2078;" horiz-adv-x="336" 
d="M24 344zM168 344q-64 0 -104 29.5t-40 76.5q0 25 14.5 46t39.5 32q-20 13 -32 32.5t-12 42.5q0 43 38 73t95 30q58 0 96.5 -30t38.5 -73q0 -23 -12 -42.5t-31 -32.5q24 -11 38.5 -32t14.5 -46q0 -47 -40 -76.5t-104 -29.5zM168 558q22 0 36.5 11.5t14.5 27.5
q0 17 -14.5 28.5t-36.5 11.5t-36.5 -11.5t-14.5 -28.5q0 -16 14.5 -27.5t36.5 -11.5zM168 414q26 0 43 11t17 30q0 18 -17 29.5t-43 11.5t-42.5 -11.5t-16.5 -29.5q0 -19 16.5 -30t42.5 -11z" />
    <glyph glyph-name="uni2079" unicode="&#x2079;" horiz-adv-x="338" 
d="M20 345zM156 707q72 0 117 -49.5t45 -127.5q0 -83 -49.5 -134t-128.5 -51q-31 0 -62.5 11t-51.5 28l50 60q15 -13 32 -19t39 -6q40 0 61 25.5t25 75.5q-17 -17 -40.5 -26.5t-49.5 -9.5q-54 0 -88.5 29.5t-34.5 76.5q0 50 39 83.5t97 33.5zM156 549q21 0 38.5 8t31.5 24
q-8 25 -25.5 39.5t-40.5 14.5q-25 0 -41 -12t-16 -31t14.5 -31t38.5 -12z" />
    <glyph glyph-name="uni2080" unicode="&#x2080;" horiz-adv-x="362" 
d="M182 -5q-72 0 -116 50t-44 131q0 80 44 130t116 50q71 0 115 -50t44 -130q0 -81 -43.5 -131t-115.5 -50zM182 68q36 0 56.5 29t20.5 79q0 49 -21 78t-56 29q-36 0 -56.5 -29t-21.5 -78q1 -50 21 -79t57 -29z" />
    <glyph glyph-name="uni2081" unicode="&#x2081;" horiz-adv-x="195" 
d="M174 350v-350h-84v265l-74 -30v73l105 42h53z" />
    <glyph glyph-name="uni2082" unicode="&#x2082;" horiz-adv-x="307" 
d="M27 0v60l141 121q17 16 26 29.5t8 27.5q1 19 -14.5 32t-39.5 13q-25 0 -46.5 -10.5t-46.5 -32.5l-46 56q31 28 67 43t75 16q59 -1 96.5 -31.5t37.5 -80.5q0 -30 -15.5 -56.5t-49.5 -55.5l-72 -61h140v-70h-261z" />
    <glyph glyph-name="uni2083" unicode="&#x2083;" horiz-adv-x="329" 
d="M306 99q0 -45 -42 -74.5t-105 -29.5q-43 0 -81.5 15t-62.5 42l57 52q20 -21 38.5 -29t47.5 -7q28 -1 45 10t17 28q0 14 -14.5 22.5t-40.5 8.5h-33v67h24q25 0 40 11.5t16 29.5q-1 16 -16 26.5t-39 10.5q-25 0 -42.5 -9t-39.5 -31l-57 52q25 28 64 45t79 17q60 0 98 -28
t38 -72q0 -25 -13 -46.5t-35 -34.5q26 -10 41.5 -30.5t15.5 -45.5z" />
    <glyph glyph-name="uni2084" unicode="&#x2084;" horiz-adv-x="356" 
d="M302 350v-203h44v-71h-44v-76h-84v76h-197v69l182 205h99zM117 147h101v113z" />
    <glyph glyph-name="uni2085" unicode="&#x2085;" horiz-adv-x="324" 
d="M38 162l9 188h237v-70h-169l-2 -65q15 5 29 7t29 2q60 0 96.5 -30.5t36.5 -79.5q0 -53 -42 -86.5t-108 -33.5q-39 0 -73 12.5t-61 34.5l51 59q22 -18 42 -26t43 -8q28 0 44.5 12.5t16.5 34.5q0 19 -18 32t-47 13q-13 0 -28.5 -3t-28.5 -10z" />
    <glyph glyph-name="uni2086" unicode="&#x2086;" horiz-adv-x="338" 
d="M182 -6q-72 0 -117 49.5t-45 127.5q0 83 49.5 134t128.5 51q31 0 62.5 -11t51.5 -28l-50 -60q-15 13 -32 19t-39 6q-40 0 -61 -25.5t-25 -75.5q17 17 40.5 26.5t49.5 9.5q54 0 88.5 -29.5t34.5 -76.5q0 -50 -39 -83.5t-97 -33.5zM182 152q-21 0 -38.5 -8t-31.5 -24
q8 -25 25.5 -39.5t40.5 -14.5q25 0 41 12t16 31t-14.5 31t-38.5 12z" />
    <glyph glyph-name="uni2087" unicode="&#x2087;" horiz-adv-x="320" 
d="M61 0l150 277h-193v73h290v-62l-146 -288h-101z" />
    <glyph glyph-name="uni2088" unicode="&#x2088;" horiz-adv-x="336" 
d="M168 -6q-64 0 -104 29.5t-40 76.5q0 25 14.5 46t39.5 32q-20 13 -32 32.5t-12 42.5q0 43 38 73t95 30q58 0 96.5 -30t38.5 -73q0 -23 -12 -42.5t-31 -32.5q24 -11 38.5 -32t14.5 -46q0 -47 -40 -76.5t-104 -29.5zM168 208q22 0 36.5 11.5t14.5 27.5q0 17 -14.5 28.5
t-36.5 11.5t-36.5 -11.5t-14.5 -28.5q0 -16 14.5 -27.5t36.5 -11.5zM168 64q26 0 43 11t17 30q0 18 -17 29.5t-43 11.5t-42.5 -11.5t-16.5 -29.5q0 -19 16.5 -30t42.5 -11z" />
    <glyph glyph-name="uni2089" unicode="&#x2089;" horiz-adv-x="338" 
d="M156 357q72 0 117 -49.5t45 -127.5q0 -83 -49.5 -134t-128.5 -51q-31 0 -62.5 11t-51.5 28l50 60q15 -13 32 -19t39 -6q40 0 61 25.5t25 75.5q-17 -17 -40.5 -26.5t-49.5 -9.5q-54 0 -88.5 29.5t-34.5 76.5q0 50 39 83.5t97 33.5zM156 199q21 0 38.5 8t31.5 24
q-8 25 -25.5 39.5t-40.5 14.5q-25 0 -41 -12t-16 -31t14.5 -31t38.5 -12z" />
    <glyph glyph-name="fraction" unicode="&#x2044;" horiz-adv-x="577" 
d="M120 0h-102l396 700h103z" />
    <glyph glyph-name="onehalf" unicode="&#xbd;" horiz-adv-x="693" 
d="M16 0zM16 350zM174 700v-350h-84v265l-74 -30v73l105 42h53zM155 0h-102l396 700h103zM413 0v60l141 121q17 16 26 29.5t8 27.5q1 19 -14.5 32t-39.5 13q-25 0 -46.5 -10.5t-46.5 -32.5l-46 56q31 28 67 43t75 16q59 -1 96.5 -31.5t37.5 -80.5q0 -30 -15.5 -56.5
t-49.5 -55.5l-72 -61h140v-70h-261z" />
    <glyph glyph-name="onequarter" unicode="&#xbc;" horiz-adv-x="665" 
d="M16 0zM611 350v-203h44v-71h-44v-76h-84v76h-197v69l182 205h99zM426 147h101v113zM16 350zM174 700v-350h-84v265l-74 -30v73l105 42h53zM155 0h-102l396 700h103z" />
    <glyph glyph-name="threequarters" unicode="&#xbe;" horiz-adv-x="758" 
d="M15 0zM15 345zM306 449q0 -45 -42 -74.5t-105 -29.5q-43 0 -81.5 15t-62.5 42l57 52q20 -21 38.5 -29t47.5 -7q28 -1 45 10t17 28q0 14 -14.5 22.5t-40.5 8.5h-33v67h24q25 0 40 11.5t16 29.5q-1 16 -16 26.5t-39 10.5q-25 0 -42.5 -9t-39.5 -31l-57 52q25 28 64 45
t79 17q60 0 98 -28t38 -72q0 -25 -13 -46.5t-35 -34.5q26 -10 41.5 -30.5t15.5 -45.5zM704 350v-203h44v-71h-44v-76h-84v76h-197v69l182 205h99zM519 147h101v113zM248 0h-102l396 700h103z" />
    <glyph glyph-name="percent" unicode="%" horiz-adv-x="793" 
d="M22 0zM22 345zM182 345q-72 0 -116 50t-44 131q0 80 44 130t116 50q71 0 115 -50t44 -130q0 -81 -43.5 -131t-115.5 -50zM182 418q36 0 56.5 29t20.5 79q0 49 -21 78t-56 29q-36 0 -56.5 -29t-21.5 -78q1 -50 21 -79t57 -29zM245 0h-102l396 700h103zM612 -5
q-72 0 -116 50t-44 131q0 80 44 130t116 50q71 0 115 -50t44 -130q0 -81 -43.5 -131t-115.5 -50zM612 68q36 0 56.5 29t20.5 79q0 49 -21 78t-56 29q-36 0 -56.5 -29t-21.5 -78q1 -50 21 -79t57 -29z" />
    <glyph glyph-name="perthousand" unicode="&#x2030;" horiz-adv-x="1148" 
d="M22 0zM22 345zM182 345q-72 0 -116 50t-44 131q0 80 44 130t116 50q71 0 115 -50t44 -130q0 -81 -43.5 -131t-115.5 -50zM182 418q36 0 56.5 29t20.5 79q0 49 -21 78t-56 29q-36 0 -56.5 -29t-21.5 -78q1 -50 21 -79t57 -29zM245 0h-102l396 700h103zM612 -5
q-72 0 -116 50t-44 131q0 80 44 130t116 50q71 0 115 -50t44 -130q0 -81 -43.5 -131t-115.5 -50zM612 68q36 0 56.5 29t20.5 79q0 49 -21 78t-56 29q-36 0 -56.5 -29t-21.5 -78q1 -50 21 -79t57 -29zM967 -5q-72 0 -116 50t-44 131q0 80 44 130t116 50q71 0 115 -50t44 -130
q0 -81 -43.5 -131t-115.5 -50zM967 68q36 0 56.5 29t20.5 79q0 49 -21 78t-56 29q-36 0 -56.5 -29t-21.5 -78q1 -50 21 -79t57 -29z" />
    <glyph glyph-name="plus" unicode="+" horiz-adv-x="550" 
d="M329 129h-107v177h-176v106h176v172h107v-172h175v-106h-175v-177z" />
    <glyph glyph-name="minus" unicode="&#x2212;" horiz-adv-x="550" 
d="M504 412v-106h-458v106h458z" />
    <glyph glyph-name="plusminus" unicode="&#xb1;" horiz-adv-x="550" 
d="M329 199h-107v157h-176v106h176v154h107v-154h175v-106h-175v-157zM504 105v-106h-458v106h458z" />
    <glyph glyph-name="multiply" unicode="&#xd7;" horiz-adv-x="542" 
d="M120 141l-64 65l150 152l-151 153l66 67l151 -153l149 152l65 -65l-150 -152l151 -153l-67 -67l-150 153z" />
    <glyph glyph-name="divide" unicode="&#xf7;" horiz-adv-x="550" 
d="M275 498q-33 0 -57 24t-24 57q0 34 24 57.5t57 23.5q34 0 57.5 -23.5t23.5 -57.5q0 -33 -23.5 -57t-57.5 -24zM46 306v106h458v-106h-458zM275 57q-33 0 -57 23.5t-24 57.5q0 33 24 57t57 24q34 0 57.5 -24t23.5 -57q0 -34 -23.5 -57.5t-57.5 -23.5z" />
    <glyph glyph-name="equal" unicode="=" horiz-adv-x="551" 
d="M46 205zM504 311v-106h-458v106h458zM504 502v-106h-458v106h458z" />
    <glyph glyph-name="notequal" unicode="&#x2260;" horiz-adv-x="547" 
d="M40 103l72 102h-66v106h140l60 85h-200v105h273l71 101h116l-70 -101h68v-105h-142l-59 -85h201v-106h-275l-71 -102h-118z" />
    <glyph glyph-name="less" unicode="&#x3c;" horiz-adv-x="531" 
d="M397 60l-345 287l346 289l69 -80l-256 -207l258 -207z" />
    <glyph glyph-name="greater" unicode="&#x3e;" horiz-adv-x="531" 
d="M134 636l345 -287l-346 -289l-69 80l256 207l-258 207z" />
    <glyph glyph-name="degree" unicode="&#xb0;" horiz-adv-x="375" 
d="M188 418q-61 0 -103.5 43.5t-42.5 104.5q0 59 42.5 101.5t103.5 42.5q60 0 102.5 -42.5t42.5 -101.5q0 -60 -42.5 -104t-102.5 -44zM188 492q28 0 49 21.5t21 52.5q0 29 -21 50t-49 21q-30 0 -51 -21t-21 -50q0 -31 21 -52.5t51 -21.5z" />
    <glyph glyph-name="uni00A4" unicode="&#xa4;" horiz-adv-x="685" 
d="M92 46l-65 65l95 96q-24 32 -37.5 72t-13.5 84t13.5 84t36.5 72l-94 97l66 67l97 -98q32 22 71 33.5t81 11.5q43 0 82 -12t72 -34l97 98l65 -65l-96 -97q24 -32 37.5 -72t13.5 -85q0 -43 -13 -83t-37 -72l96 -96l-67 -67l-96 98q-33 -22 -72 -34.5t-82 -12.5t-82.5 12.5
t-71.5 34.5zM342 212q61 0 102.5 44t41.5 107q0 64 -42 108t-102 44t-102 -44t-42 -108q0 -63 42 -107t102 -44z" />
    <glyph glyph-name="uni00A6" unicode="&#xa6;" horiz-adv-x="324" 
d="M226 284h-127v416h127v-416zM99 -212v416h127v-416h-127z" />
    <glyph glyph-name="uni00AC" unicode="&#xac;" horiz-adv-x="558" 
d="M41 343h476v-343h-134v227h-342v116z" />
    <glyph glyph-name="uni00AD" unicode="&#xad;" horiz-adv-x="458" 
d="M41 227zM41 343h376v-116h-376v116z" />
    <glyph glyph-name="uni00B5" unicode="&#xb5;" 
d="M187 521v-303q0 -50 29.5 -80t78.5 -30q35 0 62 13.5t46 38.5v361h137v-521h-137v42q-29 -25 -66.5 -38.5t-80.5 -13.5q-19 0 -36 3.5t-33 10.5v-213h-137v730h137z" />
    <glyph glyph-name="uni02BB" unicode="&#x2bb;" horiz-adv-x="241" 
d="M157 478h-142l108 263h103z" />
    <glyph glyph-name="uni02BC" unicode="&#x2bc;" horiz-adv-x="241" 
d="M27 478zM96 741h142l-108 -263h-103z" />
    <glyph glyph-name="uni2032" unicode="&#x2032;" horiz-adv-x="241" 
d="M27 478zM96 741h142l-108 -263h-103z" />
    <glyph glyph-name="uni2033" unicode="&#x2033;" horiz-adv-x="432" 
d="M27 478zM288 741h142l-108 -263h-103zM96 741h142l-108 -263h-103z" />
    <glyph glyph-name="uni2191" unicode="&#x2191;" horiz-adv-x="615" 
d="M243 0v514l-143 -179l-81 69l289 346l287 -345l-82 -72l-142 179v-512h-128z" />
    <glyph glyph-name="uni2193" unicode="&#x2193;" horiz-adv-x="615" 
d="M371 700v-514l143 179l81 -69l-289 -346l-287 345l82 72l142 -179v512h128z" />
    <glyph glyph-name="uni2215" unicode="&#x2215;" horiz-adv-x="577" 
d="M120 0h-102l396 700h102z" />
    <glyph glyph-name="uniFEFF" unicode="&#xfeff;" horiz-adv-x="0" 
 />
    <glyph glyph-name="uniFFFD" unicode="&#xfffd;" horiz-adv-x="990" 
d="M495 -145l-495 495l495 495l495 -495zM590 340q53 36 73.5 65.5t20.5 71.5q0 61 -52.5 102.5t-130.5 41.5q-69 0 -123.5 -35t-75.5 -92l98 -37q11 29 37.5 46t59.5 17q30 0 49.5 -14.5t19.5 -36.5q0 -12 -9.5 -25t-28.5 -26l-40 -30q-35 -27 -47 -56t-9 -81h101
q-1 28 7.5 44.5t30.5 31.5zM483 219q-29 0 -49.5 -21t-20.5 -49t20.5 -49t49.5 -21q28 0 48.5 21t20.5 49t-20.5 49t-48.5 21z" />
    <glyph glyph-name=".ttfautohint" horiz-adv-x="990" 
d="M0 0z" />
    </font>
</defs>
</svg>
