<?xml version="1.0" standalone="no"?>
<!DOCTYPE svg PUBLIC "-//W3C//DTD SVG 1.1//EN" "http://www.w3.org/Graphics/SVG/1.1/DTD/svg11.dtd" >
<svg xmlns="http://www.w3.org/2000/svg" xmlns:xlink="http://www.w3.org/1999/xlink" version="1.1">
<metadata>
Created by FontForge 20170924 at Wed Jul 10 05:23:28 2019
 By www-data
Copyright 2019 The Red Hat Project Authors (https://github.com/RedHatOfficial/RedHatFont)
</metadata>
<defs>
<font id="RedHatDisplay-Medium" horiz-adv-x="567" >
  <font-face 
    font-family="Red Hat Display Medium"
    font-weight="500"
    font-stretch="normal"
    units-per-em="1000"
    panose-1="2 1 6 3 4 2 1 6 3 3"
    ascent="800"
    descent="-200"
    x-height="509"
    cap-height="700"
    bbox="-69 -273 1086 1005"
    underline-thickness="50"
    underline-position="-125"
    unicode-range="U+000D-FFFD"
  />
<missing-glyph horiz-adv-x="514" 
d="M60 -100v850h394v-850h-394z" />
    <glyph glyph-name=".notdef" horiz-adv-x="514" 
d="M60 -100v850h394v-850h-394z" />
    <glyph glyph-name="NULL" horiz-adv-x="209" 
 />
    <glyph glyph-name="NULL" horiz-adv-x="209" 
 />
    <glyph glyph-name="CR" unicode="&#xd;" horiz-adv-x="209" 
 />
    <glyph glyph-name="space" unicode=" " horiz-adv-x="209" 
 />
    <glyph glyph-name="nbspace" unicode="&#xa0;" horiz-adv-x="209" 
 />
    <glyph glyph-name="A" unicode="A" horiz-adv-x="701" 
d="M1 0l290 700h123l286 -700h-114l-81 205h-313l-82 -205h-109zM227 292h244l-122 307z" />
    <glyph glyph-name="B" unicode="B" horiz-adv-x="671" 
d="M71 700h303q102 0 164.5 -50.5t62.5 -134.5q0 -50 -26 -89.5t-71 -61.5q57 -22 90.5 -65t33.5 -100q0 -90 -66 -144.5t-175 -54.5h-316v700zM368 611h-192v-208h192q59 0 94 28t35 76t-35 76t-94 28zM379 89q65 0 104 31.5t39 83.5q0 51 -39 83t-104 32h-203v-230h203z
" />
    <glyph glyph-name="C" unicode="C" horiz-adv-x="720" 
d="M411 86q60 0 115 24.5t93 69.5l69 -70q-51 -56 -125.5 -88.5t-154.5 -32.5q-77 0 -144.5 28t-116.5 76.5t-77.5 115t-28.5 141.5q0 76 28.5 142t77.5 114.5t116.5 76.5t144.5 28q82 0 157.5 -32.5t124.5 -88.5l-70 -72q-40 46 -96 71t-116 25q-55 0 -103 -20t-82.5 -55.5
t-54.5 -84t-20 -104.5t20 -104.5t55 -83.5t83.5 -55.5t104.5 -20.5z" />
    <glyph glyph-name="D" unicode="D" horiz-adv-x="728" 
d="M71 0v700h247q79 0 146.5 -26.5t117 -73t77.5 -111.5t28 -140t-28 -139t-77 -110.5t-117 -73t-147 -26.5h-247zM320 606h-144v-512h144q54 0 102 19.5t82.5 54t54.5 81t20 100.5t-20 101.5t-54.5 82t-82.5 54t-102 19.5z" />
    <glyph glyph-name="E" unicode="E" horiz-adv-x="628" 
d="M71 0v700h516v-92h-411v-210h270v-90h-270v-216h415v-92h-520z" />
    <glyph glyph-name="F" unicode="F" horiz-adv-x="620" 
d="M71 0v700h517v-92h-412v-215h272v-90h-272v-303h-105z" />
    <glyph glyph-name="G" unicode="G" horiz-adv-x="790" 
d="M751 341q0 -75 -26.5 -139.5t-72.5 -111.5t-109.5 -74t-136.5 -27q-76 0 -143 28t-116 76.5t-77.5 115t-28.5 141.5t28.5 141.5t77 115t115.5 76.5t143 28q83 0 157 -32t125 -89l-72 -70q-39 45 -94.5 69.5t-115.5 24.5q-54 0 -101.5 -20t-82 -55.5t-54 -84t-19.5 -104.5
t20 -104.5t54.5 -84t82 -56t102.5 -20.5q93 0 158.5 56.5t75.5 143.5h-233v92h343v-36z" />
    <glyph glyph-name="H" unicode="H" horiz-adv-x="725" 
d="M71 0v700h105v-300h372v300h105v-700h-105v305h-372v-305h-105z" />
    <glyph glyph-name="I" unicode="I" horiz-adv-x="248" 
d="M71 0v700h105v-700h-105z" />
    <glyph glyph-name="J" unicode="J" horiz-adv-x="617" 
d="M559 267q0 -126 -75.5 -202t-200.5 -76q-96 0 -165.5 50t-100.5 140l96 38q25 -66 68 -99t103 -33q76 0 123 50.5t47 133.5v431h105v-433z" />
    <glyph glyph-name="K" unicode="K" horiz-adv-x="650" 
d="M71 0v700h105v-326l339 326h132l-361 -338l373 -362h-144l-339 333v-333h-105z" />
    <glyph glyph-name="L" unicode="L" horiz-adv-x="614" 
d="M71 0v700h105v-607h403v-93h-508z" />
    <glyph glyph-name="M" unicode="M" horiz-adv-x="861" 
d="M430 50l-261 520v-570h-98v700h140l220 -447l219 447h140v-700h-99v571z" />
    <glyph glyph-name="N" unicode="N" horiz-adv-x="735" 
d="M71 700h103l390 -519v519h99v-700h-92l-401 536v-536h-99v700z" />
    <glyph glyph-name="O" unicode="O" horiz-adv-x="811" 
d="M770 350q0 -75 -28.5 -141.5t-77.5 -115t-116 -76.5t-143 -28t-143 28t-115.5 76.5t-77 115t-28.5 141.5t28.5 141.5t77 115t115.5 76.5t143 28t143 -28t116 -76.5t77.5 -115t28.5 -141.5zM663 350q0 56 -20 104.5t-54.5 84t-82 55.5t-101.5 20t-101 -20t-81.5 -55.5
t-54.5 -84t-20 -104.5t20 -104.5t54.5 -83.5t81.5 -55.5t101 -20.5t101.5 20.5t82 55.5t54.5 83.5t20 104.5z" />
    <glyph glyph-name="P" unicode="P" horiz-adv-x="661" 
d="M71 0v700h324q102 0 165.5 -58.5t63.5 -151.5q0 -92 -64 -150t-165 -58h-219v-282h-105zM384 608h-208v-237h208q61 0 97.5 32.5t36.5 86.5t-36.5 86t-97.5 32z" />
    <glyph glyph-name="Q" unicode="Q" horiz-adv-x="811" 
d="M770 350q0 -78 -30.5 -145.5t-81.5 -116.5l72 -88l-98 -24l-48 58q-40 -22 -85 -33.5t-94 -11.5q-76 0 -143 28t-115.5 76.5t-77 115t-28.5 141.5t28.5 141.5t77 115t115.5 76.5t143 28t143 -28t116 -76.5t77.5 -115t28.5 -141.5zM527 247l66 -80q33 35 51.5 82t18.5 101
q0 56 -20 104.5t-54.5 84t-82 55.5t-101.5 20t-101 -20t-81.5 -55.5t-54.5 -84t-20 -104.5t20 -104.5t54.5 -83.5t81.5 -55.5t101 -20.5q31 0 60.5 6.5t54.5 19.5l-91 111z" />
    <glyph glyph-name="R" unicode="R" horiz-adv-x="659" 
d="M71 0v700h318q104 0 168.5 -57.5t64.5 -149.5q0 -69 -39 -119.5t-105 -72.5l156 -301h-116l-145 287h-197v-287h-105zM380 608h-204v-234h204q61 0 98.5 32.5t37.5 84.5q0 53 -37.5 85t-98.5 32z" />
    <glyph glyph-name="S" unicode="S" horiz-adv-x="613" 
d="M8 116l64 74q57 -55 116.5 -82.5t124.5 -27.5q75 0 122.5 33t47.5 84q0 46 -33 71.5t-109 38.5l-117 19q-96 16 -143.5 61.5t-47.5 120.5q0 91 71 146t187 55q75 0 149 -24.5t133 -70.5l-58 -80q-57 43 -114 64.5t-115 21.5q-68 0 -110 -29t-42 -75q0 -43 29 -65.5
t96 -33.5l113 -18q110 -18 162.5 -65.5t52.5 -128.5q0 -48 -20 -88t-56.5 -68t-88.5 -43.5t-114 -15.5q-84 0 -162 33t-138 93z" />
    <glyph glyph-name="T" unicode="T" horiz-adv-x="631" 
d="M17 607v93h597v-93h-246v-607h-105v607h-246z" />
    <glyph glyph-name="U" unicode="U" horiz-adv-x="712" 
d="M654 299q0 -71 -21 -128.5t-59.5 -97.5t-94 -62t-123.5 -22q-136 0 -216.5 84t-80.5 226v401h105v-401q0 -97 52.5 -155t139.5 -58q88 0 140.5 58t52.5 155v401h105v-401z" />
    <glyph glyph-name="V" unicode="V" horiz-adv-x="701" 
d="M287 0l-286 700h113l237 -596l241 596h108l-290 -700h-123z" />
    <glyph glyph-name="W" unicode="W" horiz-adv-x="908" 
d="M292 0h-108l-153 700h108l109 -535l158 535h100l158 -535l109 535h104l-153 -700h-108l-162 550z" />
    <glyph glyph-name="X" unicode="X" horiz-adv-x="663" 
d="M122 0h-121l268 362l-253 338h127l189 -259l188 259h122l-250 -337l271 -363h-126l-207 284z" />
    <glyph glyph-name="Y" unicode="Y" horiz-adv-x="667" 
d="M281 0v276l-282 424h122l215 -330l216 330h116l-282 -423v-277h-105z" />
    <glyph glyph-name="Z" unicode="Z" horiz-adv-x="609" 
d="M23 0v73l420 535h-417v92h554v-73l-421 -535h428v-92h-564z" />
    <glyph glyph-name="Aacute" unicode="&#xc1;" horiz-adv-x="701" 
d="M1 0zM1 0l290 700h123l286 -700h-114l-81 205h-313l-82 -205h-109zM227 292h244l-122 307zM383 916h120l-128 -122h-84z" />
    <glyph glyph-name="Abreve" unicode="&#x102;" horiz-adv-x="701" 
d="M1 0zM1 0l290 700h123l286 -700h-114l-81 205h-313l-82 -205h-109zM227 292h244l-122 307zM351 847q37 0 62 21.5t36 62.5l65 -17q-14 -60 -57 -94t-106 -34t-106 34t-57 94l66 17q11 -42 35.5 -63t61.5 -21z" />
    <glyph glyph-name="Acircumflex" unicode="&#xc2;" horiz-adv-x="701" 
d="M1 0zM1 0l290 700h123l286 -700h-114l-81 205h-313l-82 -205h-109zM227 292h244l-122 307zM430 791l-79 77l-80 -77h-80l108 127h105l108 -127h-82z" />
    <glyph glyph-name="Adieresis" unicode="&#xc4;" horiz-adv-x="701" 
d="M1 0zM1 0l290 700h123l286 -700h-114l-81 205h-313l-82 -205h-109zM227 292h244l-122 307zM254 799q-25 0 -42.5 16.5t-17.5 41.5t17.5 41.5t42.5 16.5t42.5 -16.5t17.5 -41.5t-17.5 -41.5t-42.5 -16.5zM447 799q-25 0 -42.5 16.5t-17.5 41.5t17.5 41.5t42.5 16.5
q26 0 43 -16.5t17 -41.5t-17.5 -41.5t-42.5 -16.5z" />
    <glyph glyph-name="AE" unicode="&#xc6;" horiz-adv-x="965" 
d="M1 0l290 700h637v-92h-474l84 -210h255v-90h-220l86 -216h269v-92h-342l-81 205h-313l-82 -205h-109zM227 292h244l-122 307z" />
    <glyph glyph-name="Agrave" unicode="&#xc0;" horiz-adv-x="701" 
d="M1 0zM1 0l290 700h123l286 -700h-114l-81 205h-313l-82 -205h-109zM227 292h244l-122 307zM321 916l90 -122h-84l-128 122h122z" />
    <glyph glyph-name="Amacron" unicode="&#x100;" horiz-adv-x="701" 
d="M1 0zM1 0l290 700h123l286 -700h-114l-81 205h-313l-82 -205h-109zM227 292h244l-122 307zM504 881v-68h-298v68h298z" />
    <glyph glyph-name="Aogonek" unicode="&#x104;" horiz-adv-x="701" 
d="M1 0l290 700h123l286 -699l1 -1q-51 -31 -75.5 -59t-24.5 -56q0 -23 15 -36.5t40 -13.5q12 0 23.5 3.5t21.5 10.5l16 -49q-16 -10 -36 -15.5t-41 -5.5q-46 0 -74 24t-28 64q0 36 23 67.5t74 65.5h-49l-81 205h-313l-82 -205h-109zM227 292h244l-122 307z" />
    <glyph glyph-name="Aring" unicode="&#xc5;" horiz-adv-x="701" 
d="M1 0zM1 0l290 700h123l286 -700h-114l-81 205h-313l-82 -205h-109zM227 292h244l-122 307zM351 774q-49 0 -82.5 33.5t-33.5 82.5q0 48 33.5 81.5t82.5 33.5t82.5 -33.5t33.5 -81.5q0 -49 -34 -82.5t-82 -33.5zM351 822q28 0 46.5 20t18.5 48t-18.5 47t-46.5 19
q-27 0 -46 -19t-19 -47q0 -29 18.5 -48.5t46.5 -19.5z" />
    <glyph glyph-name="Atilde" unicode="&#xc3;" horiz-adv-x="701" 
d="M1 0zM1 0l290 700h123l286 -700h-114l-81 205h-313l-82 -205h-109zM227 292h244l-122 307zM240 786l-65 13q12 55 37.5 82t65.5 27q20 0 39.5 -8.5t38 -18t35.5 -18t32 -8.5q17 0 27.5 12.5t17.5 43.5l64 -14q-12 -54 -37.5 -81t-65.5 -27q-20 0 -39.5 8.5t-37.5 18
t-35.5 18t-32.5 8.5q-17 0 -27 -13t-17 -43z" />
    <glyph glyph-name="Cacute" unicode="&#x106;" horiz-adv-x="720" 
d="M41 0zM411 86q60 0 115 24.5t93 69.5l69 -70q-51 -56 -125.5 -88.5t-154.5 -32.5q-77 0 -144.5 28t-116.5 76.5t-77.5 115t-28.5 141.5q0 76 28.5 142t77.5 114.5t116.5 76.5t144.5 28q82 0 157.5 -32.5t124.5 -88.5l-70 -72q-40 46 -96 71t-116 25q-55 0 -103 -20
t-82.5 -55.5t-54.5 -84t-20 -104.5t20 -104.5t55 -83.5t83.5 -55.5t104.5 -20.5zM436 916h120l-128 -122h-84z" />
    <glyph glyph-name="Ccaron" unicode="&#x10c;" horiz-adv-x="720" 
d="M41 0zM411 86q60 0 115 24.5t93 69.5l69 -70q-51 -56 -125.5 -88.5t-154.5 -32.5q-77 0 -144.5 28t-116.5 76.5t-77.5 115t-28.5 141.5q0 76 28.5 142t77.5 114.5t116.5 76.5t144.5 28q82 0 157.5 -32.5t124.5 -88.5l-70 -72q-40 46 -96 71t-116 25q-55 0 -103 -20
t-82.5 -55.5t-54.5 -84t-20 -104.5t20 -104.5t55 -83.5t83.5 -55.5t104.5 -20.5zM327 919l79 -78l78 78h81l-108 -127h-105l-108 127h83z" />
    <glyph glyph-name="Ccedilla" unicode="&#xc7;" horiz-adv-x="720" 
d="M411 86q60 0 115 24.5t93 69.5l69 -70q-48 -52 -115.5 -84t-141.5 -36l-12 -41q43 -3 69 -25.5t26 -59.5q0 -41 -34.5 -68t-87.5 -27q-34 0 -64.5 10.5t-53.5 31.5l36 39q19 -15 39 -23t42 -8q28 0 44 12.5t16 32.5q0 19 -17 31t-46 12h-34l24 83q-72 6 -134 36
t-106.5 77.5t-70.5 111t-26 135.5q0 76 28.5 142t77.5 114.5t116.5 76.5t144.5 28q82 0 157.5 -32.5t124.5 -88.5l-70 -72q-40 46 -96 71t-116 25q-55 0 -103 -20t-82.5 -55.5t-54.5 -84t-20 -104.5t20 -104.5t55 -83.5t83.5 -55.5t104.5 -20.5z" />
    <glyph glyph-name="Ccircumflex" unicode="&#x108;" horiz-adv-x="720" 
d="M41 0zM411 86q60 0 115 24.5t93 69.5l69 -70q-51 -56 -125.5 -88.5t-154.5 -32.5q-77 0 -144.5 28t-116.5 76.5t-77.5 115t-28.5 141.5q0 76 28.5 142t77.5 114.5t116.5 76.5t144.5 28q82 0 157.5 -32.5t124.5 -88.5l-70 -72q-40 46 -96 71t-116 25q-55 0 -103 -20
t-82.5 -55.5t-54.5 -84t-20 -104.5t20 -104.5t55 -83.5t83.5 -55.5t104.5 -20.5zM484 791l-79 77l-80 -77h-80l108 127h105l108 -127h-82z" />
    <glyph glyph-name="Cdotaccent" unicode="&#x10a;" horiz-adv-x="720" 
d="M41 0zM411 86q60 0 115 24.5t93 69.5l69 -70q-51 -56 -125.5 -88.5t-154.5 -32.5q-77 0 -144.5 28t-116.5 76.5t-77.5 115t-28.5 141.5q0 76 28.5 142t77.5 114.5t116.5 76.5t144.5 28q82 0 157.5 -32.5t124.5 -88.5l-70 -72q-40 46 -96 71t-116 25q-55 0 -103 -20
t-82.5 -55.5t-54.5 -84t-20 -104.5t20 -104.5t55 -83.5t83.5 -55.5t104.5 -20.5zM405 793q-25 0 -42.5 17t-17.5 42t17.5 41.5t42.5 16.5t42.5 -16.5t17.5 -41.5t-17.5 -42t-42.5 -17z" />
    <glyph glyph-name="Dcaron" unicode="&#x10e;" horiz-adv-x="728" 
d="M71 0zM71 0v700h247q79 0 146.5 -26.5t117 -73t77.5 -111.5t28 -140t-28 -139t-77 -110.5t-117 -73t-147 -26.5h-247zM320 606h-144v-512h144q54 0 102 19.5t82.5 54t54.5 81t20 100.5t-20 101.5t-54.5 82t-82.5 54t-102 19.5zM286 919l79 -78l78 78h81l-108 -127h-105
l-108 127h83z" />
    <glyph glyph-name="Dcroat" unicode="&#x110;" horiz-adv-x="754" 
d="M98 0v307h-83v86h83v307h247q79 0 146.5 -26.5t117 -73t77.5 -111.5t28 -140t-28 -139t-77 -110.5t-117 -73t-147 -26.5h-247zM347 606h-144v-213h179v-86h-179v-213h144q54 0 102 19.5t82.5 54t54.5 81t20 100.5t-20 101.5t-54.5 82t-82.5 54t-102 19.5z" />
    <glyph glyph-name="Eacute" unicode="&#xc9;" horiz-adv-x="628" 
d="M71 0zM71 0v700h516v-92h-411v-210h270v-90h-270v-216h415v-92h-520zM374 916h120l-128 -122h-84z" />
    <glyph glyph-name="Ebreve" unicode="&#x114;" horiz-adv-x="628" 
d="M71 0zM71 0v700h516v-92h-411v-210h270v-90h-270v-216h415v-92h-520zM342 847q37 0 62 21.5t36 62.5l65 -17q-14 -60 -57 -94t-106 -34t-106 34t-57 94l66 17q11 -42 35.5 -63t61.5 -21z" />
    <glyph glyph-name="Ecaron" unicode="&#x11a;" horiz-adv-x="628" 
d="M71 0zM71 0v700h516v-92h-411v-210h270v-90h-270v-216h415v-92h-520zM264 919l79 -78l78 78h81l-108 -127h-105l-108 127h83z" />
    <glyph glyph-name="Ecircumflex" unicode="&#xca;" horiz-adv-x="628" 
d="M71 0zM71 0v700h516v-92h-411v-210h270v-90h-270v-216h415v-92h-520zM421 791l-79 77l-80 -77h-80l108 127h105l108 -127h-82z" />
    <glyph glyph-name="Edieresis" unicode="&#xcb;" horiz-adv-x="628" 
d="M71 0zM71 0v700h516v-92h-411v-210h270v-90h-270v-216h415v-92h-520zM246 799q-25 0 -42.5 16.5t-17.5 41.5t17.5 41.5t42.5 16.5t42.5 -16.5t17.5 -41.5t-17.5 -41.5t-42.5 -16.5zM439 799q-25 0 -42.5 16.5t-17.5 41.5t17.5 41.5t42.5 16.5q26 0 43 -16.5t17 -41.5
t-17.5 -41.5t-42.5 -16.5z" />
    <glyph glyph-name="Edotaccent" unicode="&#x116;" horiz-adv-x="628" 
d="M71 0zM71 0v700h516v-92h-411v-210h270v-90h-270v-216h415v-92h-520zM342 793q-25 0 -42.5 17t-17.5 42t17.5 41.5t42.5 16.5t42.5 -16.5t17.5 -41.5t-17.5 -42t-42.5 -17z" />
    <glyph glyph-name="Egrave" unicode="&#xc8;" horiz-adv-x="628" 
d="M71 0zM71 0v700h516v-92h-411v-210h270v-90h-270v-216h415v-92h-520zM312 916l90 -122h-84l-128 122h122z" />
    <glyph glyph-name="Emacron" unicode="&#x112;" horiz-adv-x="628" 
d="M71 0zM71 0v700h516v-92h-411v-210h270v-90h-270v-216h415v-92h-520zM495 881v-68h-298v68h298z" />
    <glyph glyph-name="Eng" unicode="&#x14a;" horiz-adv-x="735" 
d="M564 2l-394 527v-529h-99v700h98l395 -528v528h99v-774q0 -65 -37.5 -101t-106.5 -36q-13 0 -30.5 2t-27.5 5v80q10 -2 19.5 -3t22.5 -1q32 0 46.5 14.5t14.5 47.5v68z" />
    <glyph glyph-name="Eogonek" unicode="&#x118;" horiz-adv-x="628" 
d="M71 0v700h516v-92h-411v-210h270v-90h-270v-216h415v-92h1q-51 -31 -75.5 -59t-24.5 -56q0 -23 15 -36.5t40 -13.5q12 0 23.5 3.5t21.5 10.5l16 -49q-16 -10 -36 -15.5t-41 -5.5q-46 0 -74 24t-28 64q0 36 23 67.5t74 65.5h-455z" />
    <glyph glyph-name="Eth" unicode="&#xd0;" horiz-adv-x="754" 
d="M98 0v307h-83v86h83v307h247q79 0 146.5 -26.5t117 -73t77.5 -111.5t28 -140t-28 -139t-77 -110.5t-117 -73t-147 -26.5h-247zM347 606h-144v-213h179v-86h-179v-213h144q54 0 102 19.5t82.5 54t54.5 81t20 100.5t-20 101.5t-54.5 82t-82.5 54t-102 19.5z" />
    <glyph glyph-name="Gbreve" unicode="&#x11e;" horiz-adv-x="790" 
d="M41 0zM751 341q0 -75 -26.5 -139.5t-72.5 -111.5t-109.5 -74t-136.5 -27q-76 0 -143 28t-116 76.5t-77.5 115t-28.5 141.5t28.5 141.5t77 115t115.5 76.5t143 28q83 0 157 -32t125 -89l-72 -70q-39 45 -94.5 69.5t-115.5 24.5q-54 0 -101.5 -20t-82 -55.5t-54 -84
t-19.5 -104.5t20 -104.5t54.5 -84t82 -56t102.5 -20.5q93 0 158.5 56.5t75.5 143.5h-233v92h343v-36zM405 847q37 0 62 21.5t36 62.5l65 -17q-14 -60 -57 -94t-106 -34t-106 34t-57 94l66 17q11 -42 35.5 -63t61.5 -21z" />
    <glyph glyph-name="Gcircumflex" unicode="&#x11c;" horiz-adv-x="790" 
d="M41 0zM751 341q0 -75 -26.5 -139.5t-72.5 -111.5t-109.5 -74t-136.5 -27q-76 0 -143 28t-116 76.5t-77.5 115t-28.5 141.5t28.5 141.5t77 115t115.5 76.5t143 28q83 0 157 -32t125 -89l-72 -70q-39 45 -94.5 69.5t-115.5 24.5q-54 0 -101.5 -20t-82 -55.5t-54 -84
t-19.5 -104.5t20 -104.5t54.5 -84t82 -56t102.5 -20.5q93 0 158.5 56.5t75.5 143.5h-233v92h343v-36zM484 791l-79 77l-80 -77h-80l108 127h105l108 -127h-82z" />
    <glyph glyph-name="uni0122" unicode="&#x122;" horiz-adv-x="790" 
d="M41 0zM751 341q0 -75 -26.5 -139.5t-72.5 -111.5t-109.5 -74t-136.5 -27q-76 0 -143 28t-116 76.5t-77.5 115t-28.5 141.5t28.5 141.5t77 115t115.5 76.5t143 28q83 0 157 -32t125 -89l-72 -70q-39 45 -94.5 69.5t-115.5 24.5q-54 0 -101.5 -20t-82 -55.5t-54 -84
t-19.5 -104.5t20 -104.5t54.5 -84t82 -56t102.5 -20.5q93 0 158.5 56.5t75.5 143.5h-233v92h343v-36zM362 -83h97l-69 -190h-73z" />
    <glyph glyph-name="Gdotaccent" unicode="&#x120;" horiz-adv-x="790" 
d="M41 0zM751 341q0 -75 -26.5 -139.5t-72.5 -111.5t-109.5 -74t-136.5 -27q-76 0 -143 28t-116 76.5t-77.5 115t-28.5 141.5t28.5 141.5t77 115t115.5 76.5t143 28q83 0 157 -32t125 -89l-72 -70q-39 45 -94.5 69.5t-115.5 24.5q-54 0 -101.5 -20t-82 -55.5t-54 -84
t-19.5 -104.5t20 -104.5t54.5 -84t82 -56t102.5 -20.5q93 0 158.5 56.5t75.5 143.5h-233v92h343v-36zM405 793q-25 0 -42.5 17t-17.5 42t17.5 41.5t42.5 16.5t42.5 -16.5t17.5 -41.5t-17.5 -42t-42.5 -17z" />
    <glyph glyph-name="Hbar" unicode="&#x126;" horiz-adv-x="739" 
d="M79 0v510h-66v86h66v104h105v-104h371v104h105v-104h66v-86h-66v-510h-105v305h-371v-305h-105zM184 400h371v110h-371v-110z" />
    <glyph glyph-name="Hcircumflex" unicode="&#x124;" horiz-adv-x="725" 
d="M71 0zM71 0v700h105v-300h372v300h105v-700h-105v305h-372v-305h-105zM441 791l-79 77l-80 -77h-80l108 127h105l108 -127h-82z" />
    <glyph glyph-name="Iacute" unicode="&#xcd;" horiz-adv-x="248" 
d="M64 0zM71 0v700h105v-700h-105zM156 916h120l-128 -122h-84z" />
    <glyph glyph-name="Ibreve" unicode="&#x12c;" horiz-adv-x="248" 
d="M0 0zM71 0v700h105v-700h-105zM124 847q37 0 62 21.5t36 62.5l65 -17q-14 -60 -57 -94t-106 -34t-106 34t-57 94l66 17q11 -42 35.5 -63t61.5 -21z" />
    <glyph glyph-name="Icircumflex" unicode="&#xce;" horiz-adv-x="248" 
d="M0 0zM71 0v700h105v-700h-105zM203 791l-79 77l-80 -77h-80l108 127h105l108 -127h-82z" />
    <glyph glyph-name="Idieresis" unicode="&#xcf;" horiz-adv-x="248" 
d="M0 0zM71 0v700h105v-700h-105zM27 799q-25 0 -42.5 16.5t-17.5 41.5t17.5 41.5t42.5 16.5t42.5 -16.5t17.5 -41.5t-17.5 -41.5t-42.5 -16.5zM220 799q-25 0 -42.5 16.5t-17.5 41.5t17.5 41.5t42.5 16.5q26 0 43 -16.5t17 -41.5t-17.5 -41.5t-42.5 -16.5z" />
    <glyph glyph-name="Idotaccent" unicode="&#x130;" horiz-adv-x="248" 
d="M64 0zM71 0v700h105v-700h-105zM124 793q-25 0 -42.5 17t-17.5 42t17.5 41.5t42.5 16.5t42.5 -16.5t17.5 -41.5t-17.5 -42t-42.5 -17z" />
    <glyph glyph-name="Igrave" unicode="&#xcc;" horiz-adv-x="248" 
d="M0 0zM71 0v700h105v-700h-105zM94 916l90 -122h-84l-128 122h122z" />
    <glyph glyph-name="IJ" unicode="&#x132;" horiz-adv-x="865" 
d="M71 0zM71 0v700h105v-700h-105zM807 267q0 -126 -75.5 -202t-200.5 -76q-96 0 -165.5 50t-100.5 140l96 38q25 -66 68 -99t103 -33q76 0 123 50.5t47 133.5v431h105v-433z" />
    <glyph glyph-name="Imacron" unicode="&#x12a;" horiz-adv-x="248" 
d="M0 0zM71 0v700h105v-700h-105zM277 881v-68h-298v68h298z" />
    <glyph glyph-name="Iogonek" unicode="&#x12e;" horiz-adv-x="248" 
d="M71 0v700h105v-700h1q-51 -31 -75.5 -59t-24.5 -56q0 -23 15 -36.5t40 -13.5q12 0 23.5 3.5t21.5 10.5l16 -49q-16 -10 -36 -15.5t-41 -5.5q-46 0 -74 24t-28 64q0 36 23 67.5t74 65.5h-40z" />
    <glyph glyph-name="Itilde" unicode="&#x128;" horiz-adv-x="248" 
d="M0 0zM71 0v700h105v-700h-105zM14 786l-65 13q12 55 37.5 82t65.5 27q20 0 39.5 -8.5t38 -18t35.5 -18t32 -8.5q17 0 27.5 12.5t17.5 43.5l64 -14q-12 -54 -37.5 -81t-65.5 -27q-20 0 -39.5 8.5t-37.5 18t-35.5 18t-32.5 8.5q-17 0 -27 -13t-17 -43z" />
    <glyph glyph-name="Jcircumflex" unicode="&#x134;" horiz-adv-x="617" 
d="M17 0zM559 267q0 -126 -75.5 -202t-200.5 -76q-96 0 -165.5 50t-100.5 140l96 38q25 -66 68 -99t103 -33q76 0 123 50.5t47 133.5v431h105v-433zM586 791l-79 77l-80 -77h-80l108 127h105l108 -127h-82z" />
    <glyph glyph-name="uni0136" unicode="&#x136;" horiz-adv-x="650" 
d="M71 0zM71 0v700h105v-326l339 326h132l-361 -338l373 -362h-144l-339 333v-333h-105zM294 -83h97l-69 -190h-73z" />
    <glyph glyph-name="Lacute" unicode="&#x139;" horiz-adv-x="614" 
d="M63 0zM71 0v700h105v-607h403v-93h-508zM155 916h120l-128 -122h-84z" />
    <glyph glyph-name="Lcaron" unicode="&#x13d;" horiz-adv-x="609" 
d="M71 0zM71 0v700h105v-607h403v-93h-508zM405 716h100l-37 -220h-70z" />
    <glyph glyph-name="uni013B" unicode="&#x13b;" horiz-adv-x="614" 
d="M71 0zM71 0v700h105v-607h403v-93h-508zM298 -83h97l-69 -190h-73z" />
    <glyph glyph-name="Ldot" unicode="&#x13f;" horiz-adv-x="609" 
d="M71 0zM71 0v700h105v-607h403v-93h-508zM419 302q-25 0 -42.5 17t-17.5 42t17.5 41.5t42.5 16.5t42.5 -16.5t17.5 -41.5t-17.5 -42t-42.5 -17z" />
    <glyph glyph-name="Lslash" unicode="&#x141;" horiz-adv-x="627" 
d="M90 0v221l-79 -55v94l79 55v385h105v-311l191 134v-94l-191 -134v-202h403v-93h-508z" />
    <glyph glyph-name="Nacute" unicode="&#x143;" horiz-adv-x="735" 
d="M71 0zM71 700h103l390 -519v519h99v-700h-92l-401 536v-536h-99v700zM399 916h120l-128 -122h-84z" />
    <glyph glyph-name="Ncaron" unicode="&#x147;" horiz-adv-x="735" 
d="M71 0zM71 700h103l390 -519v519h99v-700h-92l-401 536v-536h-99v700zM289 919l79 -78l78 78h81l-108 -127h-105l-108 127h83z" />
    <glyph glyph-name="uni0145" unicode="&#x145;" horiz-adv-x="735" 
d="M71 0zM71 700h103l390 -519v519h99v-700h-92l-401 536v-536h-99v700zM319 -83h97l-69 -190h-73z" />
    <glyph glyph-name="Ntilde" unicode="&#xd1;" horiz-adv-x="735" 
d="M71 0zM71 700h103l390 -519v519h99v-700h-92l-401 536v-536h-99v700zM257 786l-65 13q12 55 37.5 82t65.5 27q20 0 39.5 -8.5t38 -18t35.5 -18t32 -8.5q17 0 27.5 12.5t17.5 43.5l64 -14q-12 -54 -37.5 -81t-65.5 -27q-20 0 -39.5 8.5t-37.5 18t-35.5 18t-32.5 8.5
q-17 0 -27 -13t-17 -43z" />
    <glyph glyph-name="Oacute" unicode="&#xd3;" horiz-adv-x="811" 
d="M41 0zM770 350q0 -75 -28.5 -141.5t-77.5 -115t-116 -76.5t-143 -28t-143 28t-115.5 76.5t-77 115t-28.5 141.5t28.5 141.5t77 115t115.5 76.5t143 28t143 -28t116 -76.5t77.5 -115t28.5 -141.5zM663 350q0 56 -20 104.5t-54.5 84t-82 55.5t-101.5 20t-101 -20
t-81.5 -55.5t-54.5 -84t-20 -104.5t20 -104.5t54.5 -83.5t81.5 -55.5t101 -20.5t101.5 20.5t82 55.5t54.5 83.5t20 104.5zM437 916h120l-128 -122h-84z" />
    <glyph glyph-name="Obreve" unicode="&#x14e;" horiz-adv-x="811" 
d="M41 0zM770 350q0 -75 -28.5 -141.5t-77.5 -115t-116 -76.5t-143 -28t-143 28t-115.5 76.5t-77 115t-28.5 141.5t28.5 141.5t77 115t115.5 76.5t143 28t143 -28t116 -76.5t77.5 -115t28.5 -141.5zM663 350q0 56 -20 104.5t-54.5 84t-82 55.5t-101.5 20t-101 -20
t-81.5 -55.5t-54.5 -84t-20 -104.5t20 -104.5t54.5 -83.5t81.5 -55.5t101 -20.5t101.5 20.5t82 55.5t54.5 83.5t20 104.5zM405 847q37 0 62 21.5t36 62.5l65 -17q-14 -60 -57 -94t-106 -34t-106 34t-57 94l66 17q11 -42 35.5 -63t61.5 -21z" />
    <glyph glyph-name="Ocircumflex" unicode="&#xd4;" horiz-adv-x="811" 
d="M41 0zM770 350q0 -75 -28.5 -141.5t-77.5 -115t-116 -76.5t-143 -28t-143 28t-115.5 76.5t-77 115t-28.5 141.5t28.5 141.5t77 115t115.5 76.5t143 28t143 -28t116 -76.5t77.5 -115t28.5 -141.5zM663 350q0 56 -20 104.5t-54.5 84t-82 55.5t-101.5 20t-101 -20
t-81.5 -55.5t-54.5 -84t-20 -104.5t20 -104.5t54.5 -83.5t81.5 -55.5t101 -20.5t101.5 20.5t82 55.5t54.5 83.5t20 104.5zM484 791l-79 77l-80 -77h-80l108 127h105l108 -127h-82z" />
    <glyph glyph-name="Odieresis" unicode="&#xd6;" horiz-adv-x="811" 
d="M41 0zM770 350q0 -75 -28.5 -141.5t-77.5 -115t-116 -76.5t-143 -28t-143 28t-115.5 76.5t-77 115t-28.5 141.5t28.5 141.5t77 115t115.5 76.5t143 28t143 -28t116 -76.5t77.5 -115t28.5 -141.5zM663 350q0 56 -20 104.5t-54.5 84t-82 55.5t-101.5 20t-101 -20
t-81.5 -55.5t-54.5 -84t-20 -104.5t20 -104.5t54.5 -83.5t81.5 -55.5t101 -20.5t101.5 20.5t82 55.5t54.5 83.5t20 104.5zM309 799q-25 0 -42.5 16.5t-17.5 41.5t17.5 41.5t42.5 16.5t42.5 -16.5t17.5 -41.5t-17.5 -41.5t-42.5 -16.5zM502 799q-25 0 -42.5 16.5t-17.5 41.5
t17.5 41.5t42.5 16.5q26 0 43 -16.5t17 -41.5t-17.5 -41.5t-42.5 -16.5z" />
    <glyph glyph-name="OE" unicode="&#x152;" horiz-adv-x="1091" 
d="M396 0q-74 0 -138.5 27.5t-112 74.5t-75 111t-27.5 137t27.5 137t75 111t112 74.5t138.5 27.5h658v-92h-424q46 -39 76.5 -93.5t39.5 -116.5h181v-90h-181q-7 -63 -37 -119.5t-77 -96.5h422v-92h-658zM396 94q52 0 97.5 20t78.5 54t52 81t19 101t-19 101t-52 81t-78.5 54
t-97.5 20q-51 0 -96.5 -20t-78.5 -54t-52 -81t-19 -101t19 -101t52 -81t78.5 -54t96.5 -20z" />
    <glyph glyph-name="Ograve" unicode="&#xd2;" horiz-adv-x="811" 
d="M41 0zM770 350q0 -75 -28.5 -141.5t-77.5 -115t-116 -76.5t-143 -28t-143 28t-115.5 76.5t-77 115t-28.5 141.5t28.5 141.5t77 115t115.5 76.5t143 28t143 -28t116 -76.5t77.5 -115t28.5 -141.5zM663 350q0 56 -20 104.5t-54.5 84t-82 55.5t-101.5 20t-101 -20
t-81.5 -55.5t-54.5 -84t-20 -104.5t20 -104.5t54.5 -83.5t81.5 -55.5t101 -20.5t101.5 20.5t82 55.5t54.5 83.5t20 104.5zM375 916l90 -122h-84l-128 122h122z" />
    <glyph glyph-name="Ohungarumlaut" unicode="&#x150;" horiz-adv-x="811" 
d="M41 0zM770 350q0 -75 -28.5 -141.5t-77.5 -115t-116 -76.5t-143 -28t-143 28t-115.5 76.5t-77 115t-28.5 141.5t28.5 141.5t77 115t115.5 76.5t143 28t143 -28t116 -76.5t77.5 -115t28.5 -141.5zM663 350q0 56 -20 104.5t-54.5 84t-82 55.5t-101.5 20t-101 -20
t-81.5 -55.5t-54.5 -84t-20 -104.5t20 -104.5t54.5 -83.5t81.5 -55.5t101 -20.5t101.5 20.5t82 55.5t54.5 83.5t20 104.5zM370 916h107l-129 -119h-81zM552 916h108l-135 -119h-76z" />
    <glyph glyph-name="Omacron" unicode="&#x14c;" horiz-adv-x="811" 
d="M41 0zM770 350q0 -75 -28.5 -141.5t-77.5 -115t-116 -76.5t-143 -28t-143 28t-115.5 76.5t-77 115t-28.5 141.5t28.5 141.5t77 115t115.5 76.5t143 28t143 -28t116 -76.5t77.5 -115t28.5 -141.5zM663 350q0 56 -20 104.5t-54.5 84t-82 55.5t-101.5 20t-101 -20
t-81.5 -55.5t-54.5 -84t-20 -104.5t20 -104.5t54.5 -83.5t81.5 -55.5t101 -20.5t101.5 20.5t82 55.5t54.5 83.5t20 104.5zM558 881v-68h-298v68h298z" />
    <glyph glyph-name="Oslash" unicode="&#xd8;" horiz-adv-x="811" 
d="M162 0h-100l81 98q-48 48 -75 113t-27 139q0 75 28.5 141.5t77 115t115.5 76.5t143 28q55 0 105 -15t93 -42l38 46h101l-78 -94q49 -49 77.5 -115t28.5 -141t-28.5 -141.5t-77.5 -115t-116 -76.5t-143 -28q-57 0 -108.5 16t-94.5 44zM148 350q0 -50 16.5 -94.5
t44.5 -78.5l330 400q-28 18 -62.5 27.5t-71.5 9.5q-54 0 -101 -20t-81.5 -55.5t-54.5 -84t-20 -104.5zM663 350q0 51 -17 97t-47 80l-333 -401q30 -19 65 -29.5t74 -10.5q54 0 101.5 20.5t82 55.5t54.5 83.5t20 104.5z" />
    <glyph glyph-name="Otilde" unicode="&#xd5;" horiz-adv-x="811" 
d="M41 0zM770 350q0 -75 -28.5 -141.5t-77.5 -115t-116 -76.5t-143 -28t-143 28t-115.5 76.5t-77 115t-28.5 141.5t28.5 141.5t77 115t115.5 76.5t143 28t143 -28t116 -76.5t77.5 -115t28.5 -141.5zM663 350q0 56 -20 104.5t-54.5 84t-82 55.5t-101.5 20t-101 -20
t-81.5 -55.5t-54.5 -84t-20 -104.5t20 -104.5t54.5 -83.5t81.5 -55.5t101 -20.5t101.5 20.5t82 55.5t54.5 83.5t20 104.5zM295 786l-65 13q12 55 37.5 82t65.5 27q20 0 39.5 -8.5t38 -18t35.5 -18t32 -8.5q17 0 27.5 12.5t17.5 43.5l64 -14q-12 -54 -37.5 -81t-65.5 -27
q-20 0 -39.5 8.5t-37.5 18t-35.5 18t-32.5 8.5q-17 0 -27 -13t-17 -43z" />
    <glyph glyph-name="Racute" unicode="&#x154;" horiz-adv-x="659" 
d="M71 0zM71 0v700h318q104 0 168.5 -57.5t64.5 -149.5q0 -69 -39 -119.5t-105 -72.5l156 -301h-116l-145 287h-197v-287h-105zM380 608h-204v-234h204q61 0 98.5 32.5t37.5 84.5q0 53 -37.5 85t-98.5 32zM357 916h120l-128 -122h-84z" />
    <glyph glyph-name="Rcaron" unicode="&#x158;" horiz-adv-x="659" 
d="M71 0zM71 0v700h318q104 0 168.5 -57.5t64.5 -149.5q0 -69 -39 -119.5t-105 -72.5l156 -301h-116l-145 287h-197v-287h-105zM380 608h-204v-234h204q61 0 98.5 32.5t37.5 84.5q0 53 -37.5 85t-98.5 32zM248 919l79 -78l78 78h81l-108 -127h-105l-108 127h83z" />
    <glyph glyph-name="uni0156" unicode="&#x156;" horiz-adv-x="659" 
d="M71 0zM71 0v700h318q104 0 168.5 -57.5t64.5 -149.5q0 -69 -39 -119.5t-105 -72.5l156 -301h-116l-145 287h-197v-287h-105zM380 608h-204v-234h204q61 0 98.5 32.5t37.5 84.5q0 53 -37.5 85t-98.5 32zM283 -83h97l-69 -190h-73z" />
    <glyph glyph-name="Sacute" unicode="&#x15a;" horiz-adv-x="613" 
d="M8 0zM8 116l64 74q57 -55 116.5 -82.5t124.5 -27.5q75 0 122.5 33t47.5 84q0 46 -33 71.5t-109 38.5l-117 19q-96 16 -143.5 61.5t-47.5 120.5q0 91 71 146t187 55q75 0 149 -24.5t133 -70.5l-58 -80q-57 43 -114 64.5t-115 21.5q-68 0 -110 -29t-42 -75q0 -43 29 -65.5
t96 -33.5l113 -18q110 -18 162.5 -65.5t52.5 -128.5q0 -48 -20 -88t-56.5 -68t-88.5 -43.5t-114 -15.5q-84 0 -162 33t-138 93zM320 917h120l-128 -122h-84z" />
    <glyph glyph-name="Scaron" unicode="&#x160;" horiz-adv-x="613" 
d="M8 0zM8 116l64 74q57 -55 116.5 -82.5t124.5 -27.5q75 0 122.5 33t47.5 84q0 46 -33 71.5t-109 38.5l-117 19q-96 16 -143.5 61.5t-47.5 120.5q0 91 71 146t187 55q75 0 149 -24.5t133 -70.5l-58 -80q-57 43 -114 64.5t-115 21.5q-68 0 -110 -29t-42 -75q0 -43 29 -65.5
t96 -33.5l113 -18q110 -18 162.5 -65.5t52.5 -128.5q0 -48 -20 -88t-56.5 -68t-88.5 -43.5t-114 -15.5q-84 0 -162 33t-138 93zM211 920l79 -78l78 78h81l-108 -127h-105l-108 127h83z" />
    <glyph glyph-name="uni015E" unicode="&#x15e;" horiz-adv-x="613" 
d="M8 116l64 74q57 -55 116.5 -82.5t124.5 -27.5q75 0 122.5 33t47.5 84q0 46 -33 71.5t-109 38.5l-117 19q-96 16 -143.5 61.5t-47.5 120.5q0 91 71 146t187 55q75 0 149 -24.5t133 -70.5l-58 -80q-57 43 -114 64.5t-115 21.5q-68 0 -110 -29t-42 -75q0 -43 29 -65.5
t96 -33.5l113 -18q110 -18 162.5 -65.5t52.5 -128.5q0 -94 -74 -153t-193 -62l-12 -40q43 -3 69 -25.5t26 -59.5q0 -41 -34.5 -68t-87.5 -27q-34 0 -64.5 10.5t-53.5 31.5l36 39q19 -15 39 -23t42 -8q28 0 44 12.5t16 32.5q0 19 -17 31t-46 12h-34l24 84q-72 7 -139.5 39
t-119.5 85z" />
    <glyph glyph-name="Scircumflex" unicode="&#x15c;" horiz-adv-x="613" 
d="M8 0zM8 116l64 74q57 -55 116.5 -82.5t124.5 -27.5q75 0 122.5 33t47.5 84q0 46 -33 71.5t-109 38.5l-117 19q-96 16 -143.5 61.5t-47.5 120.5q0 91 71 146t187 55q75 0 149 -24.5t133 -70.5l-58 -80q-57 43 -114 64.5t-115 21.5q-68 0 -110 -29t-42 -75q0 -43 29 -65.5
t96 -33.5l113 -18q110 -18 162.5 -65.5t52.5 -128.5q0 -48 -20 -88t-56.5 -68t-88.5 -43.5t-114 -15.5q-84 0 -162 33t-138 93zM367 792l-79 77l-80 -77h-80l108 127h105l108 -127h-82z" />
    <glyph glyph-name="uni0218" unicode="&#x218;" horiz-adv-x="613" 
d="M8 0zM8 116l64 74q57 -55 116.5 -82.5t124.5 -27.5q75 0 122.5 33t47.5 84q0 46 -33 71.5t-109 38.5l-117 19q-96 16 -143.5 61.5t-47.5 120.5q0 91 71 146t187 55q75 0 149 -24.5t133 -70.5l-58 -80q-57 43 -114 64.5t-115 21.5q-68 0 -110 -29t-42 -75q0 -43 29 -65.5
t96 -33.5l113 -18q110 -18 162.5 -65.5t52.5 -128.5q0 -48 -20 -88t-56.5 -68t-88.5 -43.5t-114 -15.5q-84 0 -162 33t-138 93zM249 -82h97l-69 -190h-73z" />
    <glyph glyph-name="Tbar" unicode="&#x166;" horiz-adv-x="631" 
d="M119 382h144v225h-246v93h597v-93h-246v-225h144v-87h-144v-295h-105v295h-144v87z" />
    <glyph glyph-name="Tcaron" unicode="&#x164;" horiz-adv-x="631" 
d="M17 0zM17 607v93h597v-93h-246v-607h-105v607h-246zM238 919l79 -78l78 78h81l-108 -127h-105l-108 127h83z" />
    <glyph glyph-name="uni0162" unicode="&#x162;" horiz-adv-x="631" 
d="M17 607v93h597v-93h-246v-607h-26l-15 -51q43 -3 69 -25.5t26 -59.5q0 -41 -34.5 -68t-87.5 -27q-34 0 -64.5 10.5t-53.5 31.5l36 39q19 -15 39 -23t42 -8q28 0 44 12.5t16 32.5q0 19 -17 31t-46 12h-34l27 93h-26v607h-246z" />
    <glyph glyph-name="uni021A" unicode="&#x21a;" horiz-adv-x="631" 
d="M17 0zM17 607v93h597v-93h-246v-607h-105v607h-246zM265 -83h97l-69 -190h-73z" />
    <glyph glyph-name="Thorn" unicode="&#xde;" horiz-adv-x="654" 
d="M71 0v700h105v-136h220q48 0 89 -16.5t70 -45t46 -68t17 -85.5q0 -45 -17 -84t-46.5 -67.5t-70.5 -44.5t-88 -16h-220v-137h-105zM384 472h-208v-246h208q54 0 91 35t37 87q0 54 -37 89t-91 35z" />
    <glyph glyph-name="Uacute" unicode="&#xda;" horiz-adv-x="712" 
d="M59 0zM654 299q0 -71 -21 -128.5t-59.5 -97.5t-94 -62t-123.5 -22q-136 0 -216.5 84t-80.5 226v401h105v-401q0 -97 52.5 -155t139.5 -58q88 0 140.5 58t52.5 155v401h105v-401zM388 916h120l-128 -122h-84z" />
    <glyph glyph-name="Ubreve" unicode="&#x16c;" horiz-adv-x="712" 
d="M59 0zM654 299q0 -71 -21 -128.5t-59.5 -97.5t-94 -62t-123.5 -22q-136 0 -216.5 84t-80.5 226v401h105v-401q0 -97 52.5 -155t139.5 -58q88 0 140.5 58t52.5 155v401h105v-401zM356 847q37 0 62 21.5t36 62.5l65 -17q-14 -60 -57 -94t-106 -34t-106 34t-57 94l66 17
q11 -42 35.5 -63t61.5 -21z" />
    <glyph glyph-name="Ucircumflex" unicode="&#xdb;" horiz-adv-x="712" 
d="M59 0zM654 299q0 -71 -21 -128.5t-59.5 -97.5t-94 -62t-123.5 -22q-136 0 -216.5 84t-80.5 226v401h105v-401q0 -97 52.5 -155t139.5 -58q88 0 140.5 58t52.5 155v401h105v-401zM435 791l-79 77l-80 -77h-80l108 127h105l108 -127h-82z" />
    <glyph glyph-name="Udieresis" unicode="&#xdc;" horiz-adv-x="712" 
d="M59 0zM654 299q0 -71 -21 -128.5t-59.5 -97.5t-94 -62t-123.5 -22q-136 0 -216.5 84t-80.5 226v401h105v-401q0 -97 52.5 -155t139.5 -58q88 0 140.5 58t52.5 155v401h105v-401zM260 799q-25 0 -42.5 16.5t-17.5 41.5t17.5 41.5t42.5 16.5t42.5 -16.5t17.5 -41.5
t-17.5 -41.5t-42.5 -16.5zM453 799q-25 0 -42.5 16.5t-17.5 41.5t17.5 41.5t42.5 16.5q26 0 43 -16.5t17 -41.5t-17.5 -41.5t-42.5 -16.5z" />
    <glyph glyph-name="Ugrave" unicode="&#xd9;" horiz-adv-x="712" 
d="M59 0zM654 299q0 -71 -21 -128.5t-59.5 -97.5t-94 -62t-123.5 -22q-136 0 -216.5 84t-80.5 226v401h105v-401q0 -97 52.5 -155t139.5 -58q88 0 140.5 58t52.5 155v401h105v-401zM326 916l90 -122h-84l-128 122h122z" />
    <glyph glyph-name="Uhungarumlaut" unicode="&#x170;" horiz-adv-x="712" 
d="M59 0zM654 299q0 -71 -21 -128.5t-59.5 -97.5t-94 -62t-123.5 -22q-136 0 -216.5 84t-80.5 226v401h105v-401q0 -97 52.5 -155t139.5 -58q88 0 140.5 58t52.5 155v401h105v-401zM321 916h107l-129 -119h-81zM503 916h108l-135 -119h-76z" />
    <glyph glyph-name="Umacron" unicode="&#x16a;" horiz-adv-x="712" 
d="M59 0zM654 299q0 -71 -21 -128.5t-59.5 -97.5t-94 -62t-123.5 -22q-136 0 -216.5 84t-80.5 226v401h105v-401q0 -97 52.5 -155t139.5 -58q88 0 140.5 58t52.5 155v401h105v-401zM509 881v-68h-298v68h298z" />
    <glyph glyph-name="Uogonek" unicode="&#x172;" horiz-adv-x="712" 
d="M654 299q0 -120 -59.5 -200t-161.5 -102q-49 -31 -72 -58t-23 -54q0 -23 15 -36.5t40 -13.5q12 0 23.5 3.5t21.5 10.5l16 -49q-16 -10 -36 -15.5t-41 -5.5q-46 0 -74 24t-28 64q0 33 19 62t62 60q-136 0 -216.5 84t-80.5 226v401h105v-401q0 -97 52.5 -155t139.5 -58
q88 0 140.5 58t52.5 155v401h105v-401z" />
    <glyph glyph-name="Uring" unicode="&#x16e;" horiz-adv-x="712" 
d="M59 0zM654 299q0 -71 -21 -128.5t-59.5 -97.5t-94 -62t-123.5 -22q-136 0 -216.5 84t-80.5 226v401h105v-401q0 -97 52.5 -155t139.5 -58q88 0 140.5 58t52.5 155v401h105v-401zM356 774q-49 0 -82.5 33.5t-33.5 82.5q0 48 33.5 81.5t82.5 33.5t82.5 -33.5t33.5 -81.5
q0 -49 -34 -82.5t-82 -33.5zM356 822q28 0 46.5 20t18.5 48t-18.5 47t-46.5 19q-27 0 -46 -19t-19 -47q0 -29 18.5 -48.5t46.5 -19.5z" />
    <glyph glyph-name="Utilde" unicode="&#x168;" horiz-adv-x="712" 
d="M59 0zM654 299q0 -71 -21 -128.5t-59.5 -97.5t-94 -62t-123.5 -22q-136 0 -216.5 84t-80.5 226v401h105v-401q0 -97 52.5 -155t139.5 -58q88 0 140.5 58t52.5 155v401h105v-401zM246 786l-65 13q12 55 37.5 82t65.5 27q20 0 39.5 -8.5t38 -18t35.5 -18t32 -8.5
q17 0 27.5 12.5t17.5 43.5l64 -14q-12 -54 -37.5 -81t-65.5 -27q-20 0 -39.5 8.5t-37.5 18t-35.5 18t-32.5 8.5q-17 0 -27 -13t-17 -43z" />
    <glyph glyph-name="Wacute" unicode="&#x1e82;" horiz-adv-x="908" 
d="M31 0zM292 0h-108l-153 700h108l109 -535l158 535h100l158 -535l109 535h104l-153 -700h-108l-162 550zM487 916h120l-128 -122h-84z" />
    <glyph glyph-name="Wdieresis" unicode="&#x1e84;" horiz-adv-x="908" 
d="M31 0zM292 0h-108l-153 700h108l109 -535l158 535h100l158 -535l109 535h104l-153 -700h-108l-162 550zM357 799q-25 0 -42.5 16.5t-17.5 41.5t17.5 41.5t42.5 16.5t42.5 -16.5t17.5 -41.5t-17.5 -41.5t-42.5 -16.5zM550 799q-25 0 -42.5 16.5t-17.5 41.5t17.5 41.5
t42.5 16.5q26 0 43 -16.5t17 -41.5t-17.5 -41.5t-42.5 -16.5z" />
    <glyph glyph-name="Wgrave" unicode="&#x1e80;" horiz-adv-x="908" 
d="M31 0zM292 0h-108l-153 700h108l109 -535l158 535h100l158 -535l109 535h104l-153 -700h-108l-162 550zM425 916l90 -122h-84l-128 122h122z" />
    <glyph glyph-name="Wcircumflex" unicode="&#x174;" horiz-adv-x="908" 
d="M31 0zM292 0h-108l-153 700h108l109 -535l158 535h100l158 -535l109 535h104l-153 -700h-108l-162 550zM532 791l-79 77l-80 -77h-80l108 127h105l108 -127h-82z" />
    <glyph glyph-name="Yacute" unicode="&#xdd;" horiz-adv-x="667" 
d="M0 0zM281 0v276l-282 424h122l215 -330l216 330h116l-282 -423v-277h-105zM365 916h120l-128 -122h-84z" />
    <glyph glyph-name="Ycircumflex" unicode="&#x176;" horiz-adv-x="667" 
d="M0 0zM281 0v276l-282 424h122l215 -330l216 330h116l-282 -423v-277h-105zM413 791l-79 77l-80 -77h-80l108 127h105l108 -127h-82z" />
    <glyph glyph-name="Ydieresis" unicode="&#x178;" horiz-adv-x="667" 
d="M0 0zM281 0v276l-282 424h122l215 -330l216 330h116l-282 -423v-277h-105zM237 799q-25 0 -42.5 16.5t-17.5 41.5t17.5 41.5t42.5 16.5t42.5 -16.5t17.5 -41.5t-17.5 -41.5t-42.5 -16.5zM430 799q-25 0 -42.5 16.5t-17.5 41.5t17.5 41.5t42.5 16.5q26 0 43 -16.5
t17 -41.5t-17.5 -41.5t-42.5 -16.5z" />
    <glyph glyph-name="Ygrave" unicode="&#x1ef2;" horiz-adv-x="667" 
d="M0 0zM281 0v276l-282 424h122l215 -330l216 330h116l-282 -423v-277h-105zM304 916l90 -122h-84l-128 122h122z" />
    <glyph glyph-name="Zacute" unicode="&#x179;" horiz-adv-x="609" 
d="M23 0zM23 0v73l420 535h-417v92h554v-73l-421 -535h428v-92h-564zM343 916h120l-128 -122h-84z" />
    <glyph glyph-name="Zcaron" unicode="&#x17d;" horiz-adv-x="609" 
d="M23 0zM23 0v73l420 535h-417v92h554v-73l-421 -535h428v-92h-564zM234 919l79 -78l78 78h81l-108 -127h-105l-108 127h83z" />
    <glyph glyph-name="Zdotaccent" unicode="&#x17b;" horiz-adv-x="609" 
d="M23 0zM23 0v73l420 535h-417v92h554v-73l-421 -535h428v-92h-564zM312 793q-25 0 -42.5 17t-17.5 42t17.5 41.5t42.5 16.5t42.5 -16.5t17.5 -41.5t-17.5 -42t-42.5 -17z" />
    <glyph glyph-name="a" unicode="a" horiz-adv-x="532" 
d="M220 -9q-83 0 -135 43t-52 112q0 72 55 113.5t151 41.5q37 0 72 -7.5t67 -20.5v54q0 54 -32 81t-92 27q-35 0 -73 -10.5t-85 -32.5l-37 75q57 27 108 39.5t101 12.5q99 0 153.5 -47.5t54.5 -134.5v-337h-98v44q-34 -27 -73 -40t-85 -13zM129 148q0 -37 31.5 -60t82.5 -23
q40 0 74 12t61 36v88q-29 16 -61 23.5t-70 7.5q-54 0 -86 -23t-32 -61z" />
    <glyph glyph-name="b" unicode="b" horiz-adv-x="607" 
d="M571 255q0 -55 -20 -103.5t-54.5 -83.5t-82.5 -55.5t-102 -20.5q-43 0 -82 13t-72 38v-43h-99v700l100 22v-261q31 27 71 41.5t84 14.5q54 0 101 -20.5t81.5 -55.5t54.5 -83t20 -103zM301 430q-43 0 -80 -16t-62 -45v-230q24 -28 61.5 -44t80.5 -16q73 0 122.5 50
t49.5 125t-50 125.5t-122 50.5z" />
    <glyph glyph-name="c" unicode="c" horiz-adv-x="521" 
d="M302 79q38 0 72 15.5t65 46.5l60 -65q-40 -40 -92 -62.5t-109 -22.5q-55 0 -103 20.5t-83 55.5t-55.5 83.5t-20.5 104.5q0 55 20.5 103.5t55.5 84t83 56t103 20.5q57 0 111 -22.5t94 -62.5l-63 -68q-29 31 -65 47.5t-75 16.5q-69 0 -117 -51t-48 -124q0 -75 48.5 -125.5
t118.5 -50.5z" />
    <glyph glyph-name="d" unicode="d" horiz-adv-x="607" 
d="M449 0v48q-32 -27 -72 -41.5t-84 -14.5q-54 0 -101 20.5t-81.5 55.5t-54.5 83.5t-20 103.5t20 103t54.5 83t82.5 55.5t102 20.5q42 0 81 -13t72 -37v233l100 22v-722h-99zM134 256q0 -75 50 -126t123 -51q43 0 79.5 16t61.5 45v231q-25 28 -62 44t-79 16q-73 0 -123 -50
t-50 -125z" />
    <glyph glyph-name="e" unicode="e" horiz-adv-x="573" 
d="M500 58q-44 -34 -92 -50.5t-105 -16.5q-56 0 -105 20.5t-85 55.5t-56.5 83.5t-20.5 104.5q0 55 20 103t54 83t81 55.5t100 20.5q52 0 97.5 -20.5t78 -56t51.5 -84.5t19 -105v-29h-402q10 -63 58 -104.5t114 -41.5q37 0 71 12t58 33zM289 433q-57 0 -99.5 -38t-53.5 -98
h302q-11 58 -52.5 97t-96.5 39z" />
    <glyph glyph-name="f" unicode="f" horiz-adv-x="397" 
d="M17 509h118v77q0 79 44.5 121.5t128.5 42.5q20 0 38 -2.5t34 -6.5v-87q-18 5 -32 7t-31 2q-41 0 -61.5 -19.5t-20.5 -59.5v-75h145v-84h-145v-425h-100v425h-118v84z" />
    <glyph glyph-name="g" unicode="g" horiz-adv-x="603" 
d="M292 -4q-53 0 -100 20.5t-81.5 55.5t-54.5 83t-20 102t20 102t54.5 83t82 55.5t101.5 20.5q41 0 79.5 -13t71.5 -38v42h99v-516q0 -99 -60.5 -152.5t-172.5 -53.5q-55 0 -108.5 13t-96.5 37l39 78q43 -22 83 -33t80 -11q66 0 101 31t35 91v57q-32 -26 -71 -40t-81 -14z
M134 257q0 -73 49 -123.5t121 -50.5q43 0 79 15.5t61 43.5v230q-24 28 -60.5 43.5t-79.5 15.5q-72 0 -121 -50.5t-49 -123.5z" />
    <glyph glyph-name="h" unicode="h" 
d="M59 0v700l100 22v-264q30 30 68.5 45.5t84.5 15.5q87 0 143 -55.5t56 -143.5v-320h-100v303q0 60 -34.5 94.5t-91.5 34.5q-40 0 -72.5 -17t-53.5 -49v-366h-100z" />
    <glyph glyph-name="i" unicode="i" horiz-adv-x="218" 
d="M109 591q-25 0 -43 18.5t-18 43.5t18 43.5t43 18.5t43.5 -18.5t18.5 -43.5t-18.5 -43.5t-43.5 -18.5zM159 509v-509h-100v509h100z" />
    <glyph glyph-name="j" unicode="j" horiz-adv-x="218" 
d="M109 591q-25 0 -43 18.5t-18 43.5t18 43.5t43 18.5t43.5 -18.5t18.5 -43.5t-18.5 -43.5t-43.5 -18.5zM14 -211q-16 0 -31.5 2t-25.5 5v80q10 -2 19 -3t21 -1q33 0 47.5 14.5t14.5 47.5v575h100v-582q0 -66 -38 -102t-107 -36z" />
    <glyph glyph-name="k" unicode="k" horiz-adv-x="524" 
d="M59 0v700l100 22v-437l247 224h117l-262 -239l276 -270h-132l-246 240v-240h-100z" />
    <glyph glyph-name="l" unicode="l" horiz-adv-x="218" 
d="M159 722v-722h-100v700z" />
    <glyph glyph-name="m" unicode="m" horiz-adv-x="878" 
d="M59 0v509h100v-48q28 28 64 43t79 15q51 0 92 -22.5t65 -62.5q31 42 74.5 63.5t97.5 21.5q84 0 137.5 -55.5t53.5 -143.5v-320h-100v303q0 60 -31.5 94.5t-85.5 34.5q-37 0 -67 -17t-52 -51q2 -10 3 -21.5t1 -22.5v-320h-99v303q0 60 -31.5 94.5t-85.5 34.5
q-36 0 -65 -15.5t-50 -46.5v-370h-100z" />
    <glyph glyph-name="n" unicode="n" 
d="M59 0v509h100v-51q30 30 68.5 45.5t84.5 15.5q87 0 143 -55.5t56 -143.5v-320h-100v303q0 60 -34.5 94.5t-91.5 34.5q-40 0 -72.5 -17t-53.5 -49v-366h-100z" />
    <glyph glyph-name="o" unicode="o" horiz-adv-x="601" 
d="M36 255q0 55 20.5 103.5t56.5 84t84.5 56t103.5 20.5t103.5 -20.5t84 -56t56 -84t20.5 -103.5q0 -56 -20.5 -104.5t-56 -84t-84 -56t-103.5 -20.5t-103.5 20.5t-84.5 56t-56.5 84t-20.5 104.5zM301 78q69 0 117.5 51.5t48.5 125.5t-48.5 125t-117.5 51t-118 -51t-49 -125
t48.5 -125.5t118.5 -51.5z" />
    <glyph glyph-name="p" unicode="p" horiz-adv-x="607" 
d="M59 -207v716h99v-49q31 28 71 42.5t85 14.5q54 0 101 -20.5t81.5 -55.5t54.5 -83t20 -103t-20 -103.5t-54.5 -83.5t-82.5 -55.5t-102 -20.5q-42 0 -81.5 13t-71.5 37v-249h-100zM301 430q-43 0 -80 -16t-62 -45v-230q24 -28 61.5 -44t80.5 -16q73 0 122.5 50t49.5 125
t-50 125.5t-122 50.5z" />
    <glyph glyph-name="q" unicode="q" horiz-adv-x="607" 
d="M293 -8q-54 0 -101 20.5t-81.5 55.5t-54.5 83.5t-20 103.5t20 103t54.5 83t82.5 55.5t102 20.5q43 0 82.5 -13t71.5 -37v42h99v-716h-100v254q-32 -27 -71.5 -41t-83.5 -14zM134 256q0 -75 50 -126t123 -51q43 0 79.5 16t61.5 45v231q-25 28 -62 44t-79 16
q-73 0 -123 -50t-50 -125z" />
    <glyph glyph-name="r" unicode="r" horiz-adv-x="371" 
d="M59 0v509h100v-65q23 37 59 56.5t81 19.5q16 0 28 -2t23 -6v-90q-14 5 -29 8t-30 3q-44 0 -78.5 -23.5t-53.5 -69.5v-340h-100z" />
    <glyph glyph-name="s" unicode="s" horiz-adv-x="465" 
d="M11 66l54 66q40 -31 81.5 -47.5t84.5 -16.5q54 0 88 21t34 55q0 27 -20 43t-62 22l-92 13q-75 11 -113.5 46.5t-38.5 94.5q0 69 55 111.5t144 42.5q56 0 106.5 -16t98.5 -49l-51 -66q-42 28 -81.5 40.5t-79.5 12.5q-46 0 -74 -19t-28 -50q0 -28 19.5 -42.5t64.5 -21.5
l92 -13q75 -11 114.5 -47t39.5 -95q0 -34 -16.5 -63.5t-45 -50.5t-67.5 -33.5t-84 -12.5q-66 0 -123.5 19t-99.5 56z" />
    <glyph glyph-name="t" unicode="t" horiz-adv-x="389" 
d="M125 126v299h-108v84h108v130l99 24v-154h150v-84h-150v-276q0 -39 17.5 -55t57.5 -16q21 0 37.5 2.5t35.5 9.5v-84q-20 -7 -46.5 -11t-48.5 -4q-74 0 -113 34.5t-39 100.5z" />
    <glyph glyph-name="u" unicode="u" 
d="M157 509v-302q0 -60 34.5 -95t91.5 -35q40 0 72 17.5t53 49.5v365h100v-509h-100v51q-30 -30 -68.5 -45.5t-84.5 -15.5q-87 0 -142.5 56t-55.5 144v319h100z" />
    <glyph glyph-name="v" unicode="v" horiz-adv-x="541" 
d="M223 0l-220 509h110l159 -381l159 381h107l-220 -509h-95z" />
    <glyph glyph-name="w" unicode="w" horiz-adv-x="731" 
d="M251 0h-97l-142 509h97l98 -374l117 374h86l116 -374l99 374h94l-143 -509h-96l-114 373z" />
    <glyph glyph-name="x" unicode="x" horiz-adv-x="517" 
d="M2 0l198 261l-190 248h117l131 -175l131 175h113l-188 -247l201 -262h-118l-140 188l-142 -188h-113z" />
    <glyph glyph-name="y" unicode="y" horiz-adv-x="537" 
d="M186 -48l20 46l-203 511h110l149 -389l164 389h108l-246 -570q-35 -81 -80 -116.5t-115 -35.5q-16 0 -29.5 1.5t-23.5 4.5v88q10 -2 20.5 -3t24.5 -1q34 0 59.5 18.5t41.5 56.5z" />
    <glyph glyph-name="z" unicode="z" horiz-adv-x="478" 
d="M29 0v74l285 349h-282v86h408v-73l-286 -350h291v-86h-416z" />
    <glyph glyph-name="aacute" unicode="&#xe1;" horiz-adv-x="532" 
d="M33 0zM220 -9q-83 0 -135 43t-52 112q0 72 55 113.5t151 41.5q37 0 72 -7.5t67 -20.5v54q0 54 -32 81t-92 27q-35 0 -73 -10.5t-85 -32.5l-37 75q57 27 108 39.5t101 12.5q99 0 153.5 -47.5t54.5 -134.5v-337h-98v44q-34 -27 -73 -40t-85 -13zM129 148q0 -37 31.5 -60
t82.5 -23q40 0 74 12t61 36v88q-29 16 -61 23.5t-70 7.5q-54 0 -86 -23t-32 -61zM289 725h120l-128 -122h-84z" />
    <glyph glyph-name="abreve" unicode="&#x103;" horiz-adv-x="532" 
d="M33 0zM220 -9q-83 0 -135 43t-52 112q0 72 55 113.5t151 41.5q37 0 72 -7.5t67 -20.5v54q0 54 -32 81t-92 27q-35 0 -73 -10.5t-85 -32.5l-37 75q57 27 108 39.5t101 12.5q99 0 153.5 -47.5t54.5 -134.5v-337h-98v44q-34 -27 -73 -40t-85 -13zM129 148q0 -37 31.5 -60
t82.5 -23q40 0 74 12t61 36v88q-29 16 -61 23.5t-70 7.5q-54 0 -86 -23t-32 -61zM257 656q37 0 62 21.5t36 62.5l65 -17q-14 -60 -57 -94t-106 -34t-106 34t-57 94l66 17q11 -42 35.5 -63t61.5 -21z" />
    <glyph glyph-name="acircumflex" unicode="&#xe2;" horiz-adv-x="532" 
d="M33 0zM220 -9q-83 0 -135 43t-52 112q0 72 55 113.5t151 41.5q37 0 72 -7.5t67 -20.5v54q0 54 -32 81t-92 27q-35 0 -73 -10.5t-85 -32.5l-37 75q57 27 108 39.5t101 12.5q99 0 153.5 -47.5t54.5 -134.5v-337h-98v44q-34 -27 -73 -40t-85 -13zM129 148q0 -37 31.5 -60
t82.5 -23q40 0 74 12t61 36v88q-29 16 -61 23.5t-70 7.5q-54 0 -86 -23t-32 -61zM336 600l-79 77l-80 -77h-80l108 127h105l108 -127h-82z" />
    <glyph glyph-name="adieresis" unicode="&#xe4;" horiz-adv-x="532" 
d="M33 0zM220 -9q-83 0 -135 43t-52 112q0 72 55 113.5t151 41.5q37 0 72 -7.5t67 -20.5v54q0 54 -32 81t-92 27q-35 0 -73 -10.5t-85 -32.5l-37 75q57 27 108 39.5t101 12.5q99 0 153.5 -47.5t54.5 -134.5v-337h-98v44q-34 -27 -73 -40t-85 -13zM129 148q0 -37 31.5 -60
t82.5 -23q40 0 74 12t61 36v88q-29 16 -61 23.5t-70 7.5q-54 0 -86 -23t-32 -61zM161 608q-25 0 -42.5 16.5t-17.5 41.5t17.5 41.5t42.5 16.5t42.5 -16.5t17.5 -41.5t-17.5 -41.5t-42.5 -16.5zM354 608q-25 0 -42.5 16.5t-17.5 41.5t17.5 41.5t42.5 16.5q26 0 43 -16.5
t17 -41.5t-17.5 -41.5t-42.5 -16.5z" />
    <glyph glyph-name="ae" unicode="&#xe6;" horiz-adv-x="915" 
d="M220 -9q-81 0 -133 43t-52 112q0 71 55.5 113t150.5 42q37 0 71.5 -7t65.5 -20v53q0 54 -32 81t-92 27q-35 0 -73 -10.5t-85 -32.5l-37 75q57 27 108 39.5t101 12.5q66 0 112.5 -21.5t70.5 -62.5q34 39 81 60.5t101 21.5q52 0 97.5 -20.5t78 -56t51.5 -84.5t19 -105v-29
h-402q10 -63 58 -104.5t114 -41.5q37 0 71 12t58 33l64 -63q-45 -34 -92.5 -50.5t-104.5 -16.5q-63 0 -117 26t-91 70q-44 -49 -97.5 -72.5t-119.5 -23.5zM631 433q-58 0 -100 -38t-53 -98h302q-11 58 -52.5 97t-96.5 39zM131 148q0 -37 31 -60t81 -23q46 0 86 19.5t74 56.5
q-7 13 -11.5 28t-7.5 30q-29 17 -62.5 25t-72.5 8q-54 0 -86 -23t-32 -61z" />
    <glyph glyph-name="agrave" unicode="&#xe0;" horiz-adv-x="532" 
d="M33 0zM220 -9q-83 0 -135 43t-52 112q0 72 55 113.5t151 41.5q37 0 72 -7.5t67 -20.5v54q0 54 -32 81t-92 27q-35 0 -73 -10.5t-85 -32.5l-37 75q57 27 108 39.5t101 12.5q99 0 153.5 -47.5t54.5 -134.5v-337h-98v44q-34 -27 -73 -40t-85 -13zM129 148q0 -37 31.5 -60
t82.5 -23q40 0 74 12t61 36v88q-29 16 -61 23.5t-70 7.5q-54 0 -86 -23t-32 -61zM227 725l90 -122h-84l-128 122h122z" />
    <glyph glyph-name="amacron" unicode="&#x101;" horiz-adv-x="532" 
d="M33 0zM220 -9q-83 0 -135 43t-52 112q0 72 55 113.5t151 41.5q37 0 72 -7.5t67 -20.5v54q0 54 -32 81t-92 27q-35 0 -73 -10.5t-85 -32.5l-37 75q57 27 108 39.5t101 12.5q99 0 153.5 -47.5t54.5 -134.5v-337h-98v44q-34 -27 -73 -40t-85 -13zM129 148q0 -37 31.5 -60
t82.5 -23q40 0 74 12t61 36v88q-29 16 -61 23.5t-70 7.5q-54 0 -86 -23t-32 -61zM410 690v-68h-298v68h298z" />
    <glyph glyph-name="aogonek" unicode="&#x105;" horiz-adv-x="532" 
d="M220 -9q-83 0 -135 43t-52 112q0 72 55 113.5t151 41.5q37 0 72 -7.5t67 -20.5v54q0 54 -32 81t-92 27q-35 0 -73 -10.5t-85 -32.5l-37 75q57 27 108 39.5t101 12.5q99 0 153.5 -47.5t54.5 -134.5v-337q-51 -31 -75.5 -59t-24.5 -56q0 -23 15 -36.5t40 -13.5
q12 0 23.5 3.5t21.5 10.5l16 -49q-16 -10 -36 -15.5t-41 -5.5q-46 0 -74 24t-28 64q0 36 23 67.5t74 65.5h-32v44q-34 -27 -73 -40t-85 -13zM129 148q0 -37 31.5 -60t82.5 -23q40 0 74 12t61 36v88q-29 16 -61 23.5t-70 7.5q-54 0 -86 -23t-32 -61z" />
    <glyph glyph-name="aring" unicode="&#xe5;" horiz-adv-x="532" 
d="M33 0zM220 -9q-83 0 -135 43t-52 112q0 72 55 113.5t151 41.5q37 0 72 -7.5t67 -20.5v54q0 54 -32 81t-92 27q-35 0 -73 -10.5t-85 -32.5l-37 75q57 27 108 39.5t101 12.5q99 0 153.5 -47.5t54.5 -134.5v-337h-98v44q-34 -27 -73 -40t-85 -13zM129 148q0 -37 31.5 -60
t82.5 -23q40 0 74 12t61 36v88q-29 16 -61 23.5t-70 7.5q-54 0 -86 -23t-32 -61zM257 583q-49 0 -82.5 33.5t-33.5 82.5q0 48 33.5 81.5t82.5 33.5t82.5 -33.5t33.5 -81.5q0 -49 -34 -82.5t-82 -33.5zM257 631q28 0 46.5 20t18.5 48t-18.5 47t-46.5 19q-27 0 -46 -19
t-19 -47q0 -29 18.5 -48.5t46.5 -19.5z" />
    <glyph glyph-name="atilde" unicode="&#xe3;" horiz-adv-x="532" 
d="M33 0zM220 -9q-83 0 -135 43t-52 112q0 72 55 113.5t151 41.5q37 0 72 -7.5t67 -20.5v54q0 54 -32 81t-92 27q-35 0 -73 -10.5t-85 -32.5l-37 75q57 27 108 39.5t101 12.5q99 0 153.5 -47.5t54.5 -134.5v-337h-98v44q-34 -27 -73 -40t-85 -13zM129 148q0 -37 31.5 -60
t82.5 -23q40 0 74 12t61 36v88q-29 16 -61 23.5t-70 7.5q-54 0 -86 -23t-32 -61zM147 595l-65 13q12 55 37.5 82t65.5 27q20 0 39.5 -8.5t38 -18t35.5 -18t32 -8.5q17 0 27.5 12.5t17.5 43.5l64 -14q-12 -54 -37.5 -81t-65.5 -27q-20 0 -39.5 8.5t-37.5 18t-35.5 18
t-32.5 8.5q-17 0 -27 -13t-17 -43z" />
    <glyph glyph-name="cacute" unicode="&#x107;" horiz-adv-x="521" 
d="M36 0zM302 79q38 0 72 15.5t65 46.5l60 -65q-40 -40 -92 -62.5t-109 -22.5q-55 0 -103 20.5t-83 55.5t-55.5 83.5t-20.5 104.5q0 55 20.5 103.5t55.5 84t83 56t103 20.5q57 0 111 -22.5t94 -62.5l-63 -68q-29 31 -65 47.5t-75 16.5q-69 0 -117 -51t-48 -124
q0 -75 48.5 -125.5t118.5 -50.5zM329 725h120l-128 -122h-84z" />
    <glyph glyph-name="ccaron" unicode="&#x10d;" horiz-adv-x="521" 
d="M36 0zM302 79q38 0 72 15.5t65 46.5l60 -65q-40 -40 -92 -62.5t-109 -22.5q-55 0 -103 20.5t-83 55.5t-55.5 83.5t-20.5 104.5q0 55 20.5 103.5t55.5 84t83 56t103 20.5q57 0 111 -22.5t94 -62.5l-63 -68q-29 31 -65 47.5t-75 16.5q-69 0 -117 -51t-48 -124
q0 -75 48.5 -125.5t118.5 -50.5zM219 728l79 -78l78 78h81l-108 -127h-105l-108 127h83z" />
    <glyph glyph-name="ccedilla" unicode="&#xe7;" horiz-adv-x="521" 
d="M302 79q38 0 72 15.5t65 46.5l60 -65q-35 -36 -80.5 -58t-95.5 -26l-13 -43q43 -3 69 -25.5t26 -59.5q0 -41 -34.5 -68t-87.5 -27q-34 0 -64.5 10.5t-53.5 31.5l36 39q19 -15 39 -23t42 -8q28 0 44 12.5t16 32.5q0 19 -17 31t-46 12h-34l25 85q-50 5 -93 27.5t-74 57
t-49 80.5t-18 98q0 55 20.5 103.5t55.5 84t83 56t103 20.5q57 0 111 -22.5t94 -62.5l-63 -68q-29 31 -65 47.5t-75 16.5q-69 0 -117 -51t-48 -124q0 -75 48.5 -125.5t118.5 -50.5z" />
    <glyph glyph-name="ccircumflex" unicode="&#x109;" horiz-adv-x="521" 
d="M36 0zM302 79q38 0 72 15.5t65 46.5l60 -65q-40 -40 -92 -62.5t-109 -22.5q-55 0 -103 20.5t-83 55.5t-55.5 83.5t-20.5 104.5q0 55 20.5 103.5t55.5 84t83 56t103 20.5q57 0 111 -22.5t94 -62.5l-63 -68q-29 31 -65 47.5t-75 16.5q-69 0 -117 -51t-48 -124
q0 -75 48.5 -125.5t118.5 -50.5zM376 600l-79 77l-80 -77h-80l108 127h105l108 -127h-82z" />
    <glyph glyph-name="cdotaccent" unicode="&#x10b;" horiz-adv-x="521" 
d="M36 0zM302 79q38 0 72 15.5t65 46.5l60 -65q-40 -40 -92 -62.5t-109 -22.5q-55 0 -103 20.5t-83 55.5t-55.5 83.5t-20.5 104.5q0 55 20.5 103.5t55.5 84t83 56t103 20.5q57 0 111 -22.5t94 -62.5l-63 -68q-29 31 -65 47.5t-75 16.5q-69 0 -117 -51t-48 -124
q0 -75 48.5 -125.5t118.5 -50.5zM297 602q-25 0 -42.5 17t-17.5 42t17.5 41.5t42.5 16.5t42.5 -16.5t17.5 -41.5t-17.5 -42t-42.5 -17z" />
    <glyph glyph-name="dcaron" unicode="&#x10f;" horiz-adv-x="695" 
d="M36 0zM449 0v48q-32 -27 -72 -41.5t-84 -14.5q-54 0 -101 20.5t-81.5 55.5t-54.5 83.5t-20 103.5t20 103t54.5 83t82.5 55.5t102 20.5q42 0 81 -13t72 -37v233l100 22v-722h-99zM134 256q0 -75 50 -126t123 -51q43 0 79.5 16t61.5 45v231q-25 28 -62 44t-79 16
q-73 0 -123 -50t-50 -125zM623 716h100l-37 -220h-70z" />
    <glyph glyph-name="dcroat" unicode="&#x111;" horiz-adv-x="606" 
d="M449 0v48q-32 -27 -72 -41.5t-84 -14.5q-54 0 -101 20.5t-81.5 55.5t-54.5 83.5t-20 103.5t20 103t54.5 83t82.5 55.5t102 20.5q42 0 81 -13t72 -37v116h-154v69h154v48l100 22v-70h59v-69h-59v-583h-99zM134 256q0 -75 50 -126t123 -51q43 0 79.5 16t61.5 45v231
q-25 28 -62 44t-79 16q-73 0 -123 -50t-50 -125z" />
    <glyph glyph-name="dotlessi" unicode="&#x131;" horiz-adv-x="218" 
d="M159 509v-509h-100v509h100z" />
    <glyph glyph-name="uni0237" unicode="&#x237;" horiz-adv-x="218" 
d="M-43 -204v80q10 -2 19.5 -3t21.5 -1q32 0 46.5 14.5t14.5 47.5v575h100v-583q0 -65 -37.5 -101t-106.5 -36q-16 0 -31.5 2t-26.5 5z" />
    <glyph glyph-name="eacute" unicode="&#xe9;" horiz-adv-x="573" 
d="M36 0zM500 58q-44 -34 -92 -50.5t-105 -16.5q-56 0 -105 20.5t-85 55.5t-56.5 83.5t-20.5 104.5q0 55 20 103t54 83t81 55.5t100 20.5q52 0 97.5 -20.5t78 -56t51.5 -84.5t19 -105v-29h-402q10 -63 58 -104.5t114 -41.5q37 0 71 12t58 33zM289 433q-57 0 -99.5 -38
t-53.5 -98h302q-11 58 -52.5 97t-96.5 39zM322 725h120l-128 -122h-84z" />
    <glyph glyph-name="ebreve" unicode="&#x115;" horiz-adv-x="573" 
d="M36 0zM500 58q-44 -34 -92 -50.5t-105 -16.5q-56 0 -105 20.5t-85 55.5t-56.5 83.5t-20.5 104.5q0 55 20 103t54 83t81 55.5t100 20.5q52 0 97.5 -20.5t78 -56t51.5 -84.5t19 -105v-29h-402q10 -63 58 -104.5t114 -41.5q37 0 71 12t58 33zM289 433q-57 0 -99.5 -38
t-53.5 -98h302q-11 58 -52.5 97t-96.5 39zM290 656q37 0 62 21.5t36 62.5l65 -17q-14 -60 -57 -94t-106 -34t-106 34t-57 94l66 17q11 -42 35.5 -63t61.5 -21z" />
    <glyph glyph-name="ecaron" unicode="&#x11b;" horiz-adv-x="573" 
d="M36 0zM500 58q-44 -34 -92 -50.5t-105 -16.5q-56 0 -105 20.5t-85 55.5t-56.5 83.5t-20.5 104.5q0 55 20 103t54 83t81 55.5t100 20.5q52 0 97.5 -20.5t78 -56t51.5 -84.5t19 -105v-29h-402q10 -63 58 -104.5t114 -41.5q37 0 71 12t58 33zM289 433q-57 0 -99.5 -38
t-53.5 -98h302q-11 58 -52.5 97t-96.5 39zM212 728l79 -78l78 78h81l-108 -127h-105l-108 127h83z" />
    <glyph glyph-name="ecircumflex" unicode="&#xea;" horiz-adv-x="573" 
d="M36 0zM500 58q-44 -34 -92 -50.5t-105 -16.5q-56 0 -105 20.5t-85 55.5t-56.5 83.5t-20.5 104.5q0 55 20 103t54 83t81 55.5t100 20.5q52 0 97.5 -20.5t78 -56t51.5 -84.5t19 -105v-29h-402q10 -63 58 -104.5t114 -41.5q37 0 71 12t58 33zM289 433q-57 0 -99.5 -38
t-53.5 -98h302q-11 58 -52.5 97t-96.5 39zM369 600l-79 77l-80 -77h-80l108 127h105l108 -127h-82z" />
    <glyph glyph-name="edieresis" unicode="&#xeb;" horiz-adv-x="573" 
d="M36 0zM500 58q-44 -34 -92 -50.5t-105 -16.5q-56 0 -105 20.5t-85 55.5t-56.5 83.5t-20.5 104.5q0 55 20 103t54 83t81 55.5t100 20.5q52 0 97.5 -20.5t78 -56t51.5 -84.5t19 -105v-29h-402q10 -63 58 -104.5t114 -41.5q37 0 71 12t58 33zM289 433q-57 0 -99.5 -38
t-53.5 -98h302q-11 58 -52.5 97t-96.5 39zM194 608q-25 0 -42.5 16.5t-17.5 41.5t17.5 41.5t42.5 16.5t42.5 -16.5t17.5 -41.5t-17.5 -41.5t-42.5 -16.5zM387 608q-25 0 -42.5 16.5t-17.5 41.5t17.5 41.5t42.5 16.5q26 0 43 -16.5t17 -41.5t-17.5 -41.5t-42.5 -16.5z" />
    <glyph glyph-name="edotaccent" unicode="&#x117;" horiz-adv-x="573" 
d="M36 0zM500 58q-44 -34 -92 -50.5t-105 -16.5q-56 0 -105 20.5t-85 55.5t-56.5 83.5t-20.5 104.5q0 55 20 103t54 83t81 55.5t100 20.5q52 0 97.5 -20.5t78 -56t51.5 -84.5t19 -105v-29h-402q10 -63 58 -104.5t114 -41.5q37 0 71 12t58 33zM289 433q-57 0 -99.5 -38
t-53.5 -98h302q-11 58 -52.5 97t-96.5 39zM290 602q-25 0 -42.5 17t-17.5 42t17.5 41.5t42.5 16.5t42.5 -16.5t17.5 -41.5t-17.5 -42t-42.5 -17z" />
    <glyph glyph-name="egrave" unicode="&#xe8;" horiz-adv-x="573" 
d="M36 0zM500 58q-44 -34 -92 -50.5t-105 -16.5q-56 0 -105 20.5t-85 55.5t-56.5 83.5t-20.5 104.5q0 55 20 103t54 83t81 55.5t100 20.5q52 0 97.5 -20.5t78 -56t51.5 -84.5t19 -105v-29h-402q10 -63 58 -104.5t114 -41.5q37 0 71 12t58 33zM289 433q-57 0 -99.5 -38
t-53.5 -98h302q-11 58 -52.5 97t-96.5 39zM260 725l90 -122h-84l-128 122h122z" />
    <glyph glyph-name="emacron" unicode="&#x113;" horiz-adv-x="573" 
d="M36 0zM500 58q-44 -34 -92 -50.5t-105 -16.5q-56 0 -105 20.5t-85 55.5t-56.5 83.5t-20.5 104.5q0 55 20 103t54 83t81 55.5t100 20.5q52 0 97.5 -20.5t78 -56t51.5 -84.5t19 -105v-29h-402q10 -63 58 -104.5t114 -41.5q37 0 71 12t58 33zM289 433q-57 0 -99.5 -38
t-53.5 -98h302q-11 58 -52.5 97t-96.5 39zM443 690v-68h-298v68h298z" />
    <glyph glyph-name="eng" unicode="&#x14b;" 
d="M59 0v509h100v-51q30 30 68.5 45.5t84.5 15.5q87 0 143 -55.5t56 -143.5v-394q0 -65 -38 -101t-107 -36q-15 0 -30.5 2t-26.5 5v80q10 -2 19.5 -3t21.5 -1q32 0 46.5 14.5t14.5 47.5v369q0 60 -34.5 94.5t-91.5 34.5q-40 0 -72.5 -17t-53.5 -49v-366h-100z" />
    <glyph glyph-name="eogonek" unicode="&#x119;" horiz-adv-x="573" 
d="M383 0q-51 -31 -75.5 -59t-24.5 -56q0 -23 15 -36.5t40 -13.5q12 0 23.5 3.5t21.5 10.5l16 -49q-16 -10 -36 -15.5t-41 -5.5q-46 0 -74 24t-28 64q0 34 20 63.5t64 60.5h-1q-56 0 -105 20.5t-85 55.5t-56.5 83.5t-20.5 104.5q0 55 20 103t54 83t81 55.5t100 20.5
q52 0 97.5 -20.5t78 -56t51.5 -84.5t19 -105v-29h-402q10 -63 58 -104.5t114 -41.5q37 0 71 12t58 33l64 -63q-28 -22 -57 -36.5t-60 -21.5zM289 433q-57 0 -99.5 -38t-53.5 -98h302q-11 58 -52.5 97t-96.5 39z" />
    <glyph glyph-name="eth" unicode="&#xf0;" horiz-adv-x="599" 
d="M255 522l-39 56l79 50q-22 14 -46.5 25.5t-50.5 19.5l47 70q36 -13 68 -29.5t60 -36.5l105 66l39 -56l-90 -57q62 -61 94.5 -145t32.5 -185q0 -70 -19 -127.5t-53.5 -98t-83.5 -62.5t-109 -22q-53 0 -99 20t-80 54t-53.5 81t-19.5 101q0 50 19 94t51.5 76.5t77 51.5
t94.5 19q54 0 98 -22.5t71 -62.5q-10 51 -35 97t-62 83zM292 79q66 0 112 47t46 116q0 67 -46 114t-112 47t-112.5 -47t-46.5 -114q0 -69 46.5 -116t112.5 -47z" />
    <glyph glyph-name="gbreve" unicode="&#x11f;" horiz-adv-x="603" 
d="M36 0zM292 -4q-53 0 -100 20.5t-81.5 55.5t-54.5 83t-20 102t20 102t54.5 83t82 55.5t101.5 20.5q41 0 79.5 -13t71.5 -38v42h99v-516q0 -99 -60.5 -152.5t-172.5 -53.5q-55 0 -108.5 13t-96.5 37l39 78q43 -22 83 -33t80 -11q66 0 101 31t35 91v57q-32 -26 -71 -40
t-81 -14zM134 257q0 -73 49 -123.5t121 -50.5q43 0 79 15.5t61 43.5v230q-24 28 -60.5 43.5t-79.5 15.5q-72 0 -121 -50.5t-49 -123.5zM300 656q37 0 62 21.5t36 62.5l65 -17q-14 -60 -57 -94t-106 -34t-106 34t-57 94l66 17q11 -42 35.5 -63t61.5 -21z" />
    <glyph glyph-name="gcircumflex" unicode="&#x11d;" horiz-adv-x="603" 
d="M36 0zM292 -4q-53 0 -100 20.5t-81.5 55.5t-54.5 83t-20 102t20 102t54.5 83t82 55.5t101.5 20.5q41 0 79.5 -13t71.5 -38v42h99v-516q0 -99 -60.5 -152.5t-172.5 -53.5q-55 0 -108.5 13t-96.5 37l39 78q43 -22 83 -33t80 -11q66 0 101 31t35 91v57q-32 -26 -71 -40
t-81 -14zM134 257q0 -73 49 -123.5t121 -50.5q43 0 79 15.5t61 43.5v230q-24 28 -60.5 43.5t-79.5 15.5q-72 0 -121 -50.5t-49 -123.5zM379 600l-79 77l-80 -77h-80l108 127h105l108 -127h-82z" />
    <glyph glyph-name="uni0123" unicode="&#x123;" horiz-adv-x="602" 
d="M340 610h-97l69 190h73zM292 -4q-53 0 -100 20.5t-81.5 55.5t-54.5 83t-20 102t20 102t54.5 83t82 55.5t101.5 20.5q41 0 79.5 -13t71.5 -38v42h99v-516q0 -99 -60.5 -152.5t-172.5 -53.5q-55 0 -108.5 13t-96.5 37l39 78q43 -22 83 -33t80 -11q66 0 101 31t35 91v57
q-32 -26 -71 -40t-81 -14zM134 257q0 -73 49 -123.5t121 -50.5q43 0 79 15.5t61 43.5v230q-24 28 -60.5 43.5t-79.5 15.5q-72 0 -121 -50.5t-49 -123.5z" />
    <glyph glyph-name="gdotaccent" unicode="&#x121;" horiz-adv-x="603" 
d="M36 0zM292 -4q-53 0 -100 20.5t-81.5 55.5t-54.5 83t-20 102t20 102t54.5 83t82 55.5t101.5 20.5q41 0 79.5 -13t71.5 -38v42h99v-516q0 -99 -60.5 -152.5t-172.5 -53.5q-55 0 -108.5 13t-96.5 37l39 78q43 -22 83 -33t80 -11q66 0 101 31t35 91v57q-32 -26 -71 -40
t-81 -14zM134 257q0 -73 49 -123.5t121 -50.5q43 0 79 15.5t61 43.5v230q-24 28 -60.5 43.5t-79.5 15.5q-72 0 -121 -50.5t-49 -123.5zM301 602q-25 0 -42.5 17t-17.5 42t17.5 41.5t42.5 16.5t42.5 -16.5t17.5 -41.5t-17.5 -42t-42.5 -17z" />
    <glyph glyph-name="germandbls" unicode="&#xdf;" horiz-adv-x="652" 
d="M372 365q0 -17 12 -27.5t47 -23.5l79 -27q66 -23 95 -56.5t29 -84.5q0 -70 -52.5 -113.5t-138.5 -43.5q-60 0 -110 20.5t-93 60.5l55 56q34 -33 69.5 -49t75.5 -16q46 0 74 21t28 56q0 30 -17 48t-58 32l-83 27q-58 19 -83.5 44.5t-25.5 62.5q0 45 29 70.5t63 44.5t63 40
t29 56q0 40 -40 65t-101 25q-78 0 -119 -45t-41 -130v-478h-99v478q0 121 68.5 189t188.5 68q109 0 175 -44.5t66 -116.5q0 -52 -29 -82t-63.5 -49.5t-63.5 -36t-29 -41.5z" />
    <glyph glyph-name="hbar" unicode="&#x127;" 
d="M59 0v583h-61v69h61v48l100 22v-70h153v-69h-153v-125q30 30 68.5 45.5t84.5 15.5q87 0 143 -55.5t56 -143.5v-320h-100v303q0 60 -34.5 94.5t-91.5 34.5q-40 0 -72.5 -17t-53.5 -49v-366h-100z" />
    <glyph glyph-name="hcircumflex" unicode="&#x125;" 
d="M187 791l-79 77l-80 -77h-80l108 127h105l108 -127h-82zM59 0v700h100v-242q30 30 68.5 45.5t84.5 15.5q87 0 143 -55.5t56 -143.5v-320h-100v303q0 60 -34.5 94.5t-91.5 34.5q-40 0 -72.5 -17t-53.5 -49v-366h-100z" />
    <glyph glyph-name="iacute" unicode="&#xed;" horiz-adv-x="217" 
d="M48 0zM159 509v-509h-100v509h100zM140 725h120l-128 -122h-84z" />
    <glyph glyph-name="ibreve" unicode="&#x12d;" horiz-adv-x="217" 
d="M0 0zM159 509v-509h-100v509h100zM109 656q37 0 62 21.5t36 62.5l65 -17q-14 -60 -57 -94t-106 -34t-106 34t-57 94l66 17q11 -42 35.5 -63t61.5 -21z" />
    <glyph glyph-name="icircumflex" unicode="&#xee;" horiz-adv-x="217" 
d="M0 0zM159 509v-509h-100v509h100zM188 600l-79 77l-80 -77h-80l108 127h105l108 -127h-82z" />
    <glyph glyph-name="idieresis" unicode="&#xef;" horiz-adv-x="217" 
d="M0 0zM159 509v-509h-100v509h100zM12 608q-25 0 -42.5 16.5t-17.5 41.5t17.5 41.5t42.5 16.5t42.5 -16.5t17.5 -41.5t-17.5 -41.5t-42.5 -16.5zM205 608q-25 0 -42.5 16.5t-17.5 41.5t17.5 41.5t42.5 16.5q26 0 43 -16.5t17 -41.5t-17.5 -41.5t-42.5 -16.5z" />
    <glyph glyph-name="idotaccent" horiz-adv-x="216" 
d="M48 0zM109 591q-25 0 -43 18.5t-18 43.5t18 43.5t43 18.5t43.5 -18.5t18.5 -43.5t-18.5 -43.5t-43.5 -18.5zM159 509v-509h-100v509h100z" />
    <glyph glyph-name="igrave" unicode="&#xec;" horiz-adv-x="217" 
d="M0 0zM159 509v-509h-100v509h100zM79 725l90 -122h-84l-128 122h122z" />
    <glyph glyph-name="ij" unicode="&#x133;" horiz-adv-x="431" 
d="M48 0zM109 591q-25 0 -43 18.5t-18 43.5t18 43.5t43 18.5t43.5 -18.5t18.5 -43.5t-18.5 -43.5t-43.5 -18.5zM159 509v-509h-100v509h100zM325 591q-25 0 -43 18.5t-18 43.5t18 43.5t43 18.5t43.5 -18.5t18.5 -43.5t-18.5 -43.5t-43.5 -18.5zM230 -211q-16 0 -31.5 2
t-25.5 5v80q10 -2 19 -3t21 -1q33 0 47.5 14.5t14.5 47.5v575h100v-582q0 -66 -38 -102t-107 -36z" />
    <glyph glyph-name="imacron" unicode="&#x12b;" horiz-adv-x="217" 
d="M0 0zM159 509v-509h-100v509h100zM262 690v-68h-298v68h298z" />
    <glyph glyph-name="iogonek" unicode="&#x12f;" horiz-adv-x="218" 
d="M109 591q-25 0 -43 18.5t-18 43.5t18 43.5t43 18.5t43.5 -18.5t18.5 -43.5t-18.5 -43.5t-43.5 -18.5zM159 0q-51 -31 -75.5 -59t-24.5 -56q0 -23 15 -36.5t40 -13.5q12 0 23.5 3.5t21.5 10.5l16 -49q-16 -10 -36 -15.5t-41 -5.5q-46 0 -74 24t-28 64q0 36 23 67.5
t74 65.5h-34v509h100v-509z" />
    <glyph glyph-name="itilde" unicode="&#x129;" horiz-adv-x="217" 
d="M0 0zM159 509v-509h-100v509h100zM-2 595l-65 13q12 55 37.5 82t65.5 27q20 0 39.5 -8.5t38 -18t35.5 -18t32 -8.5q17 0 27.5 12.5t17.5 43.5l64 -14q-12 -54 -37.5 -81t-65.5 -27q-20 0 -39.5 8.5t-37.5 18t-35.5 18t-32.5 8.5q-17 0 -27 -13t-17 -43z" />
    <glyph glyph-name="jcircumflex" unicode="&#x135;" horiz-adv-x="217" 
d="M0 0zM-43 -204v80q10 -2 19.5 -3t21.5 -1q32 0 46.5 14.5t14.5 47.5v575h100v-583q0 -65 -37.5 -101t-106.5 -36q-16 0 -31.5 2t-26.5 5zM188 600l-79 77l-80 -77h-80l108 127h105l108 -127h-82z" />
    <glyph glyph-name="uni0137" unicode="&#x137;" horiz-adv-x="524" 
d="M59 0zM59 0v700l100 22v-437l247 224h117l-262 -239l276 -270h-132l-246 240v-240h-100zM217 -83h97l-69 -190h-73z" />
    <glyph glyph-name="kgreenlandic" unicode="&#x138;" horiz-adv-x="524" 
d="M59 0v509h100v-224l247 224h117l-262 -239l276 -270h-132l-246 240v-240h-100z" />
    <glyph glyph-name="lacute" unicode="&#x13a;" horiz-adv-x="218" 
d="M141 916h120l-128 -122h-84zM59 0v700h100v-700h-100z" />
    <glyph glyph-name="lcaron" unicode="&#x13e;" horiz-adv-x="305" 
d="M59 0zM159 722v-722h-100v700zM233 716h100l-37 -220h-70z" />
    <glyph glyph-name="uni013C" unicode="&#x13c;" horiz-adv-x="218" 
d="M16 0zM159 722v-722h-100v700zM61 -83h97l-69 -190h-73z" />
    <glyph glyph-name="ldot" unicode="&#x140;" horiz-adv-x="337" 
d="M59 0zM159 722v-722h-100v700zM279 296q-25 0 -42.5 17t-17.5 42t17.5 41.5t42.5 16.5t42.5 -16.5t17.5 -41.5t-17.5 -42t-42.5 -17z" />
    <glyph glyph-name="lslash" unicode="&#x142;" horiz-adv-x="260" 
d="M8 330l73 56v314l100 22v-260l73 56v-95l-73 -56v-367h-100v291l-73 -56v95z" />
    <glyph glyph-name="nacute" unicode="&#x144;" 
d="M59 0zM59 0v509h100v-51q30 30 68.5 45.5t84.5 15.5q87 0 143 -55.5t56 -143.5v-320h-100v303q0 60 -34.5 94.5t-91.5 34.5q-40 0 -72.5 -17t-53.5 -49v-366h-100zM317 725h120l-128 -122h-84z" />
    <glyph glyph-name="ncaron" unicode="&#x148;" 
d="M59 0zM59 0v509h100v-51q30 30 68.5 45.5t84.5 15.5q87 0 143 -55.5t56 -143.5v-320h-100v303q0 60 -34.5 94.5t-91.5 34.5q-40 0 -72.5 -17t-53.5 -49v-366h-100zM208 728l79 -78l78 78h81l-108 -127h-105l-108 127h83z" />
    <glyph glyph-name="uni0146" unicode="&#x146;" 
d="M59 0zM59 0v509h100v-51q30 30 68.5 45.5t84.5 15.5q87 0 143 -55.5t56 -143.5v-320h-100v303q0 60 -34.5 94.5t-91.5 34.5q-40 0 -72.5 -17t-53.5 -49v-366h-100zM238 -83h97l-69 -190h-73z" />
    <glyph glyph-name="ntilde" unicode="&#xf1;" 
d="M59 0zM59 0v509h100v-51q30 30 68.5 45.5t84.5 15.5q87 0 143 -55.5t56 -143.5v-320h-100v303q0 60 -34.5 94.5t-91.5 34.5q-40 0 -72.5 -17t-53.5 -49v-366h-100zM175 595l-65 13q12 55 37.5 82t65.5 27q20 0 39.5 -8.5t38 -18t35.5 -18t32 -8.5q17 0 27.5 12.5
t17.5 43.5l64 -14q-12 -54 -37.5 -81t-65.5 -27q-20 0 -39.5 8.5t-37.5 18t-35.5 18t-32.5 8.5q-17 0 -27 -13t-17 -43z" />
    <glyph glyph-name="oacute" unicode="&#xf3;" horiz-adv-x="601" 
d="M36 0zM36 255q0 55 20.5 103.5t56.5 84t84.5 56t103.5 20.5t103.5 -20.5t84 -56t56 -84t20.5 -103.5q0 -56 -20.5 -104.5t-56 -84t-84 -56t-103.5 -20.5t-103.5 20.5t-84.5 56t-56.5 84t-20.5 104.5zM301 78q69 0 117.5 51.5t48.5 125.5t-48.5 125t-117.5 51t-118 -51
t-49 -125t48.5 -125.5t118.5 -51.5zM333 725h120l-128 -122h-84z" />
    <glyph glyph-name="obreve" unicode="&#x14f;" horiz-adv-x="601" 
d="M36 0zM36 255q0 55 20.5 103.5t56.5 84t84.5 56t103.5 20.5t103.5 -20.5t84 -56t56 -84t20.5 -103.5q0 -56 -20.5 -104.5t-56 -84t-84 -56t-103.5 -20.5t-103.5 20.5t-84.5 56t-56.5 84t-20.5 104.5zM301 78q69 0 117.5 51.5t48.5 125.5t-48.5 125t-117.5 51t-118 -51
t-49 -125t48.5 -125.5t118.5 -51.5zM301 656q37 0 62 21.5t36 62.5l65 -17q-14 -60 -57 -94t-106 -34t-106 34t-57 94l66 17q11 -42 35.5 -63t61.5 -21z" />
    <glyph glyph-name="ocircumflex" unicode="&#xf4;" horiz-adv-x="601" 
d="M36 0zM36 255q0 55 20.5 103.5t56.5 84t84.5 56t103.5 20.5t103.5 -20.5t84 -56t56 -84t20.5 -103.5q0 -56 -20.5 -104.5t-56 -84t-84 -56t-103.5 -20.5t-103.5 20.5t-84.5 56t-56.5 84t-20.5 104.5zM301 78q69 0 117.5 51.5t48.5 125.5t-48.5 125t-117.5 51t-118 -51
t-49 -125t48.5 -125.5t118.5 -51.5zM380 600l-79 77l-80 -77h-80l108 127h105l108 -127h-82z" />
    <glyph glyph-name="odieresis" unicode="&#xf6;" horiz-adv-x="601" 
d="M36 0zM36 255q0 55 20.5 103.5t56.5 84t84.5 56t103.5 20.5t103.5 -20.5t84 -56t56 -84t20.5 -103.5q0 -56 -20.5 -104.5t-56 -84t-84 -56t-103.5 -20.5t-103.5 20.5t-84.5 56t-56.5 84t-20.5 104.5zM301 78q69 0 117.5 51.5t48.5 125.5t-48.5 125t-117.5 51t-118 -51
t-49 -125t48.5 -125.5t118.5 -51.5zM204 608q-25 0 -42.5 16.5t-17.5 41.5t17.5 41.5t42.5 16.5t42.5 -16.5t17.5 -41.5t-17.5 -41.5t-42.5 -16.5zM397 608q-25 0 -42.5 16.5t-17.5 41.5t17.5 41.5t42.5 16.5q26 0 43 -16.5t17 -41.5t-17.5 -41.5t-42.5 -16.5z" />
    <glyph glyph-name="oe" unicode="&#x153;" horiz-adv-x="1006" 
d="M36 255q0 55 20.5 103.5t56.5 84t84.5 56t103.5 20.5q67 0 123.5 -31.5t91.5 -82.5q34 51 88 81.5t120 30.5q52 0 97 -20.5t78 -56t52 -84.5t19 -105v-29h-402q10 -63 58 -104.5t114 -41.5q37 0 71 12t57 33l64 -63q-44 -34 -92 -50.5t-105 -16.5q-69 0 -126.5 31
t-92.5 83q-34 -52 -91 -83.5t-124 -31.5q-55 0 -103.5 20.5t-84.5 56t-56.5 84t-20.5 104.5zM721 433q-57 0 -99 -38t-53 -98h302q-11 58 -53 97t-97 39zM301 78q69 0 118 51.5t49 125.5t-49 125t-118 51t-118 -51t-49 -125t48.5 -125.5t118.5 -51.5z" />
    <glyph glyph-name="ograve" unicode="&#xf2;" horiz-adv-x="601" 
d="M36 0zM36 255q0 55 20.5 103.5t56.5 84t84.5 56t103.5 20.5t103.5 -20.5t84 -56t56 -84t20.5 -103.5q0 -56 -20.5 -104.5t-56 -84t-84 -56t-103.5 -20.5t-103.5 20.5t-84.5 56t-56.5 84t-20.5 104.5zM301 78q69 0 117.5 51.5t48.5 125.5t-48.5 125t-117.5 51t-118 -51
t-49 -125t48.5 -125.5t118.5 -51.5zM271 725l90 -122h-84l-128 122h122z" />
    <glyph glyph-name="ohungarumlaut" unicode="&#x151;" horiz-adv-x="601" 
d="M36 0zM36 255q0 55 20.5 103.5t56.5 84t84.5 56t103.5 20.5t103.5 -20.5t84 -56t56 -84t20.5 -103.5q0 -56 -20.5 -104.5t-56 -84t-84 -56t-103.5 -20.5t-103.5 20.5t-84.5 56t-56.5 84t-20.5 104.5zM301 78q69 0 117.5 51.5t48.5 125.5t-48.5 125t-117.5 51t-118 -51
t-49 -125t48.5 -125.5t118.5 -51.5zM265 725h107l-129 -119h-81zM447 725h108l-135 -119h-76z" />
    <glyph glyph-name="omacron" unicode="&#x14d;" horiz-adv-x="601" 
d="M36 0zM36 255q0 55 20.5 103.5t56.5 84t84.5 56t103.5 20.5t103.5 -20.5t84 -56t56 -84t20.5 -103.5q0 -56 -20.5 -104.5t-56 -84t-84 -56t-103.5 -20.5t-103.5 20.5t-84.5 56t-56.5 84t-20.5 104.5zM301 78q69 0 117.5 51.5t48.5 125.5t-48.5 125t-117.5 51t-118 -51
t-49 -125t48.5 -125.5t118.5 -51.5zM454 690v-68h-298v68h298z" />
    <glyph glyph-name="oslash" unicode="&#xf8;" horiz-adv-x="601" 
d="M50 0l59 71q-34 35 -53.5 82.5t-19.5 101.5q0 55 20.5 103.5t56.5 84t84.5 56t103.5 20.5q40 0 77 -11t68 -31l27 32h78l-59 -70q34 -36 53.5 -83t19.5 -101q0 -56 -20.5 -104.5t-56 -84t-84 -56t-103.5 -20.5q-40 0 -78 11.5t-69 31.5l-27 -33h-77zM134 255
q0 -31 9.5 -60t26.5 -51l217 262q-19 12 -40.5 18.5t-45.5 6.5q-69 0 -118 -51t-49 -125zM301 78q69 0 117.5 51.5t48.5 125.5q0 31 -9.5 59.5t-26.5 50.5l-218 -261q19 -13 41.5 -19.5t46.5 -6.5z" />
    <glyph glyph-name="otilde" unicode="&#xf5;" horiz-adv-x="601" 
d="M36 0zM36 255q0 55 20.5 103.5t56.5 84t84.5 56t103.5 20.5t103.5 -20.5t84 -56t56 -84t20.5 -103.5q0 -56 -20.5 -104.5t-56 -84t-84 -56t-103.5 -20.5t-103.5 20.5t-84.5 56t-56.5 84t-20.5 104.5zM301 78q69 0 117.5 51.5t48.5 125.5t-48.5 125t-117.5 51t-118 -51
t-49 -125t48.5 -125.5t118.5 -51.5zM190 595l-65 13q12 55 37.5 82t65.5 27q20 0 39.5 -8.5t38 -18t35.5 -18t32 -8.5q17 0 27.5 12.5t17.5 43.5l64 -14q-12 -54 -37.5 -81t-65.5 -27q-20 0 -39.5 8.5t-37.5 18t-35.5 18t-32.5 8.5q-17 0 -27 -13t-17 -43z" />
    <glyph glyph-name="racute" unicode="&#x155;" horiz-adv-x="371" 
d="M59 0zM59 0v509h100v-65q23 37 59 56.5t81 19.5q16 0 28 -2t23 -6v-90q-14 5 -29 8t-30 3q-44 0 -78.5 -23.5t-53.5 -69.5v-340h-100zM234 725h120l-128 -122h-84z" />
    <glyph glyph-name="rcaron" unicode="&#x159;" horiz-adv-x="371" 
d="M41 0zM59 0v509h100v-65q23 37 59 56.5t81 19.5q16 0 28 -2t23 -6v-90q-14 5 -29 8t-30 3q-44 0 -78.5 -23.5t-53.5 -69.5v-340h-100zM124 728l79 -78l78 78h81l-108 -127h-105l-108 127h83z" />
    <glyph glyph-name="uni0157" unicode="&#x157;" horiz-adv-x="371" 
d="M15 0zM59 0v509h100v-65q23 37 59 56.5t81 19.5q16 0 28 -2t23 -6v-90q-14 5 -29 8t-30 3q-44 0 -78.5 -23.5t-53.5 -69.5v-340h-100zM60 -83h97l-69 -190h-73z" />
    <glyph glyph-name="sacute" unicode="&#x15b;" horiz-adv-x="465" 
d="M11 0zM11 66l54 66q40 -31 81.5 -47.5t84.5 -16.5q54 0 88 21t34 55q0 27 -20 43t-62 22l-92 13q-75 11 -113.5 46.5t-38.5 94.5q0 69 55 111.5t144 42.5q56 0 106.5 -16t98.5 -49l-51 -66q-42 28 -81.5 40.5t-79.5 12.5q-46 0 -74 -19t-28 -50q0 -28 19.5 -42.5
t64.5 -21.5l92 -13q75 -11 114.5 -47t39.5 -95q0 -34 -16.5 -63.5t-45 -50.5t-67.5 -33.5t-84 -12.5q-66 0 -123.5 19t-99.5 56zM261 725h120l-128 -122h-84z" />
    <glyph glyph-name="scaron" unicode="&#x161;" horiz-adv-x="465" 
d="M11 0zM11 66l54 66q40 -31 81.5 -47.5t84.5 -16.5q54 0 88 21t34 55q0 27 -20 43t-62 22l-92 13q-75 11 -113.5 46.5t-38.5 94.5q0 69 55 111.5t144 42.5q56 0 106.5 -16t98.5 -49l-51 -66q-42 28 -81.5 40.5t-79.5 12.5q-46 0 -74 -19t-28 -50q0 -28 19.5 -42.5
t64.5 -21.5l92 -13q75 -11 114.5 -47t39.5 -95q0 -34 -16.5 -63.5t-45 -50.5t-67.5 -33.5t-84 -12.5q-66 0 -123.5 19t-99.5 56zM152 728l79 -78l78 78h81l-108 -127h-105l-108 127h83z" />
    <glyph glyph-name="uni015F" unicode="&#x15f;" horiz-adv-x="465" 
d="M11 66l54 66q40 -31 81.5 -47.5t84.5 -16.5q54 0 88 21t34 55q0 27 -20 43t-62 22l-92 13q-75 11 -113.5 46.5t-38.5 94.5q0 69 55 111.5t144 42.5q56 0 106.5 -16t98.5 -49l-51 -66q-42 28 -81.5 40.5t-79.5 12.5q-46 0 -74 -19t-28 -50q0 -28 19.5 -42.5t64.5 -21.5
l92 -13q75 -11 114.5 -47t39.5 -95q0 -63 -53.5 -107.5t-134.5 -51.5l-13 -43q43 -3 69 -25.5t26 -59.5q0 -41 -34.5 -68t-87.5 -27q-34 0 -64.5 10.5t-53.5 31.5l36 39q19 -15 39 -23t42 -8q28 0 44 12.5t16 32.5q0 19 -17 31t-46 12h-34l25 85q-57 4 -107.5 22.5
t-87.5 51.5z" />
    <glyph glyph-name="scircumflex" unicode="&#x15d;" horiz-adv-x="465" 
d="M11 0zM11 66l54 66q40 -31 81.5 -47.5t84.5 -16.5q54 0 88 21t34 55q0 27 -20 43t-62 22l-92 13q-75 11 -113.5 46.5t-38.5 94.5q0 69 55 111.5t144 42.5q56 0 106.5 -16t98.5 -49l-51 -66q-42 28 -81.5 40.5t-79.5 12.5q-46 0 -74 -19t-28 -50q0 -28 19.5 -42.5
t64.5 -21.5l92 -13q75 -11 114.5 -47t39.5 -95q0 -34 -16.5 -63.5t-45 -50.5t-67.5 -33.5t-84 -12.5q-66 0 -123.5 19t-99.5 56zM308 600l-79 77l-80 -77h-80l108 127h105l108 -127h-82z" />
    <glyph glyph-name="uni0219" unicode="&#x219;" horiz-adv-x="465" 
d="M11 0zM11 66l54 66q40 -31 81.5 -47.5t84.5 -16.5q54 0 88 21t34 55q0 27 -20 43t-62 22l-92 13q-75 11 -113.5 46.5t-38.5 94.5q0 69 55 111.5t144 42.5q56 0 106.5 -16t98.5 -49l-51 -66q-42 28 -81.5 40.5t-79.5 12.5q-46 0 -74 -19t-28 -50q0 -28 19.5 -42.5
t64.5 -21.5l92 -13q75 -11 114.5 -47t39.5 -95q0 -34 -16.5 -63.5t-45 -50.5t-67.5 -33.5t-84 -12.5q-66 0 -123.5 19t-99.5 56zM187 -83h97l-69 -190h-73z" />
    <glyph glyph-name="tbar" unicode="&#x167;" horiz-adv-x="397" 
d="M125 126v123h-108v75h108v101h-108v84h108v130l99 24v-154h150v-84h-150v-101h152v-75h-152v-100q0 -39 17.5 -55t57.5 -16q21 0 37.5 2.5t35.5 9.5v-84q-20 -7 -46.5 -11t-48.5 -4q-74 0 -113 34.5t-39 100.5z" />
    <glyph glyph-name="tcaron" unicode="&#x165;" horiz-adv-x="394" 
d="M301 776l103 18l-32 -209h-77zM125 126v299h-108v84h108v130l99 24v-154h150v-84h-150v-276q0 -39 17.5 -55t57.5 -16q21 0 37.5 2.5t35.5 9.5v-84q-20 -7 -46.5 -11t-48.5 -4q-74 0 -113 34.5t-39 100.5z" />
    <glyph glyph-name="uni0163" unicode="&#x163;" horiz-adv-x="389" 
d="M125 126v299h-108v84h108v130l99 24v-154h150v-84h-150v-276q0 -39 17.5 -55t57.5 -16q21 0 37.5 2.5t35.5 9.5v-84q-20 -7 -46.5 -11t-48.5 -4h-6l-12 -42q43 -3 69 -25.5t26 -59.5q0 -41 -34.5 -68t-87.5 -27q-34 0 -64.5 10.5t-53.5 31.5l36 39q19 -15 39 -23t42 -8
q28 0 44 12.5t16 32.5q0 19 -17 31t-46 12h-34l26 90q-46 12 -70.5 45t-24.5 84z" />
    <glyph glyph-name="uni021B" unicode="&#x21b;" horiz-adv-x="389" 
d="M17 0zM125 126v299h-108v84h108v130l99 24v-154h150v-84h-150v-276q0 -39 17.5 -55t57.5 -16q21 0 37.5 2.5t35.5 9.5v-84q-20 -7 -46.5 -11t-48.5 -4q-74 0 -113 34.5t-39 100.5zM201 -83h97l-69 -190h-73z" />
    <glyph glyph-name="thorn" unicode="&#xfe;" horiz-adv-x="609" 
d="M59 -207v907l100 22v-261q31 27 71 41.5t84 14.5q54 0 101 -20.5t81.5 -55.5t54.5 -83t20 -103t-20 -103.5t-54.5 -83.5t-82.5 -55.5t-102 -20.5q-42 0 -81.5 13t-71.5 37v-249h-100zM301 430q-43 0 -80 -16t-62 -45v-230q24 -28 61.5 -44t80.5 -16q73 0 122.5 50
t49.5 125t-50 125.5t-122 50.5z" />
    <glyph glyph-name="uacute" unicode="&#xfa;" 
d="M57 0zM157 509v-302q0 -60 34.5 -95t91.5 -35q40 0 72 17.5t53 49.5v365h100v-509h-100v51q-30 -30 -68.5 -45.5t-84.5 -15.5q-87 0 -142.5 56t-55.5 144v319h100zM316 725h120l-128 -122h-84z" />
    <glyph glyph-name="ubreve" unicode="&#x16d;" 
d="M57 0zM157 509v-302q0 -60 34.5 -95t91.5 -35q40 0 72 17.5t53 49.5v365h100v-509h-100v51q-30 -30 -68.5 -45.5t-84.5 -15.5q-87 0 -142.5 56t-55.5 144v319h100zM284 656q37 0 62 21.5t36 62.5l65 -17q-14 -60 -57 -94t-106 -34t-106 34t-57 94l66 17q11 -42 35.5 -63
t61.5 -21z" />
    <glyph glyph-name="ucircumflex" unicode="&#xfb;" 
d="M57 0zM157 509v-302q0 -60 34.5 -95t91.5 -35q40 0 72 17.5t53 49.5v365h100v-509h-100v51q-30 -30 -68.5 -45.5t-84.5 -15.5q-87 0 -142.5 56t-55.5 144v319h100zM363 600l-79 77l-80 -77h-80l108 127h105l108 -127h-82z" />
    <glyph glyph-name="udieresis" unicode="&#xfc;" 
d="M57 0zM157 509v-302q0 -60 34.5 -95t91.5 -35q40 0 72 17.5t53 49.5v365h100v-509h-100v51q-30 -30 -68.5 -45.5t-84.5 -15.5q-87 0 -142.5 56t-55.5 144v319h100zM188 608q-25 0 -42.5 16.5t-17.5 41.5t17.5 41.5t42.5 16.5t42.5 -16.5t17.5 -41.5t-17.5 -41.5
t-42.5 -16.5zM381 608q-25 0 -42.5 16.5t-17.5 41.5t17.5 41.5t42.5 16.5q26 0 43 -16.5t17 -41.5t-17.5 -41.5t-42.5 -16.5z" />
    <glyph glyph-name="ugrave" unicode="&#xf9;" 
d="M57 0zM157 509v-302q0 -60 34.5 -95t91.5 -35q40 0 72 17.5t53 49.5v365h100v-509h-100v51q-30 -30 -68.5 -45.5t-84.5 -15.5q-87 0 -142.5 56t-55.5 144v319h100zM254 725l90 -122h-84l-128 122h122z" />
    <glyph glyph-name="uhungarumlaut" unicode="&#x171;" 
d="M57 0zM157 509v-302q0 -60 34.5 -95t91.5 -35q40 0 72 17.5t53 49.5v365h100v-509h-100v51q-30 -30 -68.5 -45.5t-84.5 -15.5q-87 0 -142.5 56t-55.5 144v319h100zM248 725h107l-129 -119h-81zM430 725h108l-135 -119h-76z" />
    <glyph glyph-name="umacron" unicode="&#x16b;" 
d="M57 0zM157 509v-302q0 -60 34.5 -95t91.5 -35q40 0 72 17.5t53 49.5v365h100v-509h-100v51q-30 -30 -68.5 -45.5t-84.5 -15.5q-87 0 -142.5 56t-55.5 144v319h100zM437 690v-68h-298v68h298z" />
    <glyph glyph-name="uogonek" unicode="&#x173;" 
d="M510 0q-51 -31 -75.5 -59t-24.5 -56q0 -23 15 -36.5t40 -13.5q12 0 23.5 3.5t21.5 10.5l16 -49q-16 -10 -36 -15.5t-41 -5.5q-46 0 -74 24t-28 64q0 36 23 67.5t74 65.5h-36v51q-30 -30 -68.5 -45.5t-84.5 -15.5q-87 0 -142.5 56t-55.5 144v319h100v-302q0 -60 34.5 -95
t91.5 -35q40 0 72 17.5t53 49.5v365h100v-508z" />
    <glyph glyph-name="uring" unicode="&#x16f;" 
d="M57 0zM157 509v-302q0 -60 34.5 -95t91.5 -35q40 0 72 17.5t53 49.5v365h100v-509h-100v51q-30 -30 -68.5 -45.5t-84.5 -15.5q-87 0 -142.5 56t-55.5 144v319h100zM284 583q-49 0 -82.5 33.5t-33.5 82.5q0 48 33.5 81.5t82.5 33.5t82.5 -33.5t33.5 -81.5q0 -49 -34 -82.5
t-82 -33.5zM284 631q28 0 46.5 20t18.5 48t-18.5 47t-46.5 19q-27 0 -46 -19t-19 -47q0 -29 18.5 -48.5t46.5 -19.5z" />
    <glyph glyph-name="utilde" unicode="&#x169;" 
d="M57 0zM157 509v-302q0 -60 34.5 -95t91.5 -35q40 0 72 17.5t53 49.5v365h100v-509h-100v51q-30 -30 -68.5 -45.5t-84.5 -15.5q-87 0 -142.5 56t-55.5 144v319h100zM174 595l-65 13q12 55 37.5 82t65.5 27q20 0 39.5 -8.5t38 -18t35.5 -18t32 -8.5q17 0 27.5 12.5
t17.5 43.5l64 -14q-12 -54 -37.5 -81t-65.5 -27q-20 0 -39.5 8.5t-37.5 18t-35.5 18t-32.5 8.5q-17 0 -27 -13t-17 -43z" />
    <glyph glyph-name="wacute" unicode="&#x1e83;" horiz-adv-x="731" 
d="M12 0zM251 0h-97l-142 509h97l98 -374l117 374h86l116 -374l99 374h94l-143 -509h-96l-114 373zM398 725h120l-128 -122h-84z" />
    <glyph glyph-name="wdieresis" unicode="&#x1e85;" horiz-adv-x="731" 
d="M12 0zM251 0h-97l-142 509h97l98 -374l117 374h86l116 -374l99 374h94l-143 -509h-96l-114 373zM270 608q-25 0 -42.5 16.5t-17.5 41.5t17.5 41.5t42.5 16.5t42.5 -16.5t17.5 -41.5t-17.5 -41.5t-42.5 -16.5zM463 608q-25 0 -42.5 16.5t-17.5 41.5t17.5 41.5t42.5 16.5
q26 0 43 -16.5t17 -41.5t-17.5 -41.5t-42.5 -16.5z" />
    <glyph glyph-name="wgrave" unicode="&#x1e81;" horiz-adv-x="731" 
d="M12 0zM251 0h-97l-142 509h97l98 -374l117 374h86l116 -374l99 374h94l-143 -509h-96l-114 373zM336 725l90 -122h-84l-128 122h122z" />
    <glyph glyph-name="wcircumflex" unicode="&#x175;" horiz-adv-x="731" 
d="M12 0zM251 0h-97l-142 509h97l98 -374l117 374h86l116 -374l99 374h94l-143 -509h-96l-114 373zM445 600l-79 77l-80 -77h-80l108 127h105l108 -127h-82z" />
    <glyph glyph-name="yacute" unicode="&#xfd;" horiz-adv-x="537" 
d="M3 0zM186 -48l20 46l-203 511h110l149 -389l164 389h108l-246 -570q-35 -81 -80 -116.5t-115 -35.5q-16 0 -29.5 1.5t-23.5 4.5v88q10 -2 20.5 -3t24.5 -1q34 0 59.5 18.5t41.5 56.5zM297 725h120l-128 -122h-84z" />
    <glyph glyph-name="ycircumflex" unicode="&#x177;" horiz-adv-x="537" 
d="M3 0zM186 -48l20 46l-203 511h110l149 -389l164 389h108l-246 -570q-35 -81 -80 -116.5t-115 -35.5q-16 0 -29.5 1.5t-23.5 4.5v88q10 -2 20.5 -3t24.5 -1q34 0 59.5 18.5t41.5 56.5zM344 600l-79 77l-80 -77h-80l108 127h105l108 -127h-82z" />
    <glyph glyph-name="ydieresis" unicode="&#xff;" horiz-adv-x="537" 
d="M3 0zM186 -48l20 46l-203 511h110l149 -389l164 389h108l-246 -570q-35 -81 -80 -116.5t-115 -35.5q-16 0 -29.5 1.5t-23.5 4.5v88q10 -2 20.5 -3t24.5 -1q34 0 59.5 18.5t41.5 56.5zM169 608q-25 0 -42.5 16.5t-17.5 41.5t17.5 41.5t42.5 16.5t42.5 -16.5t17.5 -41.5
t-17.5 -41.5t-42.5 -16.5zM362 608q-25 0 -42.5 16.5t-17.5 41.5t17.5 41.5t42.5 16.5q26 0 43 -16.5t17 -41.5t-17.5 -41.5t-42.5 -16.5z" />
    <glyph glyph-name="ygrave" unicode="&#x1ef3;" horiz-adv-x="537" 
d="M3 0zM186 -48l20 46l-203 511h110l149 -389l164 389h108l-246 -570q-35 -81 -80 -116.5t-115 -35.5q-16 0 -29.5 1.5t-23.5 4.5v88q10 -2 20.5 -3t24.5 -1q34 0 59.5 18.5t41.5 56.5zM235 725l90 -122h-84l-128 122h122z" />
    <glyph glyph-name="zacute" unicode="&#x17a;" horiz-adv-x="478" 
d="M29 0zM29 0v74l285 349h-282v86h408v-73l-286 -350h291v-86h-416zM267 725h120l-128 -122h-84z" />
    <glyph glyph-name="zcaron" unicode="&#x17e;" horiz-adv-x="478" 
d="M29 0zM29 0v74l285 349h-282v86h408v-73l-286 -350h291v-86h-416zM157 728l79 -78l78 78h81l-108 -127h-105l-108 127h83z" />
    <glyph glyph-name="zdotaccent" unicode="&#x17c;" horiz-adv-x="478" 
d="M29 0zM29 0v74l285 349h-282v86h408v-73l-286 -350h291v-86h-416zM235 602q-25 0 -42.5 17t-17.5 42t17.5 41.5t42.5 16.5t42.5 -16.5t17.5 -41.5t-17.5 -42t-42.5 -17z" />
    <glyph glyph-name="ordfeminine" unicode="&#xaa;" horiz-adv-x="420" 
d="M172 309q-62 0 -101.5 33t-39.5 84q0 54 42 85t115 31q26 0 52 -4.5t50 -14.5v38q-1 38 -23.5 58t-67.5 20q-25 0 -54 -8t-65 -24l-29 60q43 21 82.5 30.5t77.5 9.5q75 0 116.5 -36t41.5 -102v-253h-79v32q-25 -19 -54 -29t-64 -10zM109 428q0 -27 22.5 -43t59.5 -16
q29 0 54 8.5t45 24.5v64q-21 11 -44 16t-51 5q-40 0 -63 -16t-23 -43z" />
    <glyph glyph-name="ordmasculine" unicode="&#xba;" horiz-adv-x="472" 
d="M33 507q0 42 15.5 78.5t43 63.5t64 42.5t78.5 15.5t79 -15.5t64 -42.5t42.5 -63.5t15.5 -78.5q0 -41 -15.5 -77.5t-42.5 -63.5t-64 -42.5t-79 -15.5t-78.5 15.5t-64 42.5t-43 63.5t-15.5 77.5zM356 507q0 54 -35.5 91.5t-86.5 37.5t-86 -37.5t-35 -91.5t35 -91t86 -37
t86.5 37t35.5 91z" />
    <glyph glyph-name="a.school" horiz-adv-x="607" 
d="M449 0v48q-32 -27 -72 -41.5t-84 -14.5q-54 0 -101 20.5t-81.5 55.5t-54.5 83.5t-20 103.5t20 103t54.5 83t82.5 55.5t102 20.5q42 0 81 -13t72 -37v42h100v-509h-99zM134 256q0 -75 50 -126t123 -51q43 0 79.5 16t61.5 45v231q-25 28 -62 44t-79 16q-73 0 -123 -50
t-50 -125z" />
    <glyph glyph-name="aacute.school" horiz-adv-x="607" 
d="M36 0zM449 0v48q-32 -27 -72 -41.5t-84 -14.5q-54 0 -101 20.5t-81.5 55.5t-54.5 83.5t-20 103.5t20 103t54.5 83t82.5 55.5t102 20.5q42 0 81 -13t72 -37v42h100v-509h-99zM134 256q0 -75 50 -126t123 -51q43 0 79.5 16t61.5 45v231q-25 28 -62 44t-79 16
q-73 0 -123 -50t-50 -125zM335 725h120l-128 -122h-84z" />
    <glyph glyph-name="abreve.school" horiz-adv-x="607" 
d="M36 0zM449 0v48q-32 -27 -72 -41.5t-84 -14.5q-54 0 -101 20.5t-81.5 55.5t-54.5 83.5t-20 103.5t20 103t54.5 83t82.5 55.5t102 20.5q42 0 81 -13t72 -37v42h100v-509h-99zM134 256q0 -75 50 -126t123 -51q43 0 79.5 16t61.5 45v231q-25 28 -62 44t-79 16
q-73 0 -123 -50t-50 -125zM303 656q37 0 62 21.5t36 62.5l65 -17q-14 -60 -57 -94t-106 -34t-106 34t-57 94l66 17q11 -42 35.5 -63t61.5 -21z" />
    <glyph glyph-name="acircumflex.school" horiz-adv-x="607" 
d="M36 0zM449 0v48q-32 -27 -72 -41.5t-84 -14.5q-54 0 -101 20.5t-81.5 55.5t-54.5 83.5t-20 103.5t20 103t54.5 83t82.5 55.5t102 20.5q42 0 81 -13t72 -37v42h100v-509h-99zM134 256q0 -75 50 -126t123 -51q43 0 79.5 16t61.5 45v231q-25 28 -62 44t-79 16
q-73 0 -123 -50t-50 -125zM382 600l-79 77l-80 -77h-80l108 127h105l108 -127h-82z" />
    <glyph glyph-name="adieresis.school" horiz-adv-x="607" 
d="M36 0zM449 0v48q-32 -27 -72 -41.5t-84 -14.5q-54 0 -101 20.5t-81.5 55.5t-54.5 83.5t-20 103.5t20 103t54.5 83t82.5 55.5t102 20.5q42 0 81 -13t72 -37v42h100v-509h-99zM134 256q0 -75 50 -126t123 -51q43 0 79.5 16t61.5 45v231q-25 28 -62 44t-79 16
q-73 0 -123 -50t-50 -125zM206 608q-25 0 -42.5 16.5t-17.5 41.5t17.5 41.5t42.5 16.5t42.5 -16.5t17.5 -41.5t-17.5 -41.5t-42.5 -16.5zM399 608q-25 0 -42.5 16.5t-17.5 41.5t17.5 41.5t42.5 16.5q26 0 43 -16.5t17 -41.5t-17.5 -41.5t-42.5 -16.5z" />
    <glyph glyph-name="agrave.school" horiz-adv-x="607" 
d="M36 0zM449 0v48q-32 -27 -72 -41.5t-84 -14.5q-54 0 -101 20.5t-81.5 55.5t-54.5 83.5t-20 103.5t20 103t54.5 83t82.5 55.5t102 20.5q42 0 81 -13t72 -37v42h100v-509h-99zM134 256q0 -75 50 -126t123 -51q43 0 79.5 16t61.5 45v231q-25 28 -62 44t-79 16
q-73 0 -123 -50t-50 -125zM273 725l90 -122h-84l-128 122h122z" />
    <glyph glyph-name="amacron.school" horiz-adv-x="607" 
d="M36 0zM449 0v48q-32 -27 -72 -41.5t-84 -14.5q-54 0 -101 20.5t-81.5 55.5t-54.5 83.5t-20 103.5t20 103t54.5 83t82.5 55.5t102 20.5q42 0 81 -13t72 -37v42h100v-509h-99zM134 256q0 -75 50 -126t123 -51q43 0 79.5 16t61.5 45v231q-25 28 -62 44t-79 16
q-73 0 -123 -50t-50 -125zM456 690v-68h-298v68h298z" />
    <glyph glyph-name="aogonek.school" horiz-adv-x="607" 
d="M449 0v48q-32 -27 -72 -41.5t-84 -14.5q-54 0 -101 20.5t-81.5 55.5t-54.5 83.5t-20 103.5t20 103t54.5 83t82.5 55.5t102 20.5q42 0 81 -13t72 -37v42h100v-509q-51 -31 -75.5 -59t-24.5 -56q0 -23 15 -36.5t40 -13.5q12 0 23.5 3.5t21.5 10.5l16 -49q-16 -10 -36 -15.5
t-41 -5.5q-46 0 -74 24t-28 64q0 36 23 67.5t74 65.5h-33zM134 256q0 -75 50 -126t123 -51q43 0 79.5 16t61.5 45v231q-25 28 -62 44t-79 16q-73 0 -123 -50t-50 -125z" />
    <glyph glyph-name="aring.school" horiz-adv-x="607" 
d="M36 0zM449 0v48q-32 -27 -72 -41.5t-84 -14.5q-54 0 -101 20.5t-81.5 55.5t-54.5 83.5t-20 103.5t20 103t54.5 83t82.5 55.5t102 20.5q42 0 81 -13t72 -37v42h100v-509h-99zM134 256q0 -75 50 -126t123 -51q43 0 79.5 16t61.5 45v231q-25 28 -62 44t-79 16
q-73 0 -123 -50t-50 -125zM303 583q-49 0 -82.5 33.5t-33.5 82.5q0 48 33.5 81.5t82.5 33.5t82.5 -33.5t33.5 -81.5q0 -49 -34 -82.5t-82 -33.5zM303 631q28 0 46.5 20t18.5 48t-18.5 47t-46.5 19q-27 0 -46 -19t-19 -47q0 -29 18.5 -48.5t46.5 -19.5z" />
    <glyph glyph-name="atilde.school" horiz-adv-x="607" 
d="M36 0zM449 0v48q-32 -27 -72 -41.5t-84 -14.5q-54 0 -101 20.5t-81.5 55.5t-54.5 83.5t-20 103.5t20 103t54.5 83t82.5 55.5t102 20.5q42 0 81 -13t72 -37v42h100v-509h-99zM134 256q0 -75 50 -126t123 -51q43 0 79.5 16t61.5 45v231q-25 28 -62 44t-79 16
q-73 0 -123 -50t-50 -125zM193 595l-65 13q12 55 37.5 82t65.5 27q20 0 39.5 -8.5t38 -18t35.5 -18t32 -8.5q17 0 27.5 12.5t17.5 43.5l64 -14q-12 -54 -37.5 -81t-65.5 -27q-20 0 -39.5 8.5t-37.5 18t-35.5 18t-32.5 8.5q-17 0 -27 -13t-17 -43z" />
    <glyph glyph-name="g.alt" horiz-adv-x="559" 
d="M54 328q0 40 17 75t46.5 60.5t69.5 40.5t86 15q40 0 76.5 -12t64.5 -32q19 32 49.5 50t65.5 18q8 0 14.5 -1.5t12.5 -2.5l2 -79q-6 1 -14 1.5t-18 0.5q-22 0 -41.5 -5t-35.5 -15q20 -24 31 -53t11 -61q0 -40 -16.5 -74t-46 -59t-69.5 -39.5t-86 -14.5q-14 0 -28 1.5
t-27 4.5q-20 -7 -31.5 -18t-11.5 -25q0 -18 14.5 -28t43.5 -11l179 -7q67 -3 104.5 -32.5t37.5 -79.5q0 -73 -78.5 -117t-209.5 -44q-116 0 -179.5 31.5t-63.5 88.5q0 34 27 60.5t74 41.5q-19 13 -28.5 31.5t-9.5 40.5q0 29 19 52.5t52 36.5q-46 25 -74.5 67t-28.5 93z
M397 328q0 48 -36 81t-88 33t-88 -33t-36 -81t36 -80t88 -32t88 32.5t36 79.5zM115 -82q0 -31 38.5 -48t108.5 -17q88 0 140 20.5t52 55.5q0 19 -15 30t-45 12l-160 7q-10 0 -20.5 1.5t-19.5 2.5q-37 -8 -58 -25t-21 -39z" />
    <glyph glyph-name="gbreve.alt" horiz-adv-x="559" 
d="M23 0zM54 328q0 40 17 75t46.5 60.5t69.5 40.5t86 15q40 0 76.5 -12t64.5 -32q19 32 49.5 50t65.5 18q8 0 14.5 -1.5t12.5 -2.5l2 -79q-6 1 -14 1.5t-18 0.5q-22 0 -41.5 -5t-35.5 -15q20 -24 31 -53t11 -61q0 -40 -16.5 -74t-46 -59t-69.5 -39.5t-86 -14.5
q-14 0 -28 1.5t-27 4.5q-20 -7 -31.5 -18t-11.5 -25q0 -18 14.5 -28t43.5 -11l179 -7q67 -3 104.5 -32.5t37.5 -79.5q0 -73 -78.5 -117t-209.5 -44q-116 0 -179.5 31.5t-63.5 88.5q0 34 27 60.5t74 41.5q-19 13 -28.5 31.5t-9.5 40.5q0 29 19 52.5t52 36.5q-46 25 -74.5 67
t-28.5 93zM397 328q0 48 -36 81t-88 33t-88 -33t-36 -81t36 -80t88 -32t88 32.5t36 79.5zM115 -82q0 -31 38.5 -48t108.5 -17q88 0 140 20.5t52 55.5q0 19 -15 30t-45 12l-160 7q-10 0 -20.5 1.5t-19.5 2.5q-37 -8 -58 -25t-21 -39zM274 656q37 0 62 21.5t36 62.5l65 -17
q-14 -60 -57 -94t-106 -34t-106 34t-57 94l66 17q11 -42 35.5 -63t61.5 -21z" />
    <glyph glyph-name="gcircumflex.alt" horiz-adv-x="559" 
d="M23 0zM54 328q0 40 17 75t46.5 60.5t69.5 40.5t86 15q40 0 76.5 -12t64.5 -32q19 32 49.5 50t65.5 18q8 0 14.5 -1.5t12.5 -2.5l2 -79q-6 1 -14 1.5t-18 0.5q-22 0 -41.5 -5t-35.5 -15q20 -24 31 -53t11 -61q0 -40 -16.5 -74t-46 -59t-69.5 -39.5t-86 -14.5
q-14 0 -28 1.5t-27 4.5q-20 -7 -31.5 -18t-11.5 -25q0 -18 14.5 -28t43.5 -11l179 -7q67 -3 104.5 -32.5t37.5 -79.5q0 -73 -78.5 -117t-209.5 -44q-116 0 -179.5 31.5t-63.5 88.5q0 34 27 60.5t74 41.5q-19 13 -28.5 31.5t-9.5 40.5q0 29 19 52.5t52 36.5q-46 25 -74.5 67
t-28.5 93zM397 328q0 48 -36 81t-88 33t-88 -33t-36 -81t36 -80t88 -32t88 32.5t36 79.5zM115 -82q0 -31 38.5 -48t108.5 -17q88 0 140 20.5t52 55.5q0 19 -15 30t-45 12l-160 7q-10 0 -20.5 1.5t-19.5 2.5q-37 -8 -58 -25t-21 -39zM353 600l-79 77l-80 -77h-80l108 127h105
l108 -127h-82z" />
    <glyph glyph-name="gcommaaccent.alt" horiz-adv-x="559" 
d="M326 602h-97l69 190h73zM54 328q0 40 17 75t46.5 60.5t69.5 40.5t86 15q40 0 76.5 -12t64.5 -32q19 32 49.5 50t65.5 18q8 0 14.5 -1.5t12.5 -2.5l2 -79q-6 1 -14 1.5t-18 0.5q-22 0 -41.5 -5t-35.5 -15q20 -24 31 -53t11 -61q0 -40 -16.5 -74t-46 -59t-69.5 -39.5
t-86 -14.5q-14 0 -28 1.5t-27 4.5q-20 -7 -31.5 -18t-11.5 -25q0 -18 14.5 -28t43.5 -11l179 -7q67 -3 104.5 -32.5t37.5 -79.5q0 -73 -78.5 -117t-209.5 -44q-116 0 -179.5 31.5t-63.5 88.5q0 34 27 60.5t74 41.5q-19 13 -28.5 31.5t-9.5 40.5q0 29 19 52.5t52 36.5
q-46 25 -74.5 67t-28.5 93zM397 328q0 48 -36 81t-88 33t-88 -33t-36 -81t36 -80t88 -32t88 32.5t36 79.5zM115 -82q0 -31 38.5 -48t108.5 -17q88 0 140 20.5t52 55.5q0 19 -15 30t-45 12l-160 7q-10 0 -20.5 1.5t-19.5 2.5q-37 -8 -58 -25t-21 -39z" />
    <glyph glyph-name="gdotaccent.alt" horiz-adv-x="559" 
d="M23 0zM54 328q0 40 17 75t46.5 60.5t69.5 40.5t86 15q40 0 76.5 -12t64.5 -32q19 32 49.5 50t65.5 18q8 0 14.5 -1.5t12.5 -2.5l2 -79q-6 1 -14 1.5t-18 0.5q-22 0 -41.5 -5t-35.5 -15q20 -24 31 -53t11 -61q0 -40 -16.5 -74t-46 -59t-69.5 -39.5t-86 -14.5
q-14 0 -28 1.5t-27 4.5q-20 -7 -31.5 -18t-11.5 -25q0 -18 14.5 -28t43.5 -11l179 -7q67 -3 104.5 -32.5t37.5 -79.5q0 -73 -78.5 -117t-209.5 -44q-116 0 -179.5 31.5t-63.5 88.5q0 34 27 60.5t74 41.5q-19 13 -28.5 31.5t-9.5 40.5q0 29 19 52.5t52 36.5q-46 25 -74.5 67
t-28.5 93zM397 328q0 48 -36 81t-88 33t-88 -33t-36 -81t36 -80t88 -32t88 32.5t36 79.5zM115 -82q0 -31 38.5 -48t108.5 -17q88 0 140 20.5t52 55.5q0 19 -15 30t-45 12l-160 7q-10 0 -20.5 1.5t-19.5 2.5q-37 -8 -58 -25t-21 -39zM275 602q-25 0 -42.5 17t-17.5 42
t17.5 41.5t42.5 16.5t42.5 -16.5t17.5 -41.5t-17.5 -42t-42.5 -17z" />
    <glyph glyph-name="fi" unicode="&#xfb01;" horiz-adv-x="614" 
d="M17 0zM17 509h118v77q0 79 44.5 121.5t128.5 42.5q20 0 38 -2.5t34 -6.5v-87q-18 5 -32 7t-31 2q-41 0 -61.5 -19.5t-20.5 -59.5v-75h145v-84h-145v-425h-100v425h-118v84zM506 591q-25 0 -43 18.5t-18 43.5t18 43.5t43 18.5t43.5 -18.5t18.5 -43.5t-18.5 -43.5
t-43.5 -18.5zM556 509v-509h-100v509h100z" />
    <glyph glyph-name="fl" unicode="&#xfb02;" horiz-adv-x="614" 
d="M17 0zM17 509h118v77q0 79 44.5 121.5t128.5 42.5q20 0 38 -2.5t34 -6.5v-87q-18 5 -32 7t-31 2q-41 0 -61.5 -19.5t-20.5 -59.5v-75h145v-84h-145v-425h-100v425h-118v84zM556 722v-722h-100v700z" />
    <glyph glyph-name="ampersand" unicode="&#x26;" horiz-adv-x="666" 
d="M651 55l-60 -71q-27 20 -54.5 42.5t-55.5 46.5q-44 -41 -99.5 -62t-118.5 -21q-107 0 -172.5 54.5t-65.5 143.5q0 63 31.5 107.5t105.5 84.5l11 6q-34 43 -48 79t-14 77q0 72 51 120.5t129 48.5q74 0 122.5 -43.5t48.5 -109.5q0 -47 -26.5 -86t-80.5 -71l-51 -31
q37 -40 80 -82t88 -83q22 37 37 81.5t25 94.5l89 -14q-13 -65 -35 -120.5t-51 -99.5q30 -25 59 -48.5t55 -43.5zM203 543q0 -27 11.5 -52.5t39.5 -61.5l51 30q33 19 49 43t16 53q0 34 -24 56.5t-58 22.5q-37 0 -61 -25.5t-24 -65.5zM119 194q0 -56 41 -89.5t109 -33.5
q43 0 80 15t68 43q-52 48 -102 98t-92 98l-11 -6q-50 -28 -71.5 -57t-21.5 -68z" />
    <glyph glyph-name="grave" unicode="`" horiz-adv-x="518" 
d="M271 725l90 -122h-84l-128 122h122z" />
    <glyph glyph-name="acute" unicode="&#xb4;" horiz-adv-x="518" 
d="M254 725h120l-128 -122h-84z" />
    <glyph glyph-name="circumflex" unicode="&#x2c6;" horiz-adv-x="518" 
d="M338 600l-79 77l-80 -77h-80l108 127h105l108 -127h-82z" />
    <glyph glyph-name="tilde" unicode="&#x2dc;" horiz-adv-x="518" 
d="M146 595l-65 13q12 55 37.5 82t65.5 27q20 0 39.5 -8.5t38 -18t35.5 -18t32 -8.5q17 0 27.5 12.5t17.5 43.5l64 -14q-12 -54 -37.5 -81t-65.5 -27q-20 0 -39.5 8.5t-37.5 18t-35.5 18t-32.5 8.5q-17 0 -27 -13t-17 -43z" />
    <glyph glyph-name="macron" unicode="&#xaf;" horiz-adv-x="518" 
d="M412 690v-68h-298v68h298z" />
    <glyph glyph-name="breve" unicode="&#x2d8;" horiz-adv-x="518" 
d="M259 656q37 0 62 21.5t36 62.5l65 -17q-14 -60 -57 -94t-106 -34t-106 34t-57 94l66 17q11 -42 35.5 -63t61.5 -21z" />
    <glyph glyph-name="dotaccent" unicode="&#x2d9;" horiz-adv-x="277" 
d="M139 602q-25 0 -42.5 17t-17.5 42t17.5 41.5t42.5 16.5t42.5 -16.5t17.5 -41.5t-17.5 -42t-42.5 -17z" />
    <glyph glyph-name="dieresis" unicode="&#xa8;" horiz-adv-x="559" 
d="M183 608q-25 0 -42.5 16.5t-17.5 41.5t17.5 41.5t42.5 16.5t42.5 -16.5t17.5 -41.5t-17.5 -41.5t-42.5 -16.5zM376 608q-25 0 -42.5 16.5t-17.5 41.5t17.5 41.5t42.5 16.5q26 0 43 -16.5t17 -41.5t-17.5 -41.5t-42.5 -16.5z" />
    <glyph glyph-name="ring" unicode="&#x2da;" horiz-adv-x="518" 
d="M259 583q-49 0 -82.5 33.5t-33.5 82.5q0 48 33.5 81.5t82.5 33.5t82.5 -33.5t33.5 -81.5q0 -49 -34 -82.5t-82 -33.5zM259 631q28 0 46.5 20t18.5 48t-18.5 47t-46.5 19q-27 0 -46 -19t-19 -47q0 -29 18.5 -48.5t46.5 -19.5z" />
    <glyph glyph-name="hungarumlaut" unicode="&#x2dd;" horiz-adv-x="536" 
d="M212 725h107l-129 -119h-81zM394 725h108l-135 -119h-76z" />
    <glyph glyph-name="caron" unicode="&#x2c7;" horiz-adv-x="518" 
d="M182 728l79 -78l78 78h81l-108 -127h-105l-108 127h83z" />
    <glyph glyph-name="caronSlovak" horiz-adv-x="404" 
d="M168 716h100l-37 -220h-70z" />
    <glyph glyph-name="uni00200326" horiz-adv-x="244" 
d="M70 -83h97l-69 -190h-73z" />
    <glyph glyph-name="cedilla" unicode="&#xb8;" horiz-adv-x="518" 
d="M397 -136q0 -41 -34.5 -68t-87.5 -27q-34 0 -64.5 10.5t-53.5 31.5l36 39q19 -15 39 -23t42 -8q28 0 44 12.5t16 32.5q0 19 -17 31t-46 12h-34l27 93h53l-15 -51q43 -3 69 -25.5t26 -59.5z" />
    <glyph glyph-name="ogonek" unicode="&#x2db;" horiz-adv-x="518" 
d="M322 0q-51 -31 -75.5 -59t-24.5 -56q0 -23 15 -36.5t40 -13.5q12 0 23.5 3.5t21.5 10.5l16 -49q-16 -10 -36 -15.5t-41 -5.5q-46 0 -74 24t-28 64t29.5 75.5t95.5 75.5z" />
    <glyph glyph-name="period" unicode="." horiz-adv-x="216" 
d="M108 119q26 0 44.5 -18.5t18.5 -44.5t-18.5 -45t-44.5 -19t-45 19t-19 45t19 44.5t45 18.5z" />
    <glyph glyph-name="comma" unicode="," horiz-adv-x="216" 
d="M72 90h106l-92 -233h-76z" />
    <glyph glyph-name="colon" unicode=":" horiz-adv-x="216" 
d="M44 0zM108 119q26 0 44.5 -18.5t18.5 -44.5t-18.5 -45t-44.5 -19t-45 19t-19 45t19 44.5t45 18.5zM108 519q26 0 44.5 -18.5t18.5 -44.5t-18.5 -45t-44.5 -19t-45 19t-19 45t19 44.5t45 18.5z" />
    <glyph glyph-name="semicolon" unicode=";" horiz-adv-x="219" 
d="M3 0zM118 519q26 0 44.5 -18.5t18.5 -44.5t-18.5 -45t-44.5 -19t-45 19t-19 45t19 44.5t45 18.5zM65 90h106l-92 -233h-76z" />
    <glyph glyph-name="ellipsis" unicode="&#x2026;" horiz-adv-x="633" 
d="M44 0zM108 119q26 0 44.5 -18.5t18.5 -44.5t-18.5 -45t-44.5 -19t-45 19t-19 45t19 44.5t45 18.5zM317 119q26 0 44.5 -18.5t18.5 -44.5t-18.5 -45t-44.5 -19t-45 19t-19 45t19 44.5t45 18.5zM525 119q26 0 44.5 -18.5t18.5 -44.5t-18.5 -45t-44.5 -19t-45 19t-19 45
t19 44.5t45 18.5z" />
    <glyph glyph-name="exclam" unicode="!" horiz-adv-x="216" 
d="M69 200l-13 525h103l-12 -525h-78zM108 -8q-26 0 -45 19t-19 45t19 44.5t45 18.5t44.5 -18.5t18.5 -44.5t-18.5 -45t-44.5 -19z" />
    <glyph glyph-name="exclamdown" unicode="&#xa1;" horiz-adv-x="216" 
d="M147 503l13 -525h-103l12 525h78zM108 711q26 0 45 -19t19 -45t-19 -44.5t-45 -18.5t-44.5 18.5t-18.5 44.5t18.5 45t44.5 19z" />
    <glyph glyph-name="question" unicode="?" horiz-adv-x="514" 
d="M360 355l-31 -22q-34 -24 -48 -54.5t-11 -76.5h-86q-4 69 14 110.5t66 76.5l47 34q38 28 54.5 51.5t16.5 51.5q0 41 -38 69t-92 28q-47 0 -88.5 -23t-69.5 -66l-79 42q39 63 103 98t139 35q47 0 88 -13.5t71 -37.5t47 -57t17 -71q0 -52 -26 -90.5t-94 -84.5zM227 119
q26 0 45 -18.5t19 -44.5t-19 -45t-45 -19t-44.5 19t-18.5 45t18.5 44.5t44.5 18.5z" />
    <glyph glyph-name="questiondown" unicode="&#xbf;" horiz-adv-x="514" 
d="M147 347l31 22q34 24 48 54.5t11 76.5h86q4 -69 -14 -110.5t-66 -76.5l-47 -34q-38 -28 -54.5 -51.5t-16.5 -51.5q0 -41 38 -69t92 -28q47 0 88.5 23t69.5 66l79 -42q-39 -63 -103 -98t-139 -35q-47 0 -88 13.5t-71 37.5t-47 57t-17 71q0 52 26 90.5t94 84.5zM280 583
q-26 0 -45 18.5t-19 44.5t19 45t45 19t44.5 -19t18.5 -45t-18.5 -44.5t-44.5 -18.5z" />
    <glyph glyph-name="quoteleft" unicode="&#x2018;" horiz-adv-x="216" 
d="M129 495h-106l92 233h76z" />
    <glyph glyph-name="quoteright" unicode="&#x2019;" horiz-adv-x="216" 
d="M37 496zM99 729h106l-92 -233h-76z" />
    <glyph glyph-name="quotedblleft" unicode="&#x201c;" horiz-adv-x="374" 
d="M129 495h-106l92 233h76zM288 495h-106l92 233h76z" />
    <glyph glyph-name="quotedblright" unicode="&#x201d;" horiz-adv-x="374" 
d="M37 496zM258 729h106l-92 -233h-76zM99 729h106l-92 -233h-76z" />
    <glyph glyph-name="quotesinglbase" unicode="&#x201a;" horiz-adv-x="216" 
d="M10 0zM72 90h106l-92 -233h-76z" />
    <glyph glyph-name="quotedblbase" unicode="&#x201e;" horiz-adv-x="374" 
d="M10 0zM231 90h106l-92 -233h-76zM72 90h106l-92 -233h-76z" />
    <glyph glyph-name="reversequoteleft" horiz-adv-x="216" 
d="M129 728l62 -232h-76l-91 232h105z" />
    <glyph glyph-name="reversequotedblleft" horiz-adv-x="374" 
d="M129 728l62 -232h-76l-91 232h105zM288 728l62 -232h-77l-91 232h106z" />
    <glyph glyph-name="guilsinglleft" unicode="&#x2039;" horiz-adv-x="407" 
d="M368 509l-232 -252l235 -257h-108l-237 255l237 254h105z" />
    <glyph glyph-name="guilsinglright" unicode="&#x203a;" horiz-adv-x="407" 
d="M39 0l232 252l-235 257h108l237 -255l-237 -254h-105z" />
    <glyph glyph-name="guillemotleft" unicode="&#xab;" horiz-adv-x="631" 
d="M26 0zM368 509l-232 -252l235 -257h-108l-237 255l237 254h105zM592 509l-232 -252l235 -257h-108l-237 255l237 254h105z" />
    <glyph glyph-name="guillemotright" unicode="&#xbb;" horiz-adv-x="631" 
d="M263 0l232 252l-235 257h108l237 -255l-237 -254h-105zM39 0l232 252l-235 257h108l237 -255l-237 -254h-105z" />
    <glyph glyph-name="slash" unicode="/" horiz-adv-x="479" 
d="M-69 -207l422 907h101l-422 -907h-101z" />
    <glyph glyph-name="backslash" unicode="\" horiz-adv-x="485" 
d="M553 -207h-105l-422 907h105z" />
    <glyph glyph-name="bar" unicode="|" horiz-adv-x="294" 
d="M101 -208v908h93v-908h-93z" />
    <glyph glyph-name="bullet" unicode="&#x2022;" horiz-adv-x="339" 
d="M169 237q-44 0 -75.5 31.5t-31.5 75.5t31.5 75.5t75.5 31.5q45 0 76.5 -31.5t31.5 -75.5t-31.5 -75.5t-76.5 -31.5z" />
    <glyph glyph-name="uni2002" unicode="&#x2002;" horiz-adv-x="500" 
 />
    <glyph glyph-name="uni2003" unicode="&#x2003;" horiz-adv-x="1000" 
 />
    <glyph glyph-name="uni2009" unicode="&#x2009;" horiz-adv-x="175" 
 />
    <glyph glyph-name="uni200A" unicode="&#x200a;" horiz-adv-x="100" 
 />
    <glyph glyph-name="uni200B" unicode="&#x200b;" horiz-adv-x="0" 
 />
    <glyph glyph-name="periodcentered" unicode="&#xb7;" horiz-adv-x="216" 
d="M44 219zM108 346q26 0 44.5 -18.5t18.5 -44.5t-18.5 -45t-44.5 -19t-45 19t-19 45t19 44.5t45 18.5z" />
    <glyph glyph-name="hyphen" unicode="-" horiz-adv-x="452" 
d="M46 326h360v-86h-360v86z" />
    <glyph glyph-name="endash" unicode="&#x2013;" horiz-adv-x="552" 
d="M46 326h460v-86h-460v86z" />
    <glyph glyph-name="emdash" unicode="&#x2014;" horiz-adv-x="702" 
d="M46 326h610v-86h-610v86z" />
    <glyph glyph-name="uni2015" unicode="&#x2015;" horiz-adv-x="952" 
d="M46 326h860v-86h-860v86z" />
    <glyph glyph-name="periodcentered.cap" horiz-adv-x="216" 
d="M44 284zM44 284zM108 411q26 0 44.5 -18.5t18.5 -44.5t-18.5 -45t-44.5 -19t-45 19t-19 45t19 44.5t45 18.5z" />
    <glyph glyph-name="hyphen.cap" horiz-adv-x="452" 
d="M46 305zM46 391h360v-86h-360v86z" />
    <glyph glyph-name="endash.cap" horiz-adv-x="552" 
d="M46 305zM46 391h460v-86h-460v86z" />
    <glyph glyph-name="emdash.cap" horiz-adv-x="702" 
d="M46 305zM46 391h610v-86h-610v86z" />
    <glyph glyph-name="uni2015.cap" horiz-adv-x="952" 
d="M46 305zM46 391h860v-86h-860v86z" />
    <glyph glyph-name="parenleft" unicode="(" horiz-adv-x="399" 
d="M59 248q0 152 66 272t188 192l54 -65q-103 -61 -158 -164.5t-55 -234.5t55 -234.5t158 -163.5l-54 -65q-122 72 -188 191.5t-66 271.5z" />
    <glyph glyph-name="parenright" unicode=")" horiz-adv-x="399" 
d="M340 252q0 -152 -66 -272t-188 -192l-54 65q103 61 158 164.5t55 234.5t-55 234.5t-158 163.5l54 65q122 -72 188 -191.5t66 -271.5z" />
    <glyph glyph-name="bracketleft" unicode="[" horiz-adv-x="366" 
d="M328 -209h-271v909h271v-80h-176v-750h176v-79z" />
    <glyph glyph-name="bracketright" unicode="]" horiz-adv-x="366" 
d="M38 700h271v-909h-271v80h176v750h-176v79z" />
    <glyph glyph-name="braceleft" unicode="{" horiz-adv-x="401" 
d="M266 87l-44 -111q-19 -48 -2 -80t62 -32q16 0 31 2.5t32 8.5l17 -74q-23 -8 -44.5 -11.5t-43.5 -3.5q-46 0 -80.5 15.5t-53 42.5t-20.5 64t16 80l38 95q22 53 1.5 89.5t-71.5 36.5h-81v78h81q51 0 71.5 36.5t-1.5 88.5l-38 95q-17 43 -15 80t20.5 64.5t52.5 43t80 15.5
q22 0 43.5 -4t44.5 -12l-17 -73q-17 5 -32 8t-31 3q-45 -1 -62 -32.5t2 -79.5l44 -112q21 -55 -4.5 -100t-83.5 -61q58 -15 83.5 -60t4.5 -100z" />
    <glyph glyph-name="braceright" unicode="}" horiz-adv-x="401" 
d="M135 409l44 111q19 48 2 80t-62 32q-16 0 -31 -2.5t-32 -8.5l-17 74q23 8 44.5 11.5t43.5 3.5q46 0 80.5 -15.5t53 -42.5t20.5 -64t-16 -80l-38 -95q-22 -53 -1.5 -89.5t71.5 -36.5h81v-78h-81q-51 0 -71.5 -36.5t1.5 -88.5l38 -95q17 -43 15 -80t-20.5 -64.5t-52.5 -43
t-80 -15.5q-22 0 -43.5 4t-44.5 12l17 73q17 -5 32 -8t31 -3q45 1 62 32.5t-2 79.5l-44 112q-21 55 4.5 100t83.5 61q-58 15 -83.5 60t-4.5 100z" />
    <glyph glyph-name="asterisk" unicode="*" horiz-adv-x="458" 
d="M373 390l-111 69l2 -128h-69l2 129l-113 -70l-37 57l120 71l-118 70l38 56l110 -69l-2 125h69l-2 -124l109 68l39 -56l-118 -70l120 -71z" />
    <glyph glyph-name="dagger" unicode="&#x2020;" horiz-adv-x="435" 
d="M176 0v430h-124v79h124v191h84v-191h124v-79h-124v-430h-84z" />
    <glyph glyph-name="daggerdbl" unicode="&#x2021;" horiz-adv-x="435" 
d="M176 0v191h-124v79h124v160h-124v79h124v191h84v-191h124v-79h-124v-160h124v-79h-124v-191h-84z" />
    <glyph glyph-name="section" unicode="&#xa7;" horiz-adv-x="571" 
d="M463 92q0 -64 -50.5 -104t-132.5 -40q-48 0 -96.5 13.5t-92.5 38.5l39 65q43 -24 80.5 -36t69.5 -12q43 0 67.5 19t24.5 50q0 25 -16 42.5t-53 29.5l-108 35q-80 26 -112.5 59.5t-32.5 88.5q0 46 27 79.5t74 49.5q-22 19 -32.5 42.5t-10.5 52.5q0 65 50.5 105t133.5 40
q46 0 94 -13.5t94 -38.5l-39 -65q-42 24 -80 36t-70 12q-43 0 -67.5 -18.5t-24.5 -50.5q0 -25 16.5 -42.5t52.5 -29.5l108 -35q79 -26 112 -59.5t33 -88.5q0 -46 -26.5 -80t-73.5 -50q22 -19 32 -42.5t10 -52.5zM333 232q4 -1 7 -2.5t7 -2.5q40 5 64.5 26.5t24.5 53.5
q0 28 -19.5 47.5t-62.5 33.5l-116 38q-4 1 -7 2.5t-7 2.5q-41 -5 -65 -27t-24 -54q0 -28 19.5 -47t62.5 -33z" />
    <glyph glyph-name="paragraph" unicode="&#xb6;" horiz-adv-x="671" 
d="M316 0v274h-50q-102 0 -167 59t-65 152q0 96 64 155.5t167 59.5h334v-700h-87v274h-110v-274h-86zM512 356v261h-110v-261h110zM264 356h52v261h-52q-62 0 -100.5 -36t-38.5 -94q0 -59 38.5 -95t100.5 -36z" />
    <glyph glyph-name="asciicircum" unicode="^" horiz-adv-x="543" 
d="M43 350l185 350h87l186 -350h-87l-142 269l-143 -269h-86z" />
    <glyph glyph-name="asciitilde" unicode="~" horiz-adv-x="590" 
d="M264 432l84 -41q22 -11 36.5 -16t27.5 -5q30 0 47.5 21.5t23.5 64.5l72 -9q-9 -74 -44.5 -114.5t-90.5 -40.5q-21 0 -44 6.5t-50 19.5l-84 41q-25 12 -38.5 16.5t-25.5 4.5q-30 0 -47 -21t-24 -64l-72 8q9 75 44.5 115.5t90.5 40.5q21 0 44 -6.5t50 -20.5z" />
    <glyph glyph-name="underscore" unicode="_" horiz-adv-x="487" 
d="M488 -80v-73h-489v73h489z" />
    <glyph glyph-name="quotesingle" unicode="'" horiz-adv-x="216" 
d="M72 467l-14 236h99l-13 -236h-72z" />
    <glyph glyph-name="quotedbl" unicode="&#x22;" horiz-adv-x="366" 
d="M58 467zM72 467l-14 236h99l-13 -236h-72zM223 467l-14 236h99l-13 -236h-72z" />
    <glyph glyph-name="at" unicode="@" horiz-adv-x="781" 
d="M355 50q-61 0 -102.5 44t-41.5 108q0 37 13.5 70t36.5 57.5t54.5 38.5t67.5 14q28 0 54 -9.5t44 -27.5l5 23h70l-41 -196q-7 -32 6.5 -49.5t44.5 -17.5q50 0 83.5 46.5t33.5 117.5q0 55 -21.5 102.5t-59 82.5t-89 54.5t-111.5 19.5q-64 0 -119.5 -24.5t-96 -67
t-64 -100.5t-23.5 -125q0 -66 23 -121.5t64 -96t98 -63t124 -22.5q46 0 88.5 10.5t79.5 29.5l21 -47q-45 -22 -93 -33.5t-98 -11.5q-78 0 -144.5 26.5t-115 73.5t-76 111.5t-27.5 139.5q0 79 27.5 147.5t75.5 117.5t114.5 77.5t143.5 28.5q71 0 132.5 -23.5t106 -64.5
t70.5 -97t26 -121q0 -47 -13.5 -87.5t-38 -70t-58 -46t-72.5 -16.5q-34 0 -58.5 11t-37.5 30q-25 -21 -52 -32t-54 -11zM279 208q0 -44 26 -72t66 -28q20 0 39 8t35 23q-1 9 0 19.5t3 21.5l20 99q-13 20 -35 31.5t-49 11.5q-43 0 -74 -34t-31 -80z" />
    <glyph glyph-name="at.cap" horiz-adv-x="788" 
d="M43 0zM355 183q-61 0 -102.5 44t-41.5 108q0 37 13.5 70t36.5 57.5t54.5 38.5t67.5 14q28 0 54 -9.5t44 -27.5l5 23h70l-41 -196q-7 -32 6.5 -49.5t44.5 -17.5q50 0 83.5 46.5t33.5 117.5q0 55 -21.5 102.5t-59 82.5t-89 54.5t-111.5 19.5q-64 0 -119.5 -24.5t-96 -67
t-64 -100.5t-23.5 -125q0 -66 23 -121.5t64 -96t98 -63t124 -22.5q46 0 88.5 10.5t79.5 29.5l21 -47q-45 -22 -93 -33.5t-98 -11.5q-78 0 -144.5 26.5t-115 73.5t-76 111.5t-27.5 139.5q0 79 27.5 147.5t75.5 117.5t114.5 77.5t143.5 28.5q71 0 132.5 -23.5t106 -64.5
t70.5 -97t26 -121q0 -47 -13.5 -87.5t-38 -70t-58 -46t-72.5 -16.5q-34 0 -58.5 11t-37.5 30q-25 -21 -52 -32t-54 -11zM279 341q0 -44 26 -72t66 -28q20 0 39 8t35 23q-1 9 0 19.5t3 21.5l20 99q-13 20 -35 31.5t-49 11.5q-43 0 -74 -34t-31 -80z" />
    <glyph glyph-name="copyright" unicode="&#xa9;" horiz-adv-x="798" 
d="M41 350q0 76 27.5 142t75.5 114.5t114 76.5t141 28t140.5 -28t113.5 -76.5t76 -114.5t28 -142t-28 -142t-76 -114.5t-113.5 -76.5t-140.5 -28t-141 28t-114 76.5t-75.5 114.5t-27.5 142zM703 350q0 65 -24 121.5t-65 98.5t-96.5 66.5t-118.5 24.5t-118.5 -24.5
t-96.5 -66.5t-64.5 -98.5t-23.5 -121.5t23.5 -121.5t64.5 -98.5t96.5 -66.5t118.5 -24.5t118.5 24.5t96.5 66.5t65 98.5t24 121.5zM223 350q0 39 14.5 73.5t39.5 59.5t59 39.5t73 14.5q41 0 79 -16t65 -45l-46 -49q-20 22 -45 33.5t-52 11.5q-48 0 -80.5 -35.5t-32.5 -86.5
t32.5 -85.5t81.5 -34.5q27 0 50.5 10.5t44.5 32.5l45 -48q-28 -29 -65 -45t-77 -16q-39 0 -73 14.5t-59 39.5t-39.5 59t-14.5 73z" />
    <glyph glyph-name="registered" unicode="&#xae;" horiz-adv-x="488" 
d="M244 309q-42 0 -79 16t-64.5 43t-43 64t-15.5 80t15.5 80.5t43 64.5t64.5 43t79 16t79 -16t64 -43.5t43 -64.5t16 -80q0 -42 -16 -79.5t-43 -64.5t-64 -43t-79 -16zM243 347q70 0 115.5 47t45.5 118q0 72 -45.5 118.5t-115.5 46.5q-69 0 -114 -46.5t-45 -118.5
q0 -70 45 -117.5t114 -47.5zM175 419v188h79q30 0 47 -15.5t17 -42.5q0 -16 -9.5 -30.5t-25.5 -21.5l46 -78h-43l-40 69h-32v-69h-39zM247 576h-33v-58h33q14 0 22.5 8t8.5 21q0 14 -7.5 21.5t-23.5 7.5z" />
    <glyph glyph-name="trademark" unicode="&#x2122;" horiz-adv-x="681" 
d="M326 700h67l82 -167l82 167h67v-279h-52l2 213l-99 -194l-99 192l1 -211h-51v279zM30 700h248v-46h-97v-233h-54v233h-97v46z" />
    <glyph glyph-name="Euro" unicode="&#x20ac;" horiz-adv-x="781" 
d="M216 350q0 -9 0.5 -18t1.5 -18h235l-22 -59h-203q24 -84 87 -133t152 -49q62 0 116.5 25.5t87.5 70.5l68 -52q-47 -61 -117.5 -94.5t-154.5 -33.5q-128 0 -218.5 73.5t-118.5 192.5h-96v59h87q-1 9 -1 18v18q0 10 0.5 19.5t1.5 18.5h-88v59h97q14 59 44.5 108t74 83.5
t99.5 53.5t120 19q86 0 156 -32.5t116 -94.5l-70 -53q-34 46 -87 71t-116 25q-89 0 -152 -49t-87 -131h272l-22 -59h-261q-1 -9 -1.5 -18.5t-0.5 -19.5z" />
    <glyph glyph-name="dollar" unicode="$" horiz-adv-x="581" 
d="M257 -75v95q-70 6 -132.5 34t-108.5 77l56 68q38 -40 86 -65t99 -32v211l-43 9q-99 20 -141.5 60t-42.5 114q0 83 62.5 134t164.5 53v76h57v-78q59 -7 116 -28t107 -55l-46 -76q-46 30 -90 48.5t-87 25.5v-202l42 -8q106 -22 151.5 -62t45.5 -112q0 -84 -65.5 -136.5
t-173.5 -57.5v-93h-57zM245 406l12 -2v196q-60 -1 -97 -27t-37 -69t26 -64t96 -34zM324 303l-10 2v-206q63 4 102.5 33t39.5 73q0 42 -27 62.5t-105 35.5z" />
    <glyph glyph-name="cent" unicode="&#xa2;" horiz-adv-x="522" 
d="M267 -110v103q-49 6 -91.5 28t-73.5 56.5t-48.5 80.5t-17.5 97t17.5 96.5t48.5 80t73.5 57t91.5 28.5v102h55v-101q51 -4 98.5 -26t82.5 -58l-63 -68q-25 27 -55 43t-63 20v-349q32 4 61 19t56 42l60 -65q-35 -36 -81 -58t-96 -26v-102h-55zM135 255q0 -65 37.5 -112.5
t94.5 -59.5v344q-57 -12 -94.5 -60t-37.5 -112z" />
    <glyph glyph-name="sterling" unicode="&#xa3;" horiz-adv-x="629" 
d="M209 26q-50 11 -81 -4t-53 -58l-75 47q26 47 60.5 72t80.5 29q15 12 20.5 32t0.5 47l-20 110h-102v70h89l-10 57q-12 62 -1.5 114t39.5 89t75 57.5t106 20.5q93 0 153.5 -45t83.5 -132l-85 -26q-16 58 -54 89t-95 31q-76 0 -110.5 -48.5t-19.5 -134.5l13 -72h201v-70
h-188l15 -80q7 -37 1 -67t-24 -49l185 -40q48 -10 79 2.5t52 52.5l74 -45q-36 -63 -89.5 -85t-130.5 -5z" />
    <glyph glyph-name="yen" unicode="&#xa5;" horiz-adv-x="669" 
d="M99 212h182v64l-4 6h-178v60h138l-238 358h122l215 -330l216 330h116l-239 -358h141v-60h-181l-3 -5v-65h184v-60h-184v-152h-105v152h-182v60z" />
    <glyph glyph-name="numbersign" unicode="#" horiz-adv-x="711" 
d="M75 0l60 209h-105v74h126l38 134h-114v74h135l60 209h91l-60 -209h179l60 209h90l-60 -209h106v-74h-127l-38 -134h115v-74h-136l-60 -209h-90l60 209h-179l-60 -209h-91zM247 283h179l38 134h-179z" />
    <glyph glyph-name="zero" unicode="0" horiz-adv-x="671" 
d="M335 -10q-65 0 -119.5 26.5t-93 73.5t-60 113.5t-21.5 146.5t21.5 146.5t60 113.5t93 73.5t119.5 26.5t119.5 -26.5t93.5 -73.5t60.5 -113.5t21.5 -146.5t-21.5 -146.5t-60.5 -113.5t-93.5 -73.5t-119.5 -26.5zM335 78q90 0 143.5 73.5t53.5 198.5t-53.5 199t-143.5 74
t-143.5 -74t-53.5 -199t53.5 -198.5t143.5 -73.5z" />
    <glyph glyph-name="one" unicode="1" horiz-adv-x="314" 
d="M250 700v-700h-99v597l-126 -53v88l162 68h63z" />
    <glyph glyph-name="two" unicode="2" horiz-adv-x="555" 
d="M37 0v72l270 251q60 57 83.5 95t23.5 80q0 54 -41.5 89.5t-104.5 35.5q-51 0 -95 -20t-96 -66l-57 68q58 52 121 78t129 26q53 0 97.5 -15t76 -42.5t49.5 -65t18 -82.5q0 -60 -29.5 -111t-110.5 -126l-197 -182h348v-85h-485z" />
    <glyph glyph-name="three" unicode="3" horiz-adv-x="596" 
d="M550 193q0 -44 -20 -81.5t-55 -64.5t-84 -42t-106 -15q-78 0 -146.5 26.5t-118.5 76.5l67 63q44 -43 90.5 -61.5t106.5 -18.5q73 0 119 34t46 88q0 49 -43.5 80t-115.5 31h-61v81h53q61 0 102 35t41 87q0 48 -41.5 80t-102.5 32q-54 0 -97 -19t-89 -65l-67 64
q51 51 117 79t138 28q52 0 96.5 -14.5t76.5 -39.5t50 -60.5t18 -77.5q0 -53 -30.5 -95.5t-83.5 -67.5q63 -19 101.5 -62.5t38.5 -100.5z" />
    <glyph glyph-name="four" unicode="4" horiz-adv-x="641" 
d="M523 700v-438h85v-85h-85v-177h-99v177h-397v80l385 443h111zM145 262h279v321z" />
    <glyph glyph-name="five" unicode="5" horiz-adv-x="582" 
d="M64 346l17 354h427v-85h-345l-9 -202q34 12 68 18t71 6q113 0 183 -59.5t70 -154.5q0 -104 -74 -168.5t-193 -64.5q-73 0 -138 24t-116 70l61 68q47 -41 93 -59.5t102 -18.5q73 0 118.5 40t45.5 104q0 61 -48.5 99.5t-124.5 38.5q-37 0 -73.5 -7.5t-72.5 -22.5z" />
    <glyph glyph-name="six" unicode="6" horiz-adv-x="622" 
d="M334 -10q-65 0 -119.5 25t-93 69.5t-60 107t-21.5 137.5q0 86 24 157t67.5 120.5t105 76.5t136.5 27q50 0 99 -15t85 -40l-53 -74q-31 21 -65.5 31t-71.5 10q-103 0 -163.5 -73t-64.5 -204q37 43 91 67.5t113 24.5q53 0 97.5 -16.5t77 -45t50.5 -68.5t18 -87
q0 -50 -19 -92t-52.5 -72.5t-80 -48t-100.5 -17.5zM326 357q-51 0 -99 -24.5t-83 -69.5q13 -84 64 -136t123 -52q67 0 111.5 41t44.5 101q0 62 -45 101t-116 39z" />
    <glyph glyph-name="seven" unicode="7" horiz-adv-x="574" 
d="M96 0l348 613h-427v87h540v-75l-345 -625h-116z" />
    <glyph glyph-name="eight" unicode="8" horiz-adv-x="622" 
d="M311 -10q-59 0 -108.5 15t-85 41.5t-55.5 64t-20 81.5q0 58 38 104.5t99 68.5q-50 22 -80.5 64.5t-30.5 93.5q0 40 18.5 74.5t51 59.5t77 39.5t96.5 14.5q51 0 96 -14.5t77.5 -39.5t51 -59.5t18.5 -74.5q0 -51 -30.5 -93.5t-80.5 -64.5q61 -22 99 -68.5t38 -104.5
q0 -44 -20 -81.5t-55.5 -64t-85 -41.5t-108.5 -15zM311 404q61 0 103.5 33t42.5 80q0 48 -42 81t-104 33t-103.5 -33t-41.5 -81q0 -47 42 -80t103 -33zM311 71q72 0 121 36.5t49 90.5t-49 90t-121 36t-121 -36t-49 -90t49 -90.5t121 -36.5z" />
    <glyph glyph-name="nine" unicode="9" horiz-adv-x="622" 
d="M288 710q65 0 119.5 -25t93 -69.5t60 -107t21.5 -137.5q0 -86 -24 -157t-67.5 -120.5t-105 -76.5t-136.5 -27q-50 0 -99 15t-85 40l53 74q31 -21 65.5 -31t71.5 -10q103 0 163.5 73t64.5 204q-37 -43 -91 -67.5t-113 -24.5q-53 0 -97.5 16.5t-77 45t-50.5 68.5t-18 87
q0 50 19 92t52.5 72.5t80 48t100.5 17.5zM296 343q51 0 99 24.5t83 69.5q-13 84 -64 136t-123 52q-67 0 -111.5 -41t-44.5 -101q0 -62 45 -101t116 -39z" />
    <glyph glyph-name="uni2070" unicode="&#x2070;" horiz-adv-x="355" 
d="M25 345zM178 345q-69 0 -111 50t-42 130t42.5 130t110.5 50t110.5 -50t42.5 -130t-42.5 -130t-110.5 -50zM178 402q41 0 65 33t24 90t-24 90.5t-65 32.5q-40 1 -64.5 -32.5t-24.5 -90.5t24 -90t65 -33z" />
    <glyph glyph-name="onesuperior" unicode="&#xb9;" horiz-adv-x="177" 
d="M18 350zM151 700v-350h-65v283l-68 -28v57l92 38h41z" />
    <glyph glyph-name="twosuperior" unicode="&#xb2;" horiz-adv-x="297" 
d="M13 350zM26 350v47l138 123q24 23 34.5 39.5t10.5 34.5q0 24 -18.5 39.5t-46.5 15.5q-25 0 -46.5 -10.5t-47.5 -32.5l-37 43q31 28 64 42t69 14q56 0 91.5 -30t35.5 -77q0 -31 -15.5 -56.5t-52.5 -59.5l-86 -77h158v-55h-251z" />
    <glyph glyph-name="threesuperior" unicode="&#xb3;" horiz-adv-x="319" 
d="M17 345zM293 447q0 -44 -39.5 -73t-99.5 -29q-40 0 -76.5 14.5t-60.5 39.5l44 41q21 -22 42 -30.5t51 -8.5q33 0 53 14.5t20 36.5q0 20 -18.5 32t-49.5 12h-32v53h25q28 0 46 15t19 37q-1 21 -18.5 34t-45.5 13q-27 0 -47 -9t-42 -31l-44 40q25 27 60.5 42.5t74.5 15.5
q55 0 91.5 -27.5t35.5 -70.5q1 -26 -13.5 -47.5t-39.5 -34.5q29 -10 46.5 -30.5t17.5 -48.5z" />
    <glyph glyph-name="uni2074" unicode="&#x2074;" horiz-adv-x="341" 
d="M21 350zM284 700v-212h43v-55h-43v-83h-65v83h-198v53l188 214h75zM96 488h123v139z" />
    <glyph glyph-name="uni2075" unicode="&#x2075;" horiz-adv-x="315" 
d="M20 345zM39 518l8 182h225v-55h-171l-4 -85q16 6 32 8.5t33 2.5q58 0 94 -30t36 -79q0 -52 -39.5 -84.5t-102.5 -32.5q-37 0 -70.5 12t-59.5 35l40 45q22 -19 44 -28t48 -9q33 0 53 16.5t20 44.5q0 25 -21.5 41.5t-55.5 16.5q-16 0 -33 -3.5t-33 -10.5z" />
    <glyph glyph-name="uni2076" unicode="&#x2076;" horiz-adv-x="331" 
d="M24 345zM178 345q-68 0 -111 48t-43 124q0 84 47.5 136t125.5 52q27 0 54.5 -9t46.5 -24l-37 -47q-15 11 -32.5 17t-36.5 6q-47 0 -73.5 -32t-29.5 -90q18 19 43.5 30.5t53.5 11.5q54 0 88 -30.5t34 -77.5q0 -49 -37 -82t-93 -33zM175 517q-23 0 -44.5 -10.5t-37.5 -30.5
q8 -34 30 -55t53 -21q29 0 48.5 17t19.5 42t-19 41.5t-50 16.5z" />
    <glyph glyph-name="uni2077" unicode="&#x2077;" horiz-adv-x="307" 
d="M17 350zM58 350l163 293h-204v57h279v-48l-161 -302h-77z" />
    <glyph glyph-name="uni2078" unicode="&#x2078;" horiz-adv-x="331" 
d="M26 345zM166 345q-62 0 -101 28.5t-39 74.5q0 28 17 49.5t45 32.5q-22 12 -36 32.5t-14 45.5q0 41 36.5 69.5t90.5 28.5t91 -28.5t37 -69.5q0 -25 -14 -45.5t-36 -32.5q28 -10 44.5 -32t16.5 -50q0 -46 -39 -74.5t-99 -28.5zM166 555q26 0 44 14t18 35t-18 35t-44 14
q-28 0 -46 -14t-18 -35t18 -35t46 -14zM166 398q31 0 52 15.5t21 37.5q0 24 -21 39t-52 15q-32 0 -53 -15t-21 -39q0 -22 21 -37.5t53 -15.5z" />
    <glyph glyph-name="uni2079" unicode="&#x2079;" horiz-adv-x="331" 
d="M23 345zM153 705q68 0 111 -48t43 -124q0 -84 -47.5 -136t-125.5 -52q-27 0 -54.5 9t-46.5 24l37 47q15 -11 32.5 -17t36.5 -6q47 0 73.5 32t29.5 90q-18 -19 -43.5 -30.5t-53.5 -11.5q-54 0 -88 30.5t-34 77.5q0 49 37 82t93 33zM156 533q23 0 44.5 10.5t37.5 30.5
q-8 34 -30 55t-53 21q-29 0 -48.5 -17t-19.5 -42t19 -41.5t50 -16.5z" />
    <glyph glyph-name="uni2080" unicode="&#x2080;" horiz-adv-x="355" 
d="M178 -5q-69 0 -111 50t-42 130t42.5 130t110.5 50t110.5 -50t42.5 -130t-42.5 -130t-110.5 -50zM178 52q41 0 65 33t24 90t-24 90.5t-65 32.5q-40 1 -64.5 -32.5t-24.5 -90.5t24 -90t65 -33z" />
    <glyph glyph-name="uni2081" unicode="&#x2081;" horiz-adv-x="177" 
d="M151 350v-350h-65v283l-68 -28v57l92 38h41z" />
    <glyph glyph-name="uni2082" unicode="&#x2082;" horiz-adv-x="297" 
d="M26 0v47l138 123q24 23 34.5 39.5t10.5 34.5q0 24 -18.5 39.5t-46.5 15.5q-25 0 -46.5 -10.5t-47.5 -32.5l-37 43q31 28 64 42t69 14q56 0 91.5 -30t35.5 -77q0 -31 -15.5 -56.5t-52.5 -59.5l-86 -77h158v-55h-251z" />
    <glyph glyph-name="uni2083" unicode="&#x2083;" horiz-adv-x="319" 
d="M293 97q0 -44 -39.5 -73t-99.5 -29q-40 0 -76.5 14.5t-60.5 39.5l44 41q21 -22 42 -30.5t51 -8.5q33 0 53 14.5t20 36.5q0 20 -18.5 32t-49.5 12h-32v53h25q28 0 46 15t19 37q-1 21 -18.5 34t-45.5 13q-27 0 -47 -9t-42 -31l-44 40q25 27 60.5 42.5t74.5 15.5
q55 0 91.5 -27.5t35.5 -70.5q1 -26 -13.5 -47.5t-39.5 -34.5q29 -10 46.5 -30.5t17.5 -48.5z" />
    <glyph glyph-name="uni2084" unicode="&#x2084;" horiz-adv-x="341" 
d="M284 350v-212h43v-55h-43v-83h-65v83h-198v53l188 214h75zM96 138h123v139z" />
    <glyph glyph-name="uni2085" unicode="&#x2085;" horiz-adv-x="315" 
d="M39 168l8 182h225v-55h-171l-4 -85q16 6 32 8.5t33 2.5q58 0 94 -30t36 -79q0 -52 -39.5 -84.5t-102.5 -32.5q-37 0 -70.5 12t-59.5 35l40 45q22 -19 44 -28t48 -9q33 0 53 16.5t20 44.5q0 25 -21.5 41.5t-55.5 16.5q-16 0 -33 -3.5t-33 -10.5z" />
    <glyph glyph-name="uni2086" unicode="&#x2086;" horiz-adv-x="331" 
d="M178 -5q-68 0 -111 48t-43 124q0 84 47.5 136t125.5 52q27 0 54.5 -9t46.5 -24l-37 -47q-15 11 -32.5 17t-36.5 6q-47 0 -73.5 -32t-29.5 -90q18 19 43.5 30.5t53.5 11.5q54 0 88 -30.5t34 -77.5q0 -49 -37 -82t-93 -33zM175 167q-23 0 -44.5 -10.5t-37.5 -30.5
q8 -34 30 -55t53 -21q29 0 48.5 17t19.5 42t-19 41.5t-50 16.5z" />
    <glyph glyph-name="uni2087" unicode="&#x2087;" horiz-adv-x="307" 
d="M58 0l163 293h-204v57h279v-48l-161 -302h-77z" />
    <glyph glyph-name="uni2088" unicode="&#x2088;" horiz-adv-x="331" 
d="M166 -5q-62 0 -101 28.5t-39 74.5q0 28 17 49.5t45 32.5q-22 12 -36 32.5t-14 45.5q0 41 36.5 69.5t90.5 28.5t91 -28.5t37 -69.5q0 -25 -14 -45.5t-36 -32.5q28 -10 44.5 -32t16.5 -50q0 -46 -39 -74.5t-99 -28.5zM166 205q26 0 44 14t18 35t-18 35t-44 14
q-28 0 -46 -14t-18 -35t18 -35t46 -14zM166 48q31 0 52 15.5t21 37.5q0 24 -21 39t-52 15q-32 0 -53 -15t-21 -39q0 -22 21 -37.5t53 -15.5z" />
    <glyph glyph-name="uni2089" unicode="&#x2089;" horiz-adv-x="331" 
d="M153 355q68 0 111 -48t43 -124q0 -84 -47.5 -136t-125.5 -52q-27 0 -54.5 9t-46.5 24l37 47q15 -11 32.5 -17t36.5 -6q47 0 73.5 32t29.5 90q-18 -19 -43.5 -30.5t-53.5 -11.5q-54 0 -88 30.5t-34 77.5q0 49 37 82t93 33zM156 183q23 0 44.5 10.5t37.5 30.5q-8 34 -30 55
t-53 21q-29 0 -48.5 -17t-19.5 -42t19 -41.5t50 -16.5z" />
    <glyph glyph-name="fraction" unicode="&#x2044;" horiz-adv-x="578" 
d="M103 0h-78l394 700h79z" />
    <glyph glyph-name="onehalf" unicode="&#xbd;" horiz-adv-x="660" 
d="M18 0zM18 350zM151 700v-350h-65v283l-68 -28v57l92 38h41zM122 0h-78l394 700h79zM388 0v47l138 123q24 23 34.5 39.5t10.5 34.5q0 24 -18.5 39.5t-46.5 15.5q-25 0 -46.5 -10.5t-47.5 -32.5l-37 43q31 28 64 42t69 14q56 0 91.5 -30t35.5 -77q0 -31 -15.5 -56.5
t-52.5 -59.5l-86 -77h158v-55h-251z" />
    <glyph glyph-name="onequarter" unicode="&#xbc;" horiz-adv-x="629" 
d="M18 0zM572 350v-212h43v-55h-43v-83h-65v83h-198v53l188 214h75zM384 138h123v139zM18 350zM151 700v-350h-65v283l-68 -28v57l92 38h41zM122 0h-78l394 700h79z" />
    <glyph glyph-name="threequarters" unicode="&#xbe;" horiz-adv-x="722" 
d="M17 0zM17 345zM293 447q0 -44 -39.5 -73t-99.5 -29q-40 0 -76.5 14.5t-60.5 39.5l44 41q21 -22 42 -30.5t51 -8.5q33 0 53 14.5t20 36.5q0 20 -18.5 32t-49.5 12h-32v53h25q28 0 46 15t19 37q-1 21 -18.5 34t-45.5 13q-27 0 -47 -9t-42 -31l-44 40q25 27 60.5 42.5
t74.5 15.5q55 0 91.5 -27.5t35.5 -70.5q1 -26 -13.5 -47.5t-39.5 -34.5q29 -10 46.5 -30.5t17.5 -48.5zM665 350v-212h43v-55h-43v-83h-65v83h-198v53l188 214h75zM477 138h123v139zM216 0h-78l394 700h79z" />
    <glyph glyph-name="percent" unicode="%" horiz-adv-x="761" 
d="M25 0zM25 345zM178 345q-69 0 -111 50t-42 130t42.5 130t110.5 50t110.5 -50t42.5 -130t-42.5 -130t-110.5 -50zM178 402q41 0 65 33t24 90t-24 90.5t-65 32.5q-40 1 -64.5 -32.5t-24.5 -90.5t24 -90t65 -33zM220 0h-78l394 700h79zM584 -5q-69 0 -111 50t-42 130
t42.5 130t110.5 50t110.5 -50t42.5 -130t-42.5 -130t-110.5 -50zM584 52q41 0 65 33t24 90t-24 90.5t-65 32.5q-40 1 -64.5 -32.5t-24.5 -90.5t24 -90t65 -33z" />
    <glyph glyph-name="perthousand" unicode="&#x2030;" horiz-adv-x="1110" 
d="M25 0zM25 345zM178 345q-69 0 -111 50t-42 130t42.5 130t110.5 50t110.5 -50t42.5 -130t-42.5 -130t-110.5 -50zM178 402q41 0 65 33t24 90t-24 90.5t-65 32.5q-40 1 -64.5 -32.5t-24.5 -90.5t24 -90t65 -33zM220 0h-78l394 700h79zM584 -5q-69 0 -111 50t-42 130
t42.5 130t110.5 50t110.5 -50t42.5 -130t-42.5 -130t-110.5 -50zM584 52q41 0 65 33t24 90t-24 90.5t-65 32.5q-40 1 -64.5 -32.5t-24.5 -90.5t24 -90t65 -33zM933 -5q-69 0 -111 50t-42 130t42.5 130t110.5 50t110.5 -50t42.5 -130t-42.5 -130t-110.5 -50zM933 52
q41 0 65 33t24 90t-24 90.5t-65 32.5q-40 1 -64.5 -32.5t-24.5 -90.5t24 -90t65 -33z" />
    <glyph glyph-name="plus" unicode="+" horiz-adv-x="535" 
d="M308 139h-81v179h-176v80h176v176h81v-176h176v-80h-176v-179z" />
    <glyph glyph-name="minus" unicode="&#x2212;" horiz-adv-x="535" 
d="M484 398v-80h-433v80h433z" />
    <glyph glyph-name="plusminus" unicode="&#xb1;" horiz-adv-x="535" 
d="M308 183h-81v169h-176v80h176v166h81v-166h176v-80h-176v-169zM484 79v-80h-433v80h433z" />
    <glyph glyph-name="multiply" unicode="&#xd7;" horiz-adv-x="543" 
d="M118 154l-50 50l153 155l-153 155l51 51l153 -155l153 155l49 -50l-153 -155l154 -156l-51 -51l-153 156z" />
    <glyph glyph-name="divide" unicode="&#xf7;" horiz-adv-x="535" 
d="M268 496q-26 0 -45 18.5t-19 44.5t19 44.5t45 18.5t44.5 -18.5t18.5 -44.5t-18.5 -44.5t-44.5 -18.5zM51 318v80h433v-80h-433zM268 93q-26 0 -45 19t-19 45t19 44.5t45 18.5t44.5 -18.5t18.5 -44.5t-18.5 -45t-44.5 -19z" />
    <glyph glyph-name="equal" unicode="=" horiz-adv-x="538" 
d="M51 228zM484 308v-80h-433v80h433zM484 482v-80h-433v80h433z" />
    <glyph glyph-name="notequal" unicode="&#x2260;" horiz-adv-x="535" 
d="M48 121l80 108h-77v79h136l70 94h-206v79h265l80 108h89l-80 -108h79v-79h-138l-69 -94h207v-79h-266l-80 -108h-90z" />
    <glyph glyph-name="less" unicode="&#x3c;" horiz-adv-x="515" 
d="M393 85l-328 263l329 263l50 -60l-260 -202l261 -202z" />
    <glyph glyph-name="greater" unicode="&#x3e;" horiz-adv-x="515" 
d="M122 612l328 -263l-329 -263l-50 60l260 202l-261 202z" />
    <glyph glyph-name="degree" unicode="&#xb0;" horiz-adv-x="383" 
d="M192 422q-60 0 -102.5 42.5t-42.5 103.5q0 58 42.5 100t102.5 42q58 0 100.5 -42t42.5 -100q0 -60 -42 -103t-101 -43zM192 481q34 0 58 25.5t24 61.5q0 34 -24.5 58.5t-57.5 24.5q-34 0 -59 -24.5t-25 -58.5q0 -36 24.5 -61.5t59.5 -25.5z" />
    <glyph glyph-name="uni00A4" unicode="&#xa4;" horiz-adv-x="682" 
d="M88 57l-50 50l94 95q-25 32 -39 73t-14 87t14 86.5t39 73.5l-94 95l51 52l95 -96q33 25 73 38.5t85 13.5q44 0 84.5 -14t72.5 -39l96 96l49 -50l-95 -95q25 -33 39.5 -74t14.5 -87t-13.5 -86.5t-38.5 -72.5l94 -96l-50 -51l-96 95q-32 -25 -72.5 -38.5t-84.5 -13.5
q-46 0 -86.5 14t-73.5 39zM342 185q69 0 117.5 51.5t48.5 125.5t-48.5 125t-117.5 51q-70 0 -118.5 -51t-48.5 -125t48 -125.5t119 -51.5z" />
    <glyph glyph-name="uni00A6" unicode="&#xa6;" horiz-adv-x="295" 
d="M194 286h-93v414h93v-414zM101 -208v414h93v-414h-93z" />
    <glyph glyph-name="uni00AC" unicode="&#xac;" horiz-adv-x="552" 
d="M46 326h460v-326h-94v239h-366v87z" />
    <glyph glyph-name="uni00AD" unicode="&#xad;" horiz-adv-x="452" 
d="M46 240zM46 326h360v-86h-360v86z" />
    <glyph glyph-name="uni00B5" unicode="&#xb5;" 
d="M156 509v-302q0 -60 34.5 -95t92.5 -35q40 0 72.5 17.5t52.5 49.5v365h100v-509h-100v52q-29 -31 -67.5 -46.5t-84.5 -15.5q-29 0 -54.5 7.5t-45.5 20.5v-225h-99v716h99z" />
    <glyph glyph-name="uni02BB" unicode="&#x2bb;" horiz-adv-x="216" 
d="M129 495h-106l92 233h76z" />
    <glyph glyph-name="uni02BC" unicode="&#x2bc;" horiz-adv-x="216" 
d="M37 496zM99 729h106l-92 -233h-76z" />
    <glyph glyph-name="uni2032" unicode="&#x2032;" horiz-adv-x="216" 
d="M37 496zM99 729h106l-92 -233h-76z" />
    <glyph glyph-name="uni2033" unicode="&#x2033;" horiz-adv-x="374" 
d="M37 496zM258 729h106l-92 -233h-76zM99 729h106l-92 -233h-76z" />
    <glyph glyph-name="uni2191" unicode="&#x2191;" horiz-adv-x="550" 
d="M227 0v570l-155 -200l-61 51l263 329l263 -329l-61 -51l-156 202v-572h-93z" />
    <glyph glyph-name="uni2193" unicode="&#x2193;" horiz-adv-x="550" 
d="M321 700v-570l155 200l61 -51l-263 -329l-263 329l61 51l156 -202v572h93z" />
    <glyph glyph-name="uni2215" unicode="&#x2215;" horiz-adv-x="578" 
d="M103 0h-78l394 700h79z" />
    <glyph glyph-name="uniFEFF" unicode="&#xfeff;" horiz-adv-x="0" 
 />
    <glyph glyph-name="uniFFFD" unicode="&#xfffd;" horiz-adv-x="990" 
d="M495 -145l-495 495l495 495l495 -495zM590 340q53 36 73.5 65.5t20.5 71.5q0 61 -52.5 102.5t-130.5 41.5q-69 0 -123.5 -35t-75.5 -92l98 -37q11 29 37.5 46t59.5 17q30 0 49.5 -14.5t19.5 -36.5q0 -12 -9.5 -25t-28.5 -26l-40 -30q-35 -27 -47 -56t-9 -81h101
q-1 28 7.5 44.5t30.5 31.5zM483 219q-29 0 -49.5 -21t-20.5 -49t20.5 -49t49.5 -21q28 0 48.5 21t20.5 49t-20.5 49t-48.5 21z" />
    <glyph glyph-name=".ttfautohint" horiz-adv-x="990" 
d="M0 0z" />
    </font>
</defs>
</svg>
