<?xml version="1.0" standalone="no"?>
<!DOCTYPE svg PUBLIC "-//W3C//DTD SVG 1.1//EN" "http://www.w3.org/Graphics/SVG/1.1/DTD/svg11.dtd" >
<!--
2013-9-30: Created.
-->
<svg>
<metadata>
Created by iconfont
</metadata>
<defs>

<font id="iconfont" horiz-adv-x="1024" >
  <font-face
    font-family="iconfont"
    font-weight="500"
    font-stretch="normal"
    units-per-em="1024"
    ascent="896"
    descent="-128"
  />
    <missing-glyph />
    
    <glyph glyph-name="jiantou-up-kuai" unicode="&#59607;" d="M576 384v-512H448V384H0l512 512 512-512z"  horiz-adv-x="1024" />

    
    <glyph glyph-name="zplay-en-white" unicode="&#58909;" d="M1089.536 667.648C990.208 815.104 789.504 925.696 566.272 871.424c-73.728-18.432-128-44.032-190.464-89.088-194.56 33.792-328.704-83.968-361.472-143.36-28.672-53.248 119.808-34.816 177.152-48.128 15.36-4.096 19.456-10.24 16.384-21.504C67.584 59.392 509.952-111.616 620.544-112.64 514.048-52.224 412.672 77.824 449.536 261.12c15.36 79.872 61.44 142.336 110.592 185.344 8.192 6.144 11.264 10.24 18.432 14.336-13.312-84.992-105.472-148.48-89.088-162.816 14.336-11.264 86.016 18.432 150.528 55.296 83.968 48.128 77.824 109.568 168.96 138.24h6.144c95.232-1.024 155.648 58.368 239.616 69.632 60.416 9.216 154.624 13.312 147.456 38.912-8.192 28.672-64.512 48.128-112.64 67.584zM1068.032 332.8c-56.32 0-103.424-46.08-103.424-103.424v-9.216H962.56c-3.072 37.888-35.84 67.584-74.752 67.584-43.008 0-75.776-34.816-75.776-77.824 0-9.216 3.072-18.432 5.12-26.624 6.144-16.384 9.216-34.816 9.216-53.248 0-84.992-69.632-154.624-154.624-154.624-48.128 0-90.112 21.504-118.784 55.296 61.44-86.016 162.816-143.36 277.504-143.36 184.32 0 333.824 145.408 340.992 328.704 0 4.096 1.024 9.216 1.024 13.312-1.024 58.368-48.128 103.424-104.448 103.424z"  horiz-adv-x="1202" />

    
    <glyph glyph-name="save" unicode="&#58907;" d="M519.68 627.2h87.04a12.8 12.8 0 0 1 12.8 12.8V783.36h-112.64v-143.36a12.8 12.8 0 0 1 12.8-12.8zM831.14752 783.36H709.12v-200.80384c0-14.13888-11.46112-25.6-25.6-25.6H315.73248c-14.13888 0-25.6 11.46112-25.6 25.6V783.36H165.54752c-42.41664 0-76.8-34.38336-76.8-76.8v-668.16c0-42.24 34.56-76.8 76.8-76.8h665.6c42.24 0 76.8 34.56 76.8 76.8V706.56c0 42.24-34.56 76.8-76.8 76.8zM764.16 145.92c0-28.27776-22.92224-51.2-51.2-51.2H283.73248c-28.27776 0-51.2 22.92224-51.2 51.2v213.86752c0 28.27776 22.92224 51.2 51.2 51.2H712.96c28.27776 0 51.2-22.92224 51.2-51.2V145.92z"  horiz-adv-x="1024" />

    
    <glyph glyph-name="shouyediqiu" unicode="&#59094;" d="M859.91424 350.24896a30.72 30.72 0 0 0 24.576-35.81952C851.43552 136.25343999999996 695.33696 5.1200000000000045 512 5.1200000000000045a378.75712 378.75712 0 0 0-333.47584 198.90176 30.72 30.72 0 0 0 54.04672 29.22496A317.31712 317.31712 0 0 1 512 66.55999999999995c153.6 0 284.38528 109.8752 312.09472 259.072a30.72 30.72 0 0 0 35.81952 24.61696zM512 762.88c184.95488 0 342.016-133.4272 373.28896-313.69216a30.72 30.72 0 0 0-60.53888-10.50624C798.55616 589.6192 666.95168 701.44 512 701.44 336.6912 701.44 194.56 559.3088 194.56 384c0-19.2512 1.69984-38.25664 5.07904-56.89344a30.72 30.72 0 1 0-60.45696-10.93632A380.928 380.928 0 0 0 133.12 384C133.12 593.24416 302.75584 762.88 512 762.88zM631.68512 610.34496a256.79872 256.79872 0 0 0 119.33696-134.49216 30.72 30.72 0 0 0-57.344-22.03648A195.35872 195.35872 0 0 1 602.9312 556.0319999999999a30.72 30.72 0 0 0 28.75392 54.29248zM512 640a30.72 30.72 0 0 0 0-61.44c-18.14528 0-35.92192-2.4576-53.00224-7.29088a30.72 30.72 0 1 0-16.71168 59.12576c22.528 6.3488 45.91616 9.60512 69.71392 9.60512zM64.9216 377.91744000000006a30.72 30.72 0 0 0 52.40832-32.11264c-7.7824-12.65664-10.36288-23.51104-8.704-32.93184 11.32544-64.24576 202.77248-99.40992 426.496-59.96544 223.70304 39.44448 391.5776 137.97376 380.25216 202.21952-1.536 8.78592-6.98368 17.44896-17.16224 26.112a30.72 30.72 0 1 0 39.81312 46.7968c20.48-17.42848 33.66912-38.42048 37.86752-62.2592 20.0704-113.95072-174.85824-228.37248-430.10048-273.38752l-17.16224-2.88768c-247.99232-40.2432-460.86144 1.29024-480.52224 112.70144-4.44416 25.31328 1.69984 51.01568 16.83456 75.71456z"  horiz-adv-x="1024" />

    
    <glyph glyph-name="chartnew" unicode="&#59084;" d="M960 128 960 448l-64 0 0-320-64 0 0-64L192 64l0 64L128 128 128 640l64 0L192 704l256 0L448 768 192 768 192 832 0 832l0-192 64 0 0-512L0 128l0-192 192 0 0 64 640 0 0-64 192 0 0 192L960 128zM64 768l64 0 0-64L64 704 64 768zM64 0l0 64 64 0 0-64L64 0zM960 0l-64 0 0 64 64 0L960 0zM256 128 256 640l128 0 0-512L256 128zM448 448l128 0 0-320L448 128 448 448zM640 256l128 0 0-128-128 0L640 256zM512 608C512 625.664 526.336 640 544 640L704 640 704 800C704 817.664 718.336 832 736 832S768 817.664 768 800L768 640l160 0C945.664 640 960 625.664 960 608S945.664 576 928 576L768 576l0-160C768 398.336 753.664 384 736 384S704 398.336 704 416L704 576 544 576C526.336 576 512 590.336 512 608z"  horiz-adv-x="1024" />

    
    <glyph glyph-name="currency" unicode="&#59114;" d="M888.123077 681.353846H135.876923c-47.261538 0-86.646154-39.384615-86.646154-86.646154v-419.446154c0-47.261538 39.384615-86.646154 86.646154-86.646153h752.246154c47.261538 0 86.646154 39.384615 86.646154 86.646153V592.738462c0 49.230769-39.384615 88.615385-86.646154 88.615384zM236.307692 175.261538c0 57.107692-45.292308 100.430769-100.430769 100.43077v216.615384c57.107692 0 100.430769 45.292308 100.430769 100.43077h551.384616c0-57.107692 45.292308-100.430769 100.430769-100.43077v-216.615384c-57.107692 0-100.430769-45.292308-100.430769-100.43077H236.307692zM512 391.876923m-143.753846 0a143.753846 143.753846 0 1 1 287.507692 0 143.753846 143.753846 0 1 1-287.507692 0Z"  horiz-adv-x="1024" />

    
    <glyph glyph-name="download" unicode="&#58921;" d="M213.333333 42.666667h597.333334v85.333333H213.333333m597.333334 384h-170.666667V768H384v-256H213.333333l298.666667-298.666667 298.666667 298.666667z"  horiz-adv-x="1024" />

    
    <glyph glyph-name="chart-bar-4" unicode="&#59494;" d="M341.333333 341.333333v-256a42.666667 42.666667 0 0 0-42.666666-42.666666H213.333333a42.666667 42.666667 0 0 0-42.666666 42.666666v256a42.666667 42.666667 0 0 0 42.666666 42.666667h85.333334a42.666667 42.666667 0 0 0 42.666666-42.666667z m213.333334 384h-85.333334a42.666667 42.666667 0 0 1-42.666666-42.666666v-597.333334a42.666667 42.666667 0 0 1 42.666666-42.666666h85.333334a42.666667 42.666667 0 0 1 42.666666 42.666666V682.666667a42.666667 42.666667 0 0 1-42.666666 42.666666z m256-170.666666h-85.333334a42.666667 42.666667 0 0 1-42.666666-42.666667v-426.666667a42.666667 42.666667 0 0 1 42.666666-42.666666h85.333334a42.666667 42.666667 0 0 1 42.666666 42.666666V512a42.666667 42.666667 0 0 1-42.666666 42.666667z"  horiz-adv-x="1024" />

    
    <glyph glyph-name="remove" unicode="&#58965;" d="M910.222222 839.111111h-199.111111l-56.888889 56.888889h-284.444444l-56.888889-56.888889H113.777778v-113.777778h796.444444V839.111111zM170.666667-14.222222c0-62.577778 51.2-113.777778 113.777777-113.777778h455.111112c62.577778 0 113.777778 51.2 113.777777 113.777778V668.444444H170.666667v-682.666666z"  horiz-adv-x="1024" />

    
    <glyph glyph-name="ic_error" unicode="&#59612;" d="M512 901.81530905C226.16594963 901.81530905-5.81530905 670.09295762-5.81530905 384s231.98125868-517.81530905 517.81530905-517.81530905 517.81530905 231.72235022 517.81530905 517.81530905S797.83405037 901.81530905 512 901.81530905z m51.78153127-776.72296297h-103.56306254v103.56306133h103.56306254v-103.56306133z m0 207.12612265h-103.56306254V642.90765392h103.56306254v-310.68918519z"  horiz-adv-x="1024" />

    
    <glyph glyph-name="circle-launch" unicode="&#59600;" d="M377.263158 211.159579L339.159579 249.263158H188.631579a26.947368 26.947368 0 0 0-26.085053 33.630316A241.610105 241.610105 0 0 0 402.000842 464.842105c11.533474 16.222316 24.198737 31.851789 37.941895 46.780632a438.595368 438.595368 0 0 0 287.097263 114.795789 26.947368 26.947368 0 0 0 27.486316-27.486315 439.511579 439.511579 0 0 0-116.466527-288.714106 461.824 461.824 0 0 0-45.163789-36.594526 241.879579 241.879579 0 0 0-182.002526-239.130947A26.947368 26.947368 0 0 0 377.263158 60.631579v150.528z m53.894737-10.725053v-101.645473a188.200421 188.200421 0 0 1 105.525894 140.665263A461.824 461.824 0 0 0 431.157895 200.380632zM328.488421 303.157895a461.931789 461.931789 0 0 0 39.289263 105.633684A188.092632 188.092632 0 0 1 226.789053 303.157895h101.699368z m149.450105 170.415158a411.270737 411.270737 0 0 1-98.304-188.577685l33.414737-33.414736a406.528 406.528 0 0 1 186.853053 96.687157 384.754526 384.754526 0 0 1 99.058526 222.693053 383.191579 383.191579 0 0 1-220.968421-97.387789zM512-128a512 512 0 1 0 0 1024 512 512 0 0 0 0-1024z m0 53.894737a458.105263 458.105263 0 1 1 0 916.210526 458.105263 458.105263 0 0 1 0-916.210526z"  horiz-adv-x="1024" />

    
    <glyph glyph-name="tubiao-S1" unicode="&#58906;" d="M512 384m-512 0a512 512 0 1 1 1024 0 512 512 0 1 1-1024 0ZM794.624 232.448c0-69.632-28.672-126.976-86.016-163.84-49.152-36.864-114.688-53.248-184.32-53.248-81.92 0-151.552 20.48-204.8 65.536-57.344 49.152-90.112 114.688-94.208 196.608h208.896c-4.096-61.44 24.576-94.208 86.016-94.208 53.248 0 77.824 16.384 77.824 45.056 0 16.384-16.384 36.864-45.056 53.248-12.288 8.192-53.248 28.672-122.88 61.44-114.688 57.344-172.032 126.976-172.032 208.896 0 65.536 28.672 118.784 81.92 155.648 49.152 32.768 106.496 49.152 172.032 49.152 73.728 0 135.168-16.384 184.32-53.248 57.344-40.96 86.016-98.304 90.112-172.032h-204.8c-4.096 45.056-24.576 65.536-61.44 65.536-40.96 0-61.44-12.288-61.44-40.96 0-12.288 20.48-28.672 69.632-53.248l90.112-45.056c118.784-53.248 176.128-131.072 176.128-225.28z"  horiz-adv-x="1024" />

    
    <glyph glyph-name="tubiao-B1" unicode="&#58904;" d="M512 384m-512 0a512 512 0 1 1 1024 0 512 512 0 1 1-1024 0ZM823.296 220.16c0-57.344-20.48-106.496-57.344-139.264-36.864-36.864-86.016-53.248-143.36-53.248H270.336c4.096 12.288 4.096 28.672 4.096 40.96V687.104c0 8.192 0 24.576-4.096 40.96h290.816c65.536 0 122.88-12.288 163.84-40.96 53.248-32.768 81.92-77.824 81.92-143.36 0-69.632-28.672-118.784-81.92-155.648 61.44-32.768 98.304-90.112 98.304-167.936z m-217.088 299.008c0 28.672-24.576 45.056-69.632 45.056h-81.92v-94.208h81.92c16.384 0 32.768 4.096 45.056 12.288 16.384 12.288 24.576 24.576 24.576 36.864z m24.576-270.336c0 16.384-8.192 32.768-20.48 45.056-16.384 12.288-32.768 16.384-49.152 16.384h-102.4v-118.784h102.4c20.48 0 36.864 4.096 49.152 16.384s20.48 24.576 20.48 40.96z"  horiz-adv-x="1024" />

    
    <glyph glyph-name="wangpingdengji" unicode="&#59115;" d="M435.2 409.6h153.6L512 569.6zM512 896C230.4 896 0 665.6 0 384s230.4-512 512-512 512 230.4 512 512-230.4 512-512 512z m243.2-844.8l-70.4 147.2H339.2l-70.4-147.2c-64 51.2-115.2 115.2-147.2 192l249.6 537.6c44.8 12.8 89.6 19.2 140.8 19.2 51.2 0 96-6.4 140.8-25.6l249.6-537.6c-25.6-70.4-76.8-140.8-147.2-185.6z"  horiz-adv-x="1024" />

    
    <glyph glyph-name="Nodataforalldatalists" unicode="&#59180;" d="M1275.345455 791.738182h-0.037237a39.098182 39.098182 0 1 0-0.018618 78.196363 39.098182 39.098182 0 0 0 0.055855-78.196363m0 104.261818a65.163636 65.163636 0 1 1 0-130.327273 65.163636 65.163636 0 0 1 0 130.327273M288.581818 326.283636h-0.037236a39.098182 39.098182 0 1 0-0.037237 78.196364 39.098182 39.098182 0 0 0 0.074473-78.196364m0 104.261819a65.163636 65.163636 0 1 1 0-130.327273 65.163636 65.163636 0 0 1 0 130.327273M363.054545 802.909091a13.032727 13.032727 0 0 0 13.032728-13.032727v-39.098182h39.098182a13.032727 13.032727 0 0 0 0-26.065455h-39.098182v-39.098182a13.032727 13.032727 0 0 0-26.065455 0V724.712727h-39.098182a13.032727 13.032727 0 0 0 0 26.065455h39.098182V789.876364a13.032727 13.032727 0 0 0 13.032727 13.032727M1541.026909 258.718255a14.596655 14.596655 0 0 0 0-20.628946L1510.064873 207.127273l30.962036-30.962037a14.596655 14.596655 0 1 0-20.647564-20.628945L1489.454545 186.498327l-30.9248-30.943418a14.596655 14.596655 0 1 0-20.647563 20.628946L1468.788364 207.127273l-30.906182 30.9248a14.578036 14.578036 0 1 0 20.610327 20.666182L1489.454545 227.756218l30.9248 30.9248a14.596655 14.596655 0 0 0 20.647564 0v0.018618zM601.106618-109.381818c7.354182 0 13.293382-4.170473 13.293382-9.309091s-5.957818-9.309091-13.293382-9.309091H255.348364c-7.354182 0-13.312 4.170473-13.312 9.309091s5.957818 9.309091 13.312 9.309091h345.739636zM768.930909-109.381818c7.205236 0 13.032727-4.170473 13.032727-9.309091s-5.827491-9.309091-13.032727-9.309091h-104.261818c-7.186618 0-13.032727 4.170473-13.032727 9.309091s5.846109 9.309091 13.032727 9.309091h104.261818zM1661.989236-109.381818c7.540364 0 13.647127-4.170473 13.647128-9.309091s-6.106764-9.309091-13.647128-9.309091H870.102109c-7.558982 0-13.665745 4.170473-13.665745 9.309091s6.106764 9.309091 13.665745 9.309091h791.887127zM1810.971927 39.563636c7.503127 0 13.609891-4.170473 13.609891-9.309091s-6.106764-9.309091-13.609891-9.30909H1614.754909c-7.521745 0-13.609891 4.170473-13.609891 9.30909s6.088145 9.309091 13.609891 9.309091H1810.990545zM1457.375418 39.563636c7.447273 0 13.460945-4.170473 13.460946-9.309091s-6.032291-9.309091-13.460946-9.30909H13.460945c-7.447273 0-13.460945 4.170473-13.460945 9.30909s6.013673 9.309091 13.460945 9.309091h1443.914473zM1067.976145 188.6208H1040.756364v-24.054691c0-26.307491-19.828364-46.601309-45.521455-46.601309h-27.182545c0-5.268945-2.923055-11.264-6.609455-15.788218a21.801891 21.801891 0 0 0-31.557818 0l-14.708364 15.788218H658.134109c-25.488291 0-43.324509 6.013673-53.527273 18.041018A51.870255 51.870255 0 0 0 595.781818 163.821382V629.797236c0 26.307491 19.828364 46.601309 45.521455 46.601309h28.634763v24.054691C669.938036 726.760727 689.7664 747.054545 715.459491 747.054545h356.109964C1097.262545 747.054545 1117.090909 726.760727 1117.090909 700.453236V235.240727c0-10.537891-3.667782-20.293818-8.8064-27.815563-8.471273-12.530036-21.894982-18.804364-40.308364-18.804364zM1052.318255 207.127273h19.0464C1086.743273 207.127273 1098.472727 219.154618 1098.472727 234.924218V700.639418C1098.472727 716.409018 1086.743273 728.436364 1071.364655 728.436364H715.9808C700.602182 728.436364 688.872727 716.409018 688.872727 700.639418v-24.017454h309.210764c25.655855 0 45.428364-20.293818 45.428364-46.582691V207.872h8.8064V207.127273z m-217.9072 21.578472a74.528582 74.528582 0 0 1 0 105.78851A74.286545 74.286545 0 0 1 781.963636 356.072727c-19.586327 0-39.154036-7.652073-52.447418-21.578472a74.528582 74.528582 0 0 1 0-105.78851A74.286545 74.286545 0 0 1 781.963636 207.127273c18.878836 0 37.757673 7.652073 52.447419 21.578472z m-92.16 89.832728c1.750109-0.800582 3.500218-4.021527 1.750109-7.261091-7.856873-12.064582-8.713309-28.169309-3.4816-41.053091 0.875055-3.220945 0-4.840727-3.500219-7.242473h-1.73149c-1.750109 0-4.375273 0.800582-5.250328 3.220946-6.106764 16.104727-5.213091 34.629818 3.500218 49.915345 1.750109 2.420364 5.231709 3.220945 8.71331 2.420364zM1024 161.140364V626.203927c0 15.750982-11.710836 27.759709-27.070836 27.759709H641.470836c-15.36 0-27.070836-12.008727-27.070836-27.741091V161.885091c0-15.750982 11.710836-27.741091 27.070836-27.741091h257.452219l-25.6 25.506909a22.676945 22.676945 0 0 0-5.12 23.998836l-22.676946 23.998837a92.346182 92.346182 0 0 0-61.44-23.272727c-26.326109 0-49.729164 10.519273-68.756945 28.523054a100.482327 100.482327 0 0 0 0 140.269382c18.301673 18.748509 42.430836 28.485818 68.756945 28.485818 26.344727 0 49.747782-10.482036 68.756946-28.485818 35.113891-36.007564 37.310836-94.524509 6.590836-133.5296l23.403054-23.998836c8.043055 2.997527 16.812218 1.489455 23.403055-5.250328L961.833891 132.654545h35.095273A28.523055 28.523055 0 0 1 1024 161.140364zM697.250909 579.490909c-4.896582 0-8.378182 3.872582-8.378182 9.309091 0 5.436509 3.500218 9.309091 8.378182 9.309091h150.807273c4.896582 0 8.378182-3.872582 8.378182-9.309091 0-5.436509-3.500218-9.309091-8.378182-9.309091h-150.807273z m224.944873-55.854545c5.082764 0 8.713309-3.872582 8.713309-9.309091 0-5.436509-3.630545-9.309091-8.713309-9.309091H716.204218c-5.082764 0-8.713309 3.872582-8.713309 9.309091 0 5.436509 3.630545 9.309091 8.713309 9.309091h205.991564z m-130.513455-55.854546c5.213091 0 8.899491-3.872582 8.899491-9.309091 0-5.436509-3.705018-9.309091-8.880873-9.309091h-112.565527c-5.175855 0-8.880873 3.872582-8.880873 9.309091 0 5.436509 3.705018 9.309091 8.880873 9.309091h112.565527z"  horiz-adv-x="1824" />

    
    <glyph glyph-name="passed" unicode="&#58894;" d="M512 384m-512 0a512 512 0 1 1 1024 0 512 512 0 1 1-1024 0ZM778.24 471.04L716.8 527.36l-250.14272-225.28L348.16 406.69184 286.72 350.37184l179.93728-160.93184z"  horiz-adv-x="1024" />

    
    <glyph glyph-name="drag_2" unicode="&#58903;" d="M219.428571 310.85714299999995c-36.571429 0-73.142857-36.571429-73.142857-73.142857s36.571429-73.142857 73.142857-73.142857 73.142857 36.571429 73.142858 73.142857-36.571429 73.142857-73.142858 73.142857z m585.142858 146.285714c36.571429 0 73.142857 36.571429 73.142857 73.142857s-36.571429 73.142857-73.142857 73.142857-73.142857-36.571429-73.142858-73.142857 36.571429-73.142857 73.142858-73.142857zM219.428571 603.4285709999999c-36.571429 0-73.142857-36.571429-73.142857-73.142857s36.571429-73.142857 73.142857-73.142857 73.142857 36.571429 73.142858 73.142857-36.571429 73.142857-73.142858 73.142857z m585.142858-292.571428c-36.571429 0-73.142857-36.571429-73.142858-73.142857s36.571429-73.142857 73.142858-73.142857 73.142857 36.571429 73.142857 73.142857-36.571429 73.142857-73.142857 73.142857zM512 603.4285709999999c-36.571429 0-73.142857-36.571429-73.142857-73.142857s36.571429-73.142857 73.142857-73.142857 73.142857 36.571429 73.142857 73.142857-36.571429 73.142857-73.142857 73.142857z m0-292.571428c-36.571429 0-73.142857-36.571429-73.142857-73.142857s36.571429-73.142857 73.142857-73.142857 73.142857 36.571429 73.142857 73.142857-36.571429 73.142857-73.142857 73.142857z"  horiz-adv-x="1024" />

    
    <glyph glyph-name="more" unicode="&#59136;" d="M426.666667 85.333333a85.333333 85.333333 0 1 0 170.666666 0 85.333333 85.333333 0 0 0-170.666666 0z m0 298.666667a85.333333 85.333333 0 1 0 170.666666 0 85.333333 85.333333 0 0 0-170.666666 0z m0 298.666667a85.333333 85.333333 0 1 0 170.666666 0 85.333333 85.333333 0 0 0-170.666666 0z"  horiz-adv-x="1024" />

    
    <glyph glyph-name="bxs-hide" unicode="&#59440;" d="M344.448 375.722667L179.712 540.458667c-64.853333-70.698667-89.429333-141.525333-89.856-142.976L85.333333 384l4.48-13.482667C90.752 367.658667 188.629333 85.333333 514.304 85.333333c39.637333 0 75.733333 4.352 108.885333 11.648l-117.162666 117.162667a170.112 170.112 0 0 0-161.578667 161.578667zM514.304 682.666667c-79.146667 0-144-17.237333-198.058667-42.581334L158.165333 798.165333 97.834667 737.834667l768-768 60.330666 60.330666-140.714666 140.714667c112.554667 83.328 152.704 197.845333 153.301333 199.637333l4.48 13.482667-4.48 13.482667C937.813333 400.341333 839.978667 682.666667 514.304 682.666667z m81.322667-321.962667c7.978667 28.885333 1.194667 61.397333-20.992 83.626667s-54.741333 28.970667-83.626667 20.992L426.666667 529.664A168.746667 168.746667 0 0 0 514.304 554.666667c94.122667 0 170.666667-76.544 170.666667-170.666667a168.106667 168.106667 0 0 0-25.045334-87.594667l-64.298666 64.298667z"  horiz-adv-x="1024" />

    
    <glyph glyph-name="edit" unicode="&#60209;" d="M884.010667 596.010667l-77.994667-77.994667-160 160 77.994667 77.994667q11.989333 11.989333 29.994667 11.989333t29.994667-11.989333l100.010667-100.010667q11.989333-11.989333 11.989333-29.994667t-11.989333-29.994667zM128 160l472.021333 472.021333 160-160-472.021333-472.021333-160 0 0 160z"  horiz-adv-x="1024" />

    
    <glyph glyph-name="jiantouxiangshang" unicode="&#58896;" d="M512 765.080515l418.144061-418.144061a46.141135 46.141135 0 0 1 65.300084 65.300085L514.075553 893.764789 33.026276 412.236539a46.141135 46.141135 0 0 1 65.300084-65.300085zM512.957947 302.870872l417.186114-417.345772a46.141135 46.141135 0 1 1 65.300084 65.300085L514.075553 432.992067 33.026276-49.174815a46.141135 46.141135 0 1 1 65.300084-65.300085z"  horiz-adv-x="1024" />

    
    <glyph glyph-name="arrow_down" unicode="&#58897;" d="M467.058 398.885a63.641 63.641 0 0 1 65.14-8.985 32.944 32.944 0 0 1 11.23 5.99l393.828 350.402a45.672 45.672 0 0 1 23.21 38.185 45.672 45.672 0 0 1-17.22 34.44 62.144 62.144 0 0 1-79.365 0L511.233 501.46 158.585 818.918a62.144 62.144 0 0 1-79.364 1.497 42.677 42.677 0 0 1 0-67.385zM863.88 368.187l-352.647-315.96-352.648 317.458a62.144 62.144 0 0 1-79.364 0 42.677 42.677 0 0 1 0-67.385l390.084-354.145a63.641 63.641 0 0 1 65.138-8.985 32.944 32.944 0 0 1 11.231 5.99L939.502 295.56a45.672 45.672 0 0 1 20.964 39.683 45.672 45.672 0 0 1-17.22 34.44 62.144 62.144 0 0 1-79.365-1.497z"  horiz-adv-x="1024" />

    
    <glyph glyph-name="chanpinicon-kuozhan_jingzhunshishichuli" unicode="&#58964;" d="M538.98557457-57.71125355000004a460.41178318 460.41178318 0 0 0-409.51793533 670.61520923 29.58944639 29.58944639 0 0 0 52.55085682-26.98557457 396.7352942 396.7352942 0 0 1-44.26581189-183.45456686 401.23289039 401.23289039 0 0 1 599.36382277-348.68203357 29.58944639 29.58944639 0 1 0 29.352731-51.36727861 460.41178318 460.41178318 0 0 0-227.48366337-60.12575562zM895.95265437 132.13463387000002a29.58944639 29.58944639 0 0 0-23.67155789 46.15953627 401.23289039 401.23289039 0 0 1-497.1026963 589.65848423 29.58944639 29.58944639 0 1 0-23.6715566 53.97114914 460.41178318 460.41178318 0 0 0 569.06423022-676.76981312 29.58944639 29.58944639 0 0 0-24.61841943-13.01935652zM436.25101734 710.66748594h-5.68117312l-115.51719836 22.2512643a29.58944639 29.58944639 0 0 0-21.06768607 42.13537085l57.04845302 115.75391375a29.58944639 29.58944639 0 0 0 53.02428761-26.27542842l-39.53150032-80.48329424 77.40599165-14.91308089a29.58944639 29.58944639 0 0 0-5.44445902-58.70546072zM691.43040143-113.10269630000005a29.58944639 29.58944639 0 0 0-25.56528097 44.97595806l45.21267345 77.87942241-76.22241344 19.17396171a29.58944639 29.58944639 0 1 0 14.91308088 57.28516711l113.86018938-29.82616178a29.58944639 29.58944639 0 0 0 17.99038349-43.55566445l-64.62335052-111.49303294a29.58944639 29.58944639 0 0 0-25.56528227-14.43965012zM538.98557457 402.46381425m-294.00073696 0a294.00073697 294.00073697 0 1 1 588.00147522 0 294.00073697 294.00073697 0 1 1-588.00147522 0ZM538.98557457 402.46381425m-103.44470339 0a103.44470339 103.44470339 0 1 1 206.88940808 0 103.44470339 103.44470339 0 1 1-206.88940808 0Z"  horiz-adv-x="1024" />

    
    <glyph glyph-name="SetParametersFromBackgroudRegion" unicode="&#58994;" d="M840.08777955 218.29910124000003v276.16816417a110.46726541 110.46726541 0 0 1-110.46726541 110.46726671h-322.01208036a110.46726541 110.46726541 0 0 1-110.46726542-110.46726671v-321.45974361a110.46726541 110.46726541 0 0 1 110.46726542-110.46726541h257.38872985A296.05227202 296.05227202 0 0 0 840.08777955 218.29910124000003zM14.8973037 881.65503306m52.47195085 0l5.52336372 0q52.47195085 0 52.47195085-52.47195214l0-5.52336243q0-52.47195085-52.47195085-52.47195214l-5.52336372 0q-52.47195085 0-52.47195085 52.47195214l0 5.52336243q0 52.47195085 52.47195085 52.47195214ZM14.8973037 659.0634919500001m52.47195085 0l5.52336372 0q52.47195085 0 52.47195085-52.47195085l0-5.52336371q0-52.47195085-52.47195085-52.47195085l-5.52336372 0q-52.47195085 0-52.47195085 52.47195085l0 5.52336371q0 52.47195085 52.47195085 52.47195085ZM14.8973037 439.23363335m52.47195085 0l5.52336372 0q52.47195085 0 52.47195085-52.47195213l0-5.52336244q0-52.47195085-52.47195085-52.47195213l-5.52336372 0q-52.47195085 0-52.47195085 52.47195213l0 5.52336244q0 52.47195085 52.47195085 52.47195213ZM14.8973037 219.40377346000002m52.47195085 0l5.52336372 0q52.47195085 0 52.47195085-52.47195085l0-5.52336371q0-52.47195085-52.47195085-52.47195085l-5.52336372 0q-52.47195085 0-52.47195085 52.47195085l0 5.52336371q0 52.47195085 52.47195085 52.47195085ZM237.48884481 881.65503306m52.47195084 0l5.52336372 0q52.47195085 0 52.47195085-52.47195214l0-5.52336243q0-52.47195085-52.47195085-52.47195214l-5.52336372 0q-52.47195085 0-52.47195084 52.47195214l0 5.52336243q0 52.47195085 52.47195084 52.47195214ZM457.31870341 881.65503306m52.47195084 0l5.52336372 0q52.47195085 0 52.47195085-52.47195214l0-5.52336243q0-52.47195085-52.47195085-52.47195214l-5.52336372 0q-52.47195085 0-52.47195084 52.47195214l0 5.52336243q0 52.47195085 52.47195084 52.47195214ZM678.805571 881.65503306m52.47195214 0l5.52336243 0q52.47195085 0 52.47195213-52.47195214l0-5.52336243q0-52.47195085-52.47195213-52.47195214l-5.52336243 0q-52.47195085 0-52.47195214 52.47195214l0 5.52336243q0 52.47195085 52.47195214 52.47195214ZM470.02243855 24.429049690000056H352.92713718a144.71211869 144.71211869 0 0 0-144.71211868 144.71211867V543.6251995800001A144.71211869 144.71211869 0 0 0 352.92713718 687.7849815h374.48403121a144.71211869 144.71211869 0 0 0 144.71211869-144.71211868v-117.09530137a27.61681602 27.61681602 0 0 0-55.23363335 0V543.6251995800001A89.47848533 89.47848533 0 0 1 727.41116839 632.55134815H352.92713718A89.47848533 89.47848533 0 0 1 263.44865185 543.6251995800001v-374.48403122a89.47848533 89.47848533 0 0 1 89.47848533-89.47848533h117.09530137a27.61681602 27.61681602 0 0 0 0-55.23363334zM592.64110364 303.35889636l286.66255486-110.4672667L788.16816418 163.06546788000003a95.55418452 95.55418452 0 0 1-64.07101376-65.17568598l-22.64578907-79.53643141-110.4672667 283.34853688M532.98878007 384a20.98878007 20.98878007 0 0 1-19.33177109-28.72148955l176.19528945-454.57279809a20.98878007 20.98878007 0 0 1 34.24485199-7.18037271l55.23363335 190.55603359a40.87288794 40.87288794 0 0 0 27.06447927 27.61681603l197.18406954 60.75699707a20.98878007 20.98878007 0 0 1-7.18037143 34.24485197L540.1691528 384h-7.73270818z"  horiz-adv-x="1024" />

    
    <glyph glyph-name="shijian" unicode="&#59057;" d="M512 768a382.61 382.61 0 1 0-149.45-30.15A381.46 381.46 0 0 0 512 768m0 64C264.58 832 64 631.42 64 384s200.58-448 448-448 448 200.58 448 448S759.42 832 512 832zM688 144a31.9 31.9 0 0 0-22.63 9.37l-208 208A32 32 0 0 0 448 384V608a32 32 0 0 0 64 0v-210.75l198.63-198.62A32 32 0 0 0 688 144z"  horiz-adv-x="1024" />

    
    <glyph glyph-name="didian" unicode="&#58935;" d="M511.95 704.025186c-89.175914 0-161.744844-72.16893-161.744844-160.899845 0-88.684914 72.56993-160.764845 161.744844-160.764844s161.655844 72.07993 161.655844 160.765844c0 88.729914-72.47993 160.899844-161.655844 160.899845z m0-250.430758a89.798913 89.798913 0 0 0-89.887913 89.575913 89.843913 89.843913 0 0 0 179.730826 0c0-49.417952-40.335961-89.575913-89.842913-89.575913z m378.473634 65.668936C890.423634 726.998163 720.619798 896 511.95 896S133.565366 726.998163 133.565366 519.263364c0-162.902843 233.023775-491.200525 333.239678-624.764396a56.541945 56.541945 0 0 1 90.289912 0C657.30986 28.062839 890.422634 356.315522 890.422634 519.263364zM517.915994-48.469087l-5.965994-8.058992-5.965994 8.058992C316.770189 206.324667 199.100303 423.898456 199.100303 519.263364c0 171.716834 140.329864 311.424699 312.849697 311.424699 172.474833 0 312.759698-139.707865 312.759698-311.424699 0.045-95.409908-117.489886-312.939697-306.793704-567.732451z"  horiz-adv-x="1024" />

    
    <glyph glyph-name="ww" unicode="&#58898;" d="M0 46.829268a799.219512 174.829268 0 1 1 1598.439024 0 799.219512 174.829268 0 1 1-1598.439024 0ZM1386.146341 309.073171h-1173.853658v247.258536L469.541463 848.546341C482.029268 871.02439 504.507317 883.512195 526.985366 883.512195h544.468293c22.478049 0 44.956098-12.487805 59.941463-37.463415l254.751219-289.717073v-247.258536z m-1148.878048 24.975609h1123.902439v214.790244l-249.756098 284.721952c-12.487805 17.482927-24.97561 27.473171-39.960975 27.47317H526.985366c-14.985366 0-27.473171-9.990244-37.463415-24.975609L237.268293 546.341463v-212.292683zM1038.985366 473.912195c0 39.960976 24.97561 72.429268 54.946341 72.429268H1373.658537v-452.058536c0-52.44878-32.468293-97.404878-74.92683-97.404878H299.707317c-39.960976 0-74.926829 42.458537-74.926829 97.404878V546.341463h279.726829c29.970732 0 54.946341-32.468293 54.946342-72.429268 0-39.960976 24.97561-72.429268 54.946341-72.429268h369.639024c29.970732-2.497561 54.946341 32.468293 54.946342 72.429268zM1298.731707-15.609756H299.707317c-47.453659 0-87.414634 49.95122-87.414634 109.892683V558.829268h292.214634c37.463415 0 67.434146-37.463415 67.434146-84.917073 0-32.468293 19.980488-59.941463 42.458537-59.941463h369.639024c22.478049 0 42.458537 27.473171 42.458537 59.941463 0 47.453659 29.970732 84.917073 67.434146 84.917073h292.214634v-464.546341c0-59.941463-37.463415-109.892683-87.414634-109.892683z m-1061.463414 549.463415v-439.570732c0-47.453659 27.473171-84.917073 62.439024-84.917073h999.02439c34.965854 0 62.439024 37.463415 62.439025 84.917073V533.853659H1093.931707c-22.478049 0-42.458537-27.473171-42.458536-59.941464 0-47.453659-29.970732-84.917073-67.434147-84.917073H614.4c-37.463415 0-67.434146 37.463415-67.434146 84.917073 0 32.468293-19.980488 62.439024-42.458537 62.439025H237.268293z"  horiz-adv-x="1598" />

    
    <glyph glyph-name="h" unicode="&#59023;" d="M16 896v-1024M32 896v-1024M48 896v-1024M64 896v-1024M80 896v-1024M96 896v-1024M112 896v-1024M128 896v-1024M144 896v-1024M160 896v-1024M176 896v-1024M192 896v-1024M208 896v-1024M224 896v-1024M240 896v-1024M256 896v-1024M272 896v-1024M288 896v-1024M304 896v-1024M320 896v-1024M336 896v-1024M352 896v-1024M368 896v-1024M384 896v-1024M400 896v-1024M416 896v-1024M432 896v-1024M448 896v-1024M464 896v-1024M480 896v-1024M496 896v-1024M512 896v-1024M528 896v-1024M544 896v-1024M560 896v-1024M576 896v-1024M592 896v-1024M608 896v-1024M624 896v-1024M640 896v-1024M656 896v-1024M672 896v-1024M688 896v-1024M704 896v-1024M720 896v-1024M736 896v-1024M752 896v-1024M768 896v-1024M784 896v-1024M800 896v-1024M816 896v-1024M832 896v-1024M848 896v-1024M864 896v-1024M880 896v-1024M896 896v-1024M912 896v-1024M928 896v-1024M944 896v-1024M960 896v-1024M976 896v-1024M992 896v-1024M1008 896v-1024M0 880h1024M0 864h1024M0 848h1024M0 832h1024M0 816h1024M0 800h1024M0 784h1024M0 768h1024M0 752h1024M0 736h1024M0 720h1024M0 704h1024M0 688h1024M0 672h1024M0 656h1024M0 640h1024M0 624h1024M0 608h1024M0 592h1024M0 576h1024M0 560h1024M0 544h1024M0 528h1024M0 512h1024M0 496h1024M0 480h1024M0 464h1024M0 448h1024M0 432h1024M0 416h1024M0 400h1024M0 384h1024M0 368h1024M0 352h1024M0 336h1024M0 320h1024M0 304h1024M0 288h1024M0 272h1024M0 256h1024M0 240h1024M0 224h1024M0 208h1024M0 192h1024M0 176h1024M0 160h1024M0 144h1024M0 128h1024M0 112h1024M0 96h1024M0 80h1024M0 64h1024M0 48h1024M0 32h1024M0 16h1024M0 0h1024M0-16h1024M0-32h1024M0-48h1024M0-64h1024M0-80h1024M0-96h1024M0-112h1024M1024-42.667c0-47.147-38.187-85.333-85.333-85.333H85.334C38.187-128 0.001-89.813 0.001-42.667V810.666C0.001 857.813 38.188 895.999 85.334 895.999h853.333C985.814 895.999 1024 857.812 1024 810.666v-853.333zM206.507 578.901v-365.568h59.904V375.125h185.344v-161.792h59.904V578.901h-59.904v-152.576H266.411V578.901h-59.904z m388.096 0l-19.968-205.824h55.808c7.168 12.8 16.896 22.016 29.696 28.16 11.264 5.632 25.088 8.192 40.96 8.192 23.552 0 41.984-6.656 54.272-20.992 12.288-13.824 18.944-33.28 18.944-57.856 0-22.528-7.68-40.448-22.016-53.76-14.848-13.312-33.28-19.968-54.784-19.968-19.968 0-35.84 4.608-47.104 12.8-13.312 9.728-20.992 24.576-23.552 44.544h-58.88c2.56-33.792 16.896-60.928 43.52-80.896 23.552-17.92 52.224-27.136 85.504-27.136 36.352 0 67.584 10.752 94.208 32.256 28.672 24.064 43.008 54.784 43.008 92.672 0 39.424-11.264 70.656-32.768 93.184s-49.664 33.792-83.968 33.792c-16.384 0-31.232-2.56-44.544-7.68-14.848-5.12-27.648-13.312-38.912-24.576h-1.536l10.24 100.352h174.592v52.736h-222.72z"  horiz-adv-x="1024" />

    
    <glyph glyph-name="amazoncolor" unicode="&#58934;" d="M542.14592 342.186667c-15.850667-31.616-42.986667-51.968-72.384-58.837334-4.437333 0-11.242667-2.24-18.048-2.24-49.685333 0-79.061333 38.442667-79.061333 94.933334 0 72.405333 42.922667 106.261333 97.109333 122.154666 29.397333 6.762667 63.36 9.045333 97.237333 9.045334v-27.157334c0-51.989333 2.24-92.650667-24.853333-137.898666z m24.853333 268.970666c-29.376-2.24-63.338667-4.48-97.237333-8.917333-51.946667-6.869333-103.893333-15.914667-146.773333-36.266667-83.626667-33.92-140.16-106.24-140.16-212.458666 0-133.482667 85.845333-201.237333 194.410666-201.237334 36.117333 0 65.493333 4.565333 92.522667 11.264 43.050667 13.610667 79.125333 38.485333 122.048 83.733334 24.874667-33.92 31.722667-49.813333 74.602667-85.973334 11.306667-4.458667 22.613333-4.458667 31.594666 2.24 27.157333 22.656 74.666667 63.36 99.477334 85.973334 11.306667 9.024 9.088 22.613333 2.218666 33.834666-24.810667 31.68-49.728 58.837333-49.728 119.872v203.477334c0 85.888 6.869333 165.034667-56.426666 223.765333C641.60192 877.866667 560.215253 896 496.919253 896H469.76192C354.604587 889.322667 232.620587 839.552 205.399253 697.109333c-4.522667-18.133333 9.088-24.874667 18.133334-27.093333l126.549333-15.850667c13.546667 2.282667 20.352 13.610667 22.570667 24.810667 11.264 49.749333 51.968 74.624 97.109333 79.210667h9.109333c27.136 0 56.533333-11.328 72.298667-33.984 18.069333-27.093333 15.829333-63.296 15.829333-94.976v-18.069334zM1024.087253 129.152v0.042667c-0.469333 10.666667-2.709333 18.794667-7.146666 25.557333l-0.490667 0.64-0.533333 0.682667c-4.522667 4.928-8.853333 6.805333-13.546667 8.853333-14.037333 5.418667-34.453333 8.32-59.008 8.362667-17.642667 0-37.098667-1.685333-56.661333-5.973334l-0.064 1.344-19.690667-6.570666-0.362667-0.170667-11.136-3.626667v-0.469333a174.293333 174.293333 0 0 1-35.925333-20.181333c-6.869333-5.12-12.522667-11.946667-12.842667-22.357334a20.864 20.864 0 0 1 7.466667-16 23.872 23.872 0 0 1 18.368-4.949333l0.96 0.042667 0.725333 0.128c9.642667 2.048 23.68 3.434667 40.106667 5.717333 14.08 1.578667 29.013333 2.709333 41.962667 2.709333 9.152 0.064 17.386667-0.597333 23.04-1.792a25.770667 25.770667 0 0 0 6.997333-2.346666 20.373333 20.373333 0 0 0 0.533333-5.674667c0.128-10.837333-4.437333-30.954667-10.773333-50.602667-6.144-19.626667-13.610667-39.317333-18.538667-52.394666a26.581333 26.581333 0 0 1-1.984-9.941334c-0.128-5.248 2.048-11.626667 6.613334-15.850666 4.48-4.202667 10.24-5.888 15.061333-5.888h0.234667c7.232 0.064 13.376 2.944 18.666666 7.104 49.984 44.928 67.370667 116.736 68.096 157.162666l-0.128 6.442667z m-148.16-62.293333a35.093333 35.093333 0 0 1-15.232-3.413334c-5.482667-2.176-11.093333-4.714667-16.384-6.954666l-7.765333-3.242667-10.112-4.053333v-0.106667c-109.866667-44.586667-225.28-70.72-332.096-73.002667-3.925333-0.128-7.893333-0.128-11.690667-0.128-167.978667-0.106667-305.002667 77.824-443.242666 154.624a31.616 31.616 0 0 1-14.613334 3.861334c-6.208 0-12.586667-2.346667-17.237333-6.677334a23.637333 23.637333 0 0 1-7.338667-17.173333c-0.064-8.362667 4.458667-16.085333 10.773334-21.077333C140.73792-23.189333 282.94592-127.872 474.24192-128c3.733333 0 7.530667 0.128 11.306667 0.170667 121.685333 2.730667 259.264 43.861333 366.08 110.954666l0.64 0.426667a374.186667 374.186667 0 0 1 41.130666 28.437333c8.192 6.08 13.866667 15.594667 13.866667 25.472-0.362667 17.536-15.253333 29.397333-31.317333 29.397334z"  horiz-adv-x="1024" />

    
    <glyph glyph-name="jinggao1" unicode="&#59045;" d="M454.196503 43.242106c0-31.5516 25.585725-57.137325 57.136302-57.137325 31.5516 0 57.138348 25.585725 57.138348 57.137325 0 31.5516-25.585725 57.137325-57.138348 57.137325C479.766878 100.379431 454.196503 74.792683 454.196503 43.242106L454.196503 43.242106zM584.460312 712.884472c0 40.384779-32.741705 73.126484-73.141834 73.126484s-73.127508-32.741705-73.127508-73.126484c0-1.464351 0.061398-2.914376 0.137123-4.363378l-0.01535 0 15.867386-466.465944c0-31.550577 25.585725-57.137325 57.137325-57.137325 31.550577 0 57.137325 25.585725 57.137325 57.137325l15.867386 466.465944-0.01535 0C584.398914 709.969073 584.460312 711.419098 584.460312 712.884472L584.460312 712.884472z"  horiz-adv-x="1024" />

    
    <glyph glyph-name="jinggao1-copy" unicode="&#59652;" d="M472.615385 699.076923h78.76923v-433.230769h-78.76923zM472.615385 187.07692299999997h78.76923v-78.769231h-78.76923zM512-128C229.218462-128 0 101.21846200000005 0 384S229.218462 896 512 896s512-229.218462 512-512-229.218462-512-512-512z m0 78.769231c239.261538 0 433.230769 193.969231 433.230769 433.230769S751.261538 817.230769 512 817.230769 78.769231 623.261538 78.769231 384s193.969231-433.230769 433.230769-433.230769z"  horiz-adv-x="1024" />

    
    <glyph glyph-name="jinggao1-copy1" unicode="&#59649;" d="M847.556 29.899999999999977H176.473c-45.003 0-81.156 17.641-99.211 48.41-18.06 30.768-15.863 70.96 6.05 110.233l338.599 606.81c22.04 39.56 54.814 62.236 89.88 62.236 35.068 0 67.81-22.648 89.913-62.173l338.954-606.935c21.907-39.274 24.173-79.437 6.08-110.201-18.026-30.768-54.208-48.38-99.182-48.38z m-335.73 763.99c-11.15 0-23.92-11.052-34.273-29.558L138.955 157.45899999999995c-10.61-19.046-13.093-36.154-6.756-46.947 6.343-10.765 22.488-16.947 44.274-16.947h671.083c21.821 0 37.937 6.149 44.274 16.947 6.304 10.765 3.853 27.867-6.784 46.913L546.097 764.332c-10.323 18.506-23.157 29.558-34.272 29.558z m0.19-476.64c-17.58 0-31.849 14.24-31.849 31.851V635.7529999999999c0 17.582 14.269 31.851 31.848 31.851 17.583 0 31.852-14.269 31.852-31.851V349.1c0-17.612-14.27-31.85-31.852-31.85zM464.24 205.64499999999998c0 12.51 5.147 24.941 13.992 33.787 8.846 8.84 21.278 13.992 33.782 13.992 12.509 0 24.937-5.152 33.782-13.992 8.845-8.846 13.996-21.278 13.996-33.787m0 5.478c0-12.51-5.146-24.942-13.991-33.788-8.846-8.84-21.278-13.991-33.783-13.991-12.508 0-24.936 5.152-33.78 13.991-8.846 8.846-13.998 21.278-13.998 33.788"  horiz-adv-x="1024" />

    
    <glyph glyph-name="tixing1-copy" unicode="&#59651;" d="M512-64A448 448 0 1 1 512 832a448 448 0 0 1 0-896z m0-48A496 496 0 1 0 512 880a496 496 0 0 0 0-992zM512 768c25.216 0 45.696-20.288 45.76-45.184 0-2.048-0.32-3.968-0.704-6.4a15.04 15.04 0 0 1 10.816-16.64c83.84-24.32 142.4-101.44 142.4-187.648 0-100.16 62.144-198.4 114.24-263.296 7.168-8.896 9.344-20.608 5.888-31.232a31.936 31.936 0 0 0-21.824-21.12c-47.808-13.952-137.984-30.528-296.576-30.528-158.528 0-248.768 16.64-296.576 30.528a31.808 31.808 0 0 0-21.824 21.12 33.6 33.6 0 0 0 5.888 31.232c52.096 64.832 114.24 163.2 114.24 263.296 0 86.208 58.56 163.392 142.4 187.648a15.808 15.808 0 0 1 10.752 17.28c-0.32 1.92-0.64 3.84-0.64 5.76 0 24.96 20.48 45.184 45.76 45.184zM409.472 118.65599999999995c0 4.672 1.536 10.304 4.16 13.44 2.688 3.2 6.208 6.528 9.92 5.824 21.952-1.536 47.808-2.304 78.976-2.304 31.104 0 56.96 0.768 78.976 2.304 3.84 0.64 7.168-1.408 9.856-4.608 2.688-3.2 4.16-7.68 4.16-12.288v-2.368c0-65.408-41.728-118.656-92.992-118.656-51.328 0-93.056 53.248-93.056 118.656z"  horiz-adv-x="1024" />

    
    <glyph glyph-name="gengduo1" unicode="&#59083;" d="M144 464c-44.112 0-80-35.888-80-80s35.888-80 80-80 80 35.888 80 80-35.888 80-80 80zM512 464c-44.112 0-80-35.888-80-80s35.888-80 80-80 80 35.888 80 80-35.888 80-80 80zM880 464c-44.112 0-80-35.888-80-80s35.888-80 80-80 80 35.888 80 80-35.888 80-80 80z"  horiz-adv-x="1024" />

    
    <glyph glyph-name="jinhangzhong" unicode="&#58895;" d="M506.709333 376.917333l-1.066666 0.426667a131.541333 131.541333 0 0 0-54.314667 32.128 153.045333 153.045333 0 0 0-35.669333 55.637333 11.178667 11.178667 0 0 0 6.485333 14.549334 11.050667 11.050667 0 0 0 14.592-6.485334c7.168-17.92 17.024-34.432 30.506667-47.488 11.776-11.648 26.837333-20.778667 44.885333-26.496l1.066667-0.256 0.853333-0.256 1.066667-0.554666 1.109333 0.554666 1.877333 0.512a109.482667 109.482667 0 0 1 45.013334 26.453334c13.397333 13.098667 23.296 29.568 30.378666 47.530666a11.349333 11.349333 0 0 0 14.933334 6.485334 11.093333 11.093333 0 0 0 6.4-14.549334c-8.064-21.077333-19.925333-40.234667-35.669334-55.594666-14.506667-14.336-32.298667-25.216-54.784-32.256v-205.141334h-17.664v204.8zM512-128C229.248-128 0 101.24800000000005 0 384S229.248 896 512 896s512-229.248 512-512-229.248-512-512-512z m159.146667 267.349333c-2.816 58.026667-15.914667 101.802667-34.986667 134.570667-20.224 34.986667-46.72 57.344-74.581333 70.997333a176.085333 176.085333 0 0 1 74.325333 70.314667c19.968 34.858667 33.493333 80.981333 35.541333 142.848h15.658667a18.858667 18.858667 0 1 1 0 37.802667H337.109333a18.944 18.944 0 1 1 0-37.845334h15.658667c2.261333-61.824 15.530667-107.946667 35.242667-142.08 20.437333-34.986667 46.762667-57.173333 74.752-71.04-27.989333-13.653333-54.314667-36.053333-74.368-70.357333-19.242667-33.450667-32.426667-77.184-35.2-135.253333H337.066667a18.858667 18.858667 0 1 1 0-37.802667h349.994666a18.944 18.944 0 1 1 0 37.845333h-15.957333z"  horiz-adv-x="1024" />

    
    <glyph glyph-name="error" unicode="&#59096;" d="M512 384m-512 0a512 512 0 1 1 1024 0 512 512 0 1 1-1024 0ZM512 616.727273c25.6 0 46.545455-20.945455 46.545455-46.545455v-256c0-25.6-20.945455-46.545455-46.545455-46.545454s-46.545455 20.945455-46.545455 46.545454V570.181818c0 25.6 20.945455 46.545455 46.545455 46.545455zM512 128m-46.545455 0a46.545455 46.545455 0 1 1 93.09091 0 46.545455 46.545455 0 1 1-93.09091 0Z"  horiz-adv-x="1024" />

    
    <glyph glyph-name="chenggong" unicode="&#59016;" d="M512 865.882353a481.882353 481.882353 0 1 0 0-963.764706 481.882353 481.882353 0 0 0 0 963.764706z m230.881882-308.826353a30.117647 30.117647 0 0 1-38.550588 1.264941l-3.975529-3.674353-247.326118-277.564235-130.710588 128.421647-4.216471 3.433412a30.117647 30.117647 0 0 1-41.562353-42.285177l3.553883-4.156235 153.298823-150.588235 4.336941-3.553883a30.117647 30.117647 0 0 1 35.177412 1.204706l4.096 3.794824 268.288 301.17647 3.252706 4.397177a30.117647 30.117647 0 0 1-5.662118 38.128941z"  horiz-adv-x="1024" />

    
    <glyph glyph-name="shibai" unicode="&#58993;" d="M862.971237 747.873827C665.634486 945.320291 345.638829 945.356862 148.265508 747.98354l-0.036571-0.036571c-194.045367-200.810989-188.559727-520.916359 12.251262-714.961725 195.947055-189.291145 506.617124-189.327716 702.56418-0.036571 197.409892 197.409892 197.373321 517.44212 0 714.815442-0.073142 0-0.109713 0.073142-0.146284 0.109712l0.073142 0.073142z m-137.140996-515.832999a43.738835 43.738835 0 0 0-61.804876-61.804875l-158.608133 158.352136-158.278995-158.352136a43.738835 43.738835 0 0 0-61.804875 61.804875l158.49842 158.352137-158.49842 158.425278a43.738835 43.738835 0 0 0 61.804875 61.804876l158.278995-158.425279L663.915653 610.732831a43.738835 43.738835 0 0 0 61.804875-61.804875l-158.425278-158.49842 158.571562-158.352137z"  horiz-adv-x="1024" />

    
    <glyph glyph-name="shijian-copy" unicode="&#59647;" d="M499.2 876.8C224 876.8 0 652.8 0 377.6s224-499.2 499.2-499.2 499.2 224 499.2 499.2S774.4 876.8 499.2 876.8z m326.4-652.8c-6.4-12.8-19.2-25.6-38.4-25.6h-12.8L480 339.20000000000005c-12.8 6.4-19.2 19.2-19.2 32V652.8c0 19.2 19.2 38.4 38.4 38.4s38.4-19.2 38.4-38.4v-256l268.8-121.6c19.2-6.4 25.6-32 19.2-51.2z"  horiz-adv-x="1024" />

    
    <glyph glyph-name="ceshi1-copy" unicode="&#59648;" d="M512-128C229.2224-128 0 101.2224 0 384S229.2224 896 512 896s512-229.2224 512-512-229.2224-512-512-512zM400.64 768a25.6 25.6 0 0 1-25.6-25.6v-235.1104L188.2112 193.89440000000002a76.8 76.8 0 0 1 65.9712-116.1216h497.6384a76.8 76.8 0 0 1 65.9712 116.1216l-186.8032 313.3952V742.4a25.6 25.6 0 0 1-25.6 25.6h-204.8z m6.4-562.2272a64 64 0 1 0 0 128 64 64 0 0 0 0-128z m128 160a32 32 0 1 0 0 64 32 32 0 0 0 0-64z"  horiz-adv-x="1024" />

    
    <glyph glyph-name="add-fill-copy" unicode="&#59554;" d="M825.82 696.975C741.931 780.456 630.434 826.434 511.806 826.434S281.64 780.456 197.744 696.976 67.6 502.386 67.6 384.234s46.225-229.24 130.143-312.75 195.394-129.458 314.033-129.458 230.155 45.928 314.013 129.457 130.143 194.63 130.143 312.781-46.156 229.201-130.114 312.711z m-91.916-344.472H543.537v-190.377c0-17.524-14.206-31.731-31.73-31.731s-31.731 14.207-31.731 31.73V352.504H289.698c-17.524 0-31.73 14.206-31.73 31.73s14.206 31.731 31.73 31.731h190.377V606.3330000000001c0 17.524 14.206 31.73 31.73 31.73 17.526 0 31.731-14.206 31.731-31.73v-190.377h190.367c17.524 0 31.73-14.207 31.73-31.73s-14.206-31.732-31.73-31.732v0.009z"  horiz-adv-x="1028" />

    
    <glyph glyph-name="edit1" unicode="&#58958;" d="M307.933767 186.80859899999996l55.608246 121.906912 70.215853-67.788777-125.824099-54.118135z m95.818675 171.645022l366.409348 352.874171 82.001279-80.116062-365.732025-352.095249-82.678602 79.33714z m550.042994 370.90226l-50.505744-48.372175-81.854525 80.116062 49.704244 47.593254c8.003704 7.958549 23.435387 6.513593 32.150281-2.144858l48.281866-46.182162c5.147657-5.03477 8.071436-11.559652 8.071436-18.039379 0.011289-5.046059-2.201301-9.36964-5.847558-12.970742zM313.792614 365.70098099999996c-0.745056-0.767633-1.467534-1.478823-2.21259-2.889913L259.640613 178.78231700000003c-2.923779-10.78073 0-22.340381 8.071436-30.310219 6.581325-5.779826 14.607607-9.290618 23.390233-9.290619 2.935068 0 5.113791 0.699901 8.03757 1.399802l190.147239 49.749399h0.79021a8.048859 8.048859 0 0 1 5.791115 2.178724l507.721574 489.208069c15.28493 14.40441 23.356366 33.888744 23.356367 55.551803 0 24.519105-10.927483 49.03821-29.215214 67.077588l-48.281865 46.182163c-19.010208 18.039378-43.935707 28.853974-69.572396 28.853974-22.577445 0-43.145497-7.935972-57.707948-23.074149L314.503803 367.890993c-0.71119-0.699901-0.71119-1.478823-0.711189-2.190012zM100.932466 896C45.358086 896 0 851.29666 0 796.444758V-27.530372000000057c0-54.806747 45.358086-99.555242 100.932466-99.555241h806.082505c55.57438 0 100.864734 44.748495 100.864734 99.555241V498.456355h-86.290994v-451.729511c0-49.049498-40.221718-87.939147-89.214772-87.939147H175.539632c-49.004344 0-89.214772 38.889648-89.214773 87.939147V722.8422889999999c0 48.338309 40.210429 88.040745 89.214773 88.040745h457.904443V896H100.932466z"  horiz-adv-x="1026" />

    
    <glyph glyph-name="lianjie1" unicode="&#58973;" d="M512 896c282.763636 0 512-229.236364 512-512s-229.236364-512-512-512S0 101.236364 0 384 229.236364 896 512 896z m116.945455-279.272727a115.2 115.2 0 0 1-81.989819-33.978182l-87.04-86.993455a115.968 115.968 0 0 1 19.525819-179.688727 21.76 21.76 0 0 1 23.272727 36.608 72.331636 72.331636 0 0 0-12.148364 112.337455l86.970182 86.970181a72.494545 72.494545 0 1 0 102.586182-102.446545l-41.216-41.262545a21.76 21.76 0 0 1 30.72-30.72l41.262545 41.239272A115.968 115.968 0 0 1 628.945455 616.727273z m-82.548364-163.351273a21.76 21.76 0 1 1-23.482182-36.584727 72.331636 72.331636 0 0 0 12.264727-112.290909l-86.970181-86.946909a72.494545 72.494545 0 0 0-102.493091 102.516363l41.262545 41.262546a21.76 21.76 0 0 1-30.766545 30.766545l-41.355637-41.262545a115.968 115.968 0 1 1 164.002909-163.956364l86.970182 86.946909a115.968 115.968 0 0 1-19.549091 179.688727l0.116364-0.139636z"  horiz-adv-x="1024" />

    
    <glyph glyph-name="zhuanshougongluru-copy" unicode="&#59553;" d="M169.915-38.822c-16.134 0-29.213 13.08-29.213 29.214s13.08 29.213 29.213 29.213c16.134 0 29.213-13.08 29.213-29.213 0-16.134-13.079-29.214-29.213-29.214z m116.853 0c-16.134 0-29.213 13.08-29.213 29.214s13.079 29.213 29.213 29.213 29.213-13.08 29.213-29.213c0-16.134-13.08-29.214-29.213-29.214z m116.853 0c-16.134 0-29.214 13.08-29.214 29.214s13.08 29.213 29.214 29.213 29.213-13.08 29.213-29.213c0-16.134-13.08-29.214-29.213-29.214zM879.579 896c-3.305-69.286-9.83-127.712-19.573-175.279-9.743-47.567-29.659-118.225-59.748-211.974l-122.984-49.144c46.536 5.768 85.687 13.179 117.452 22.233 0-27-35.801-86.766-107.404-179.298L562.15 270.653c17.517-3.629 45.018-8.353 82.503-14.172-136.266-99.758-248.76-121.788-337.481-66.091 141.024 196.143 253.517 353.445 337.48 471.905C498.796 545.442 252.969 190.39 126.373 23.20500000000004 121.733 75.72199999999998 160.429 162.64 242.46 283.96000000000004c-4.611 0.178-6.917 9.437-6.917 27.777C329.825 525.143 469.716 685.95 661.155 817.384 703.541 846.484 776.35 872.689 879.58 896z m-0.698-939.572a27.897 27.897 0 0 0-3.096-2.75l-99.524-75.997c-12.148-9.276-29.516-6.948-38.792 5.2-9.277 12.148-6.949 29.516 5.2 38.792l43.68 33.355H593.411c-15.285 0-27.676 12.391-27.676 27.676 0 15.285 12.39 27.676 27.676 27.676h276.756c15.285 0 27.676-12.391 27.676-27.676 0-12.24-7.947-22.625-18.962-26.276zM584.697 92.005a27.897 27.897 0 0 0 3.096 2.75l99.524 75.997c12.148 9.277 29.516 6.949 38.792-5.2 9.277-12.147 6.949-29.515-5.2-38.792l-43.68-33.355h192.938c15.285 0 27.676-12.39 27.676-27.676 0-15.284-12.391-27.675-27.676-27.675H593.411c-15.285 0-27.676 12.39-27.676 27.675 0 12.24 7.947 22.625 18.962 26.276z"  horiz-adv-x="1024" />

    
    <glyph glyph-name="guanwang-copy" unicode="&#59550;" d="M739.964389 459.017119c-18.992881 16.975847-38.487461 34.934614-57.951324 53.364364s-36.019922 34.054082-50.753483 48.183557l-38.907249 35.938012a1146.586402 1146.586402 0 0 0-18.368317 17.405875 85.268309 85.268309 0 0 1-59.13902 24.572999c-1.22865 0-2.4573 0-3.68595-0.071671a91.432036 91.432036 0 0 1-59.978596-24.480851c-2.651836-2.651836-8.590311-8.262671-20.06795-19.074791s-24.880162-23.170291-39.429425-36.316846l-6.573278-5.999907q-20.96896-19.177178-45.69554-41.692189c-18.75739-17.190861-38.170059-34.955092-57.162941-52.83195a79056.18276 79056.18276 0 0 1-151.891854-138.704344V-79.04966300000001a42.275798 42.275798 0 0 1 16.474149-36.0404A73.841864 73.841864 0 0 1 192.53939-127.88850000000002h640.12664a61.565603 61.565603 0 0 1 44.026625 17.69256 53.343887 53.343887 0 0 1 16.177225 38.292924v389.072494q-63.869322 59.384749-118.544246 109.984651zM1023.925878 421.768547a62.73282 62.73282 0 0 1-21.808538 43.473732l-25.596874 25.668546a2482.999226 2482.999226 0 0 1-48.122124 46.637505 3937.782237 3937.782237 0 0 0-63.060461 60.992233 9544.951681 9544.951681 0 0 1-70.145675 68.323178q-33.490951 32.078003-66.060414 63.777173l-4.597199 4.453856-41.733144 40.350913L661.474133 796.046048Q633.348287 823.291361 613.822991 842.243287c-12.839392 12.61414-21.409226 20.682275-25.596874 24.142972A102.152007 102.152007 0 0 1 514.65046 895.986485h-1.576767a118.073263 118.073263 0 0 1-82.39122-37.740032C427.211536 854.806233 414.720262 843.052148 394.242762 823.936402q-30.296461-28.289666-71.855546-67.463123l-2.887328-2.805417c-31.740125-29.927866-65.446089-61.432499-94.309125-88.247785l-36.368039-33.798113-58.463262-54.408717c-26.907435-24.972311-50.354172-46.924191-70.35045-65.620148l-6.337786-5.958952c-20.4775-19.310282-32.886865-30.972218-36.972126-35.067718A55.36092 55.36092 0 0 1 0.050893 430.655782a52.831949 52.831949 0 0 1 18.726673-42.716065A57.234612 57.234612 0 0 1 58.411767 373.08329100000003h2.70303a64.78057 64.78057 0 0 1 39.644439 12.767721c3.296877 2.600642 12.593662 10.934985 30.122402 27.050777 16.013405 14.57998 34.811749 32.159913 59.865971 55.790948 22.750502 21.501375 47.835439 44.804769 74.394756 69.428963l1.423186 1.31056a8951.872096 8951.872096 0 0 1 77.896409 72.828228 9943.361916 9943.361916 0 0 0 65.0263 60.971755q28.197517 26.119051 38.313402 35.323687a101.189565 101.189565 0 0 0 64.022903 29.272586h2.37539c20.815378 0 42.286037-9.859916 63.766934-29.282825 5.385582-4.689347 17.743753-16.30009 33.859546-31.873228 20.4775-19.648161 41.866248-39.931124 63.480249-60.408624q36.951648-34.934614 78.408346-74.353801 17.405875-16.46391 33.787875-32.057526 22.9348-21.767582 44.118773-41.794577c14.948575-14.119236 62.517807-58.944483 62.517807-58.944483 18.255691-17.221577 28.054175-26.04738 31.207709-28.607067a62.179928 62.179928 0 0 1 39.572768-13.832551c1.023875 0 1.955601-0.061432 2.918044-0.061433a59.118542 59.118542 0 0 1 40.381629 15.818869A48.603346 48.603346 0 0 1 1023.925878 421.768547z"  horiz-adv-x="1024" />

    
    <glyph glyph-name="GooglePlaylogo" unicode="&#58912;" d="M46.592-57.856V825.856c0 29.696 16.896 57.344 44.032 70.144l516.608-512L90.624-128c-27.136 13.312-44.032 40.448-44.032 70.144M771.072 221.696L206.336-101.376l445.44 441.344 119.296-118.272M946.688 445.952c19.456-14.848 30.72-37.376 30.72-61.952 0.512-24.064-10.752-46.592-29.696-61.44l-120.32-68.608L696.32 384l131.072 130.048 119.296-68.096M206.336 869.376l564.736-323.072-119.296-118.272z"  horiz-adv-x="1024" />

    
    <glyph glyph-name="shipin" unicode="&#58902;" d="M458.464 692.368L314.192 864H150.832l144.272-171.632h163.36z m424.352 0L738.56 864H575.168l144.272-171.632h163.376z m-212.16 0L526.352 864H362.992l144.272-171.632h163.376zM944.336 864h-157.008l144.272-171.632H1008V799.632C1008 836.112 980.416 864 944.352 864zM102.016 864h-6.368C59.584 864 32 836.112 32 799.632v-107.264h214.288L102.016 864zM32-15.632C32-52.112 59.584-80 95.648-80h848.704C980.416-80 1008-52.112 1008-15.632V649.44H32v-665.088z m339.472 472c0 36.48 29.712 53.632 63.664 53.632 10.608 0 23.328-2.144 33.936-8.576l241.888-141.6c42.432-23.6 42.432-83.68 0-107.28l-241.888-141.6c-10.608-6.432-21.216-8.576-33.936-8.576-33.952 0-63.664 17.152-63.664 53.632V456.368z"  horiz-adv-x="1024" />

    
    <glyph glyph-name="apple" unicode="&#58893;" d="M791.487729 351.904527c-1.279999 129.695874 105.759898 191.871814 110.527893 194.975811-60.159942 88.031915-153.855851 100.063903-187.231819 101.471902-79.743923 8.063992-155.583849-46.943955-196.06381-46.943955-40.351961 0-102.8159 45.759956-168.959836 44.543957-86.911916-1.279999-167.071838-50.527951-211.807795-128.383876-90.303913-156.703848-23.135978-388.831623 64.895937-515.9355 43.007958-62.20794 94.303909-132.063872 161.631843-129.567874 64.831937 2.591997 89.375913 41.951959 167.743837 41.951959s100.415903-41.951959 169.055836-40.671961c69.759932 1.311999 113.98389 63.391939 156.703848 125.791878 49.375952 72.15993 69.727932 142.047862 70.911931 145.631859-1.535999 0.703999-136.063868 52.223949-137.407867 207.135799zM662.559854 732.480158c35.743965 43.359958 59.871942 103.5199 53.279948 163.519842-51.48795-2.111998-113.88789-34.303967-150.815854-77.535925-33.151968-38.367963-62.14394-99.615903-54.367947-158.431847 57.471944-4.479996 116.127888 29.215972 151.903853 72.44793z"  horiz-adv-x="1024" />

    
    <glyph glyph-name="android" unicode="&#58887;" d="M645.842228 802.8673l43.807711 80.195434c2.33723 4.189413 0.801248 9.524928-3.435237 11.892857-4.274347 2.267645-9.553581 0.725524-11.812016-3.491519l-44.243639-81.030451c-37.245253 16.605179-78.907092 25.92647-122.990072 25.876328-43.969393 0.038886-85.62407-9.243519-122.699453-25.757624l-44.292758 80.817603c-2.306531 4.267184-7.605207 5.809306-11.789503 3.486402-4.263091-2.300391-5.821585-7.646139-3.457749-11.827366l43.830224-80.133012c-86.117303-44.519932-134.255643-101.156825-134.210618-198.48137l545.298044 0.055259C779.861487 701.78006 731.824454 758.239921 645.842228 802.8673zM378.576304 676.433805c-13.019517 0.029676-23.627102 10.638285-23.627102 23.745806 0.007163 13.054309 10.585073 23.788784 23.645522 23.784691 13.113661 0.011256 23.714083-10.731405 23.732503-23.781621C402.33132 687.088462 391.705315 676.443015 378.576304 676.433805zM636.014401 673.963545c-13.068635-0.01535-23.70999 10.608609-23.705897 23.759109 0.040932 13.015423 10.618842 23.763202 23.717153 23.805157 12.997004-0.036839 23.660871-10.777454 23.653708-23.822553C659.704948 684.587504 649.078943 673.960475 636.014401 673.963545zM132.375126 556.209728c-34.656289 0.01842-64.803895-28.199231-64.815151-62.909756l0.049119-240.826777c0.007163-34.829228 30.167048-62.935339 64.834594-62.930222 34.678802-0.002047 64.830501 28.119414 64.792638 62.928176l0.004093 240.859523C197.228139 528.036079 167.042672 556.233264 132.375126 556.209728zM230.239977 560.329556l0.094144-406.692329c-0.029676-37.139852 29.937828-67.115542 66.971256-67.122705l37.158272-0.020466 0.052189-149.465034c-0.007163-34.705408 28.134763-62.923059 62.719421-62.923059 34.682895 0 72.819447 28.23914 72.82661 62.965015l-0.033769 149.439451 74.697213 0.016373 0.033769-149.465034c-0.007163-34.684942 28.154206-62.946595 62.741934-62.88929 34.678802-0.022513 70.324628 28.217651 70.316442 62.950688l-0.037862 149.423078 45.993492 0.034792c36.940307-0.01535 66.994792 30.006389 67.001955 67.147264l-0.071631 406.700516L230.239977 560.329556zM955.275503 493.392069c-0.004093 34.74941-32.210589 62.911803-66.874042 62.902593-34.660383 0.027629-64.803895-28.183882-64.796731-62.934315l0.040932-243.344109c0-34.783179 30.137372-62.893383 64.819244-62.904639 34.656289 0.005117 66.847436 28.120437 66.854599 62.934315L955.275503 493.392069z"  horiz-adv-x="1024" />

    
    <glyph glyph-name="APPstore" unicode="&#59126;" d="M781.042957-107.54046H242.957043C120.967033-107.54046 21.994006-8.311688 21.994006 113.934066V653.042957C21.994006 775.544456 120.967033 874.517483 242.957043 874.517483h537.83017c122.245754 0 220.963037-99.228771 220.963037-221.474526v-539.108891c0.255744-122.245754-98.717283-221.474525-220.707293-221.474526zM529.390609 302.417582h-107.924076l81.07093 140.147853 8.183816 14.321678 55.752247 95.648352 10.741259 18.66933 23.016983 39.64036c10.22977 17.390609 10.485514 39.64036-1.022977 56.007992-9.974026 14.065934-24.03996 19.692308-38.105894 19.692308-16.367632 0-32.47952-8.43956-41.686314-23.784216l-8.183816-14.577423-8.43956 14.577423c-8.951049 15.344655-25.318681 23.784216-41.686314 23.784216-8.183816 0-16.367632-2.045954-24.295704-6.393607-22.761239-13.298701-30.689311-42.709291-17.39061-65.470529l35.804196-61.89011-145.006993-250.117882H216.35964c-28.899101-0.255744-51.916084-25.83017-47.312687-56.007992 3.58042-23.528472 25.574426-40.151848 49.614386-40.151848h36.315684l110.993007 0.255744h221.474525c4.091908 0 8.183816 1.79021 10.741259 5.114885 12.531469 16.879121 21.994006 43.220779-8.951049 70.073926-16.367632 14.321678-38.105894 20.45954-59.844156 20.45954zM803.548452 302.673327h-92.323677l-123.524475 213.034965c-2.301698 3.836164-7.160839 4.859141-10.485515 2.557442-17.390609-12.531469-27.364635-29.922078-32.735265-49.102897-8.695305-32.47952-1.534466-67.260739 15.344656-96.415584l26.597402-46.033966 14.065934-24.551449 55.752248-95.904096 5.882118-9.718281 53.45055-92.323677c8.951049-15.344655 25.062937-23.784216 41.430569-23.784216 8.183816 0 16.879121 2.301698 24.551449 6.649351 22.761239 13.298701 30.689311 42.453546 17.390609 65.47053l-31.200799 53.962038h38.873127c28.899101 0 51.916084 26.085914 47.056943 56.263736-4.603397 23.784216-26.341658 39.896104-50.125874 39.896104z m-499.724276-108.691309c-16.879121 6.905095-32.735265 6.137862-45.522478 2.557443-6.905095-2.045954-12.787213-6.649351-16.367632-13.042958l-17.902098-30.433566c-13.554446-23.016983-5.626374-52.427572 17.390609-65.470529 7.672328-4.347652 16.111888-6.649351 24.551449-6.649351 16.367632 0 32.223776 8.43956 41.174825 23.784216l20.459541 35.036963c4.859141 8.695305 5.882118 19.180819 2.301698 28.387612-4.603397 10.22977-12.275724 20.203796-26.085914 25.83017z"  horiz-adv-x="1024" />

    
    <glyph glyph-name="close" unicode="&#59052;" d="M696 610.4L285.8 200.2c-11.7-11.7-11.7-30.8 0-42.4 11.7-11.7 30.8-11.7 42.4 0L738.4 568c11.7 11.7 11.7 30.8 0 42.4-11.6 11.7-30.7 11.7-42.4 0zM328.2 610.4l410.2-410.2c11.7-11.7 11.7-30.8 0-42.4-11.7-11.7-30.8-11.7-42.4 0L285.8 568c-11.7 11.7-11.7 30.8 0 42.4 11.6 11.7 30.7 11.7 42.4 0z"  horiz-adv-x="1024" />

    
    <glyph glyph-name="baocuo2" unicode="&#59092;" d="M984.064 115.712L614.6048 755.4048a86.87616 86.87616 0 0 1-164.33152 0L80.93696 115.712C35.51232 37.888 72.21248-25.6 163.04128-25.6h738.816c90.8288 0 127.63136 63.30368 82.2272 141.312zM481.71008 573.91104a70.73792 70.73792 0 0 0 100.08576 1.37216 15.42144 15.42144 0 0 0 1.37216-1.37216 74.81344 74.81344 0 0 0 20.0704-53.248c0-18.06336-28.07808-152.73984-36.70016-250.7776H499.712c-7.9872 98.03776-38.05184 232.73472-38.05184 250.7776a75.63264 75.63264 0 0 0 19.968 53.248z m100.82304-466.82112a72.94976 72.94976 0 0 0-100.20864 0 70.71744 70.71744 0 1 0 100.20864 0z m0 0"  horiz-adv-x="1024" />

    
    <glyph glyph-name="cash1" unicode="&#58933;" d="M388.315429 634.843429V678.656a23.771429 23.771429 0 1 0 47.542857 0V634.88h157.147428V678.656a23.771429 23.771429 0 1 0 47.542857 0V634.88h20.150858a23.771429 23.771429 0 1 0 0-47.542857h-119.990858v-63.049143h119.990858a23.771429 23.771429 0 1 0 0-47.542857h-119.990858v-76.544a23.771429 23.771429 0 1 0-47.542857 0v76.544h-125.037714a23.771429 23.771429 0 1 0 0 47.542857h125.037714V587.337143h-125.037714a23.771429 23.771429 0 1 0 0 47.542857h20.187429z m-325.558858-345.965715h98.742858V643.657143h-12.8a85.942857 85.942857 0 0 1-85.942858-85.942857v-268.8z m0-47.542857v-213.942857a85.942857 85.942857 0 0 1 85.942858-85.942857h731.428571a85.942857 85.942857 0 0 1 85.942857 85.942857V241.371429h-903.314286z m903.314286 47.542857V557.714286a85.942857 85.942857 0 0 1-85.942857 85.942857h-12.8v-354.742857h98.742857z m-146.285714 0V800.694857c0 25.6-13.897143 44.141714-27.209143 44.141714H236.251429c-13.275429 0-27.209143-18.541714-27.209143-44.141714V288.914286h610.742857z m47.542857 402.285715h12.8a133.485714 133.485714 0 0 0 133.485714-133.485715v-530.285714a133.485714 133.485714 0 0 0-133.485714-133.485714h-731.428571a133.485714 133.485714 0 0 0-133.485715 133.485714V557.714286a133.485714 133.485714 0 0 0 133.485715 133.485714h12.8V800.694857C161.499429 850.029714 193.243429 892.342857 236.251429 892.342857h556.324571c43.008 0 74.752-42.313143 74.752-91.684571V691.2z"  horiz-adv-x="1024" />

    
    <glyph glyph-name="gengduo" unicode="&#59047;" d="M560 624a48 48 0 1 0-96 0 48 48 0 0 0 96 0z m0-240a48 48 0 1 0-96 0 48 48 0 0 0 96 0z m0-240a48 48 0 1 0-96 0 48 48 0 0 0 96 0z"  horiz-adv-x="1024" />

    
    <glyph glyph-name="control" unicode="&#59104;" d="M928 816a96 96 0 0 0 96-96v-672a96 96 0 0 0-96-96H96a96 96 0 0 0-96 96v672a96 96 0 0 0 96 96h832z m-240-480a112 112 0 0 1-101.216-64H208a48 48 0 0 1 0-96h378.784a112 112 0 0 1 202.432 0H848a48 48 0 0 1 0 96h-58.784a112 112 0 0 1-101.216 64z m0-64a48 48 0 1 0 0-96 48 48 0 0 0 0 96z m-352 384a112 112 0 0 1-101.216-64H208a48 48 0 0 1 0-96h26.784a112 112 0 0 1 202.432 0H848a48 48 0 0 1 0 96H437.216a112 112 0 0 1-101.216 64z m0-64a48 48 0 1 0 0-96 48 48 0 0 0 0 96z"  horiz-adv-x="1024" />

    
    <glyph glyph-name="xiala1" unicode="&#58891;" d="M381.1 791.8L779.8 427.2a57.377 57.377 0 0 0 19.5-43.1c0-16.5-7.1-32.2-19.5-43.1L381.1-23.600000000000023c-18.8-17.8-46.2-23.3-70.4-14.1s-41.1 31.4-43.4 57.2l0 728.9c2.2 25.9 19 48.2 43.29999999 57.4 24.3 9.3 51.6 3.8 70.50000001-14z"  horiz-adv-x="1024" />

    
    <glyph glyph-name="wanchengchenggong" unicode="&#59195;" d="M935.03 683.372c-28.659 28.662-75.123 28.662-103.78 0l-449.723-449.72L191.26 423.92c-28.66 28.655-75.124 28.655-103.784 0-28.656-28.662-28.656-75.124 0-103.786l242.16-242.156c28.657-28.654 75.123-28.654 103.781 0L935.03 579.596c28.66 28.66 28.66 75.122 0 103.776z"  horiz-adv-x="1024" />

    
    <glyph glyph-name="xiala2-copy" unicode="&#58892;" d="M919.8 498.9L555.2 100.20000000000005a57.377 57.377 0 0 0-43.1-19.5c-16.5 0-32.2 7.1-43.1 19.5L104.4 498.9c-17.8 18.8-23.3 46.2-14.1 70.4s31.4 41.1 57.2 43.4l728.9 0c25.9-2.2 48.2-19 57.4-43.29999999 9.3-24.3 3.8-51.6-14-70.50000001z"  horiz-adv-x="1024" />

    
    <glyph glyph-name="shangchuan" unicode="&#59165;" d="M864 249.6c-19.2 0-32-12.8-32-32v-153.6h-576v160c0 19.2-12.8 32-32 32s-32-12.8-32-32v-192c0-19.2 12.8-32 32-32h640c19.2 0 32 12.8 32 32v185.6c0 19.2-12.8 32-32 32zM345.6 486.4l166.4 166.4v-435.2c0-19.2 12.8-32 32-32s32 12.8 32 32v435.2l166.4-166.4c12.8-12.8 32-12.8 44.8 0 12.8 12.8 12.8 32 0 44.8l-224 224s-6.4 6.4-12.8 6.4c-6.4 6.4-19.2 6.4-25.6 0-6.4 0-6.4-6.4-12.8-6.4l-224-224c-12.8-12.8-12.8-32 0-44.8 19.2-6.4 44.8-6.4 57.6 0z"  horiz-adv-x="1088" />

    
    <glyph glyph-name="fuzhi" unicode="&#58983;" d="M832 160h-128a32 32 0 0 0-32 32V490.666667a53.333333 53.333333 0 0 1-50.56 53.333333H320a32 32 0 0 0-32 32V704A117.546667 117.546667 0 0 0 405.333333 821.333333h426.666667A117.546667 117.546667 0 0 0 949.333333 704v-426.666667a117.546667 117.546667 0 0 0-117.333333-117.333333z m-96 64H832a53.333333 53.333333 0 0 1 53.333333 53.333333V704A53.333333 53.333333 0 0 1 832 757.333333H405.333333A53.333333 53.333333 0 0 1 352 704v-96h271.786667A117.333333 117.333333 0 0 0 736 490.666667zM618.666667-53.333333H192A117.546667 117.546667 0 0 0 74.666667 64V490.666667A117.546667 117.546667 0 0 0 192 608h426.666667a117.546667 117.546667 0 0 0 117.333333-117.333333v-426.666667a117.546667 117.546667 0 0 0-117.333333-117.333333z m-426.666667 597.333333A53.333333 53.333333 0 0 1 138.666667 490.666667v-426.666667A53.333333 53.333333 0 0 1 192 10.666667h426.666667a53.333333 53.333333 0 0 1 53.333333 53.333333V490.666667a53.333333 53.333333 0 0 1-53.333333 53.333333z"  horiz-adv-x="1024" />

    
    <glyph glyph-name="biaoji" unicode="&#58889;" d="M142.89736438 810.05714142v-442.73208889l160.52274568 44.01430123 247.25810443-53.07606914 218.77696789-47.89791605 95.79583211 34.95253333 25.89076542 156.63913087-16.82899753 265.38034568-296.44926419 20.71261234-187.70934393 64.72691358h-192.88620247zM942.05467559 345.57551502V803.47829792c0 38.15910463-19.60966574 45.57680893-19.60966572 45.57680893-21.72882489 16.42898521-49.81901085 0.53076069-49.81901085 0.53076069-58.29435291-38.16039917-155.80933183-34.97971863-155.80933184-34.97971864-98.5765003-6.36136107-163.76426951 42.39612839-163.76426951 42.3961284-92.21643378 56.70854352-206.16169245 57.24059875-206.16169244 57.24059875-73.66699488 0-168.53205396-31.79774356-168.53205398-31.79774357v-0.53205523c-7.42417698 18.54814435-25.44156065 32.32979879-46.63962485 32.3297988-27.02866457 0-49.81901085-22.25958558-49.81901084-49.81901084v-960.85031949c0-27.03125365 22.25958558-49.81383269 49.81901084-49.81383269 27.02866457 0 49.81512723 22.25958558 49.81512723 49.81383269V309.00480885c64.13013143 43.45764978 161.64511037 40.28214739 161.64511037 40.2821474 99.63413808 6.35618291 166.41418935-42.40130655 166.41418935-42.40130655 118.71433765-60.41869022 207.74879636-54.05732915 207.74879637-54.05732915 113.94914228 0 202.45413484 48.75490038 202.45413483 48.75490039 24.37745019 12.19584507 22.25829104 43.99229408 22.25829104 43.99229408z m-101.75718084 41.87054587c-15.89822451-38.15910463-121.36296297-31.80162718-121.36296296-31.80162719-108.64541899-4.23702377-165.88342866 41.87054587-165.88342866 41.87054585-82.14880963 53.52656845-206.1603979 52.99451323-206.1603979 52.99451323-76.84767541 0-155.81450998-28.08371326-165.3565516-31.79644903v351.90728375c78.96683457 46.63833031 161.64511037 41.33849063 161.64511037 41.33849063 83.73591357 5.30113422 164.29503021-42.40130655 164.29503021-42.40130655 92.74201632-59.88663499 209.34107843-54.05603461 209.34107843-54.0560346 95.39581977-1.58839845 124.5436435 22.25958558 124.5436435 22.25958558l-1.06152139-350.31500167z m0 0"  horiz-adv-x="1024" />

    
    <glyph glyph-name="weidu-copy" unicode="&#58888;" d="M891.949 383.785c0-206.34-167.247-373.658-373.658-373.658-206.339 0-373.587 167.319-373.587 373.658s167.246 373.586 373.586 373.586c206.412 0 373.659-167.246 373.659-373.586z"  horiz-adv-x="1024" />

    
    <glyph glyph-name="test" unicode="&#59103;" d="M469.589 40H153c-16.542 0-30 13.458-30 30v22.266l291.033 526.933L415.058 832H264c-16.568 0-30-13.432-30-30s13.432-30 30-30h90.768l-0.661-137.198L63 107.734V70c0-49.626 40.374-90 90-90h316.589c16.568 0 30 13.432 30 30s-13.432 30-30 30zM693.916 441.16a29.863 29.863 0 0 1 14.71 3.875c14.432 8.139 19.532 26.437 11.394 40.868L636 634.877V772h79c16.568 0 30 13.432 30 30s-13.432 30-30 30H576v-212.876l91.758-162.696c5.513-9.775 15.683-15.269 26.158-15.268zM643 161c0-16.5 13.5-30 30-30h177c16.5 0 30 13.5 30 30s-13.5 30-30 30H673c-16.5 0-30-13.5-30-30zM850 108H673c-16.5 0-30-13.5-30-30s13.5-30 30-30h177c16.5 0 30 13.5 30 30s-13.5 30-30 30zM673 214h76c16.5 0 30 13.5 30 30s-13.5 30-30 30h-76c-16.5 0-30-13.5-30-30s13.5-30 30-30zM821.778 386H619c-33 0-60-27-60-60v-330c0-33 27-60 60-60h280c33 0 60 27 60 60V245.667L821.778 386zM899-4H619V326h183.944L899 223.089V-4z"  horiz-adv-x="1024" />

    
    <glyph glyph-name="shanchu" unicode="&#58901;" d="M517.59 874.391c-100.299 0-181.703-79.514-185.167-179.34H98.603c-25.979 0-47.235-21.099-47.235-47.236 0-25.98 21.099-47.237 47.236-47.237h52.117v-528.416c0-99.196 67.233-180.285 150.37-180.285h423.55c82.98 0 150.37 80.616 150.37 180.285V600.263h47.236c25.98 0 47.236 21.1 47.236 47.237 0 25.98-21.099 47.236-47.236 47.236H702.441C699.449 794.876 617.888 874.39 517.59 874.39z m-96.677-179.34c3.464 51.172 45.19 90.85 96.834 90.85s93.37-39.835 96.362-90.85H420.913z m-119.98-714.842c-29.444 0-61.88 37.789-61.88 91.953V600.263h547.311V71.69c0-54.007-32.436-91.954-61.88-91.954H300.933v0.473z m0 0M364.387 93.733c21.57 0 39.363 21.571 39.363 48.653V419.978c0 27.082-17.635 48.654-39.363 48.654-21.572 0-39.364-21.572-39.364-48.654v-277.592c0-26.924 17.32-48.653 39.364-48.653z m142.496 0c21.571 0 39.363 21.571 39.363 48.653V419.978c0 27.082-17.635 48.654-39.363 48.654-21.571 0-39.364-21.572-39.364-48.654v-277.592c0-26.924 17.793-48.653 39.364-48.653z m149.896 0c21.571 0 39.364 21.571 39.364 48.653V419.978c0 27.082-17.635 48.654-39.364 48.654-21.571 0-39.363-21.572-39.363-48.654v-277.592c0-26.924 17.162-48.653 39.363-48.653z m0 0"  horiz-adv-x="1024" />

    
    <glyph glyph-name="guidang" unicode="&#58920;" d="M109.738667 397.710222h492.771555c52.110222 0 90.510222 27.420444 102.4 74.069334 0.910222 4.551111 2.730667 10.979556 4.551111 18.261333a614.4 614.4 0 0 0 14.677334 53.987555h190.122666c20.138667 0 36.579556-16.497778 36.579556-36.579555v-2.787556l-13.653333-171.861333c0-20.138667 16.384-36.579556 36.522666-36.579556 20.138667 0 36.579556 16.497778 36.579556 36.579556v0.910222L1024 508.359111c0 60.302222-49.379556 109.681778-109.738667 109.681778h-21.048889V793.6c0 56.661333-45.681778 102.4-102.4 102.4H232.277333c-56.661333 0-102.4-45.738667-102.4-102.4v-322.730667H109.795556C49.379556 470.869333 0 421.489778 0 358.4l36.579556-335.530667c0-60.302222 49.379556-109.738667 109.681777-109.738666h532.138667a36.807111 36.807111 0 0 1 33.848889 36.579555 36.807111 36.807111 0 0 1-33.848889 36.579556H146.261333c-20.081778 0-36.522667 16.497778-36.522666 39.310222l-36.579556 335.530667c0 20.138667 16.440889 36.579556 36.579556 36.579555zM202.979556 793.6c0 16.497778 13.653333 30.151111 30.151111 30.151111h558.648889c16.497778 0 30.151111-13.653333 30.151111-30.151111v-176.469333h-118.897778c-0.853333 0-1.763556-0.910222-2.673778-0.910223a28.16 28.16 0 0 1-11.946667-2.730666c-0.853333 0-0.853333-0.910222-1.763555-0.910222a37.774222 37.774222 0 0 1-10.069333-6.428445c-19.228444-18.261333-28.330667-54.840889-39.310223-100.522667-1.820444-6.428444-2.730667-11.946667-3.697777-16.497777-1.820444-6.371556-4.551111-19.171556-31.061334-19.171556H202.979556V793.6z m706.616888-588.515556l111.559112-103.310222a36.408889 36.408889 0 0 0 0-52.110222 36.124444 36.124444 0 0 0-25.6-10.979556 36.124444 36.124444 0 0 0-25.6 10.979556l-47.559112 48.469333v-182.840889c0-20.138667-16.440889-36.579556-36.579555-36.579555a36.693333 36.693333 0 0 0-36.522667 36.579555v181.930667l-47.559111-48.469333a34.588444 34.588444 0 0 0-25.6-10.979556 36.124444 36.124444 0 0 0-25.6 10.979556 36.408889 36.408889 0 0 0 0 52.110222l110.592 102.4a37.546667 37.546667 0 0 0 25.6 10.069333c8.248889 0 16.497778-2.730667 22.869333-8.248889z"  horiz-adv-x="1080" />

    
    <glyph glyph-name="ceshi" unicode="&#59548;" d="M199.111-128c-62.578 0-113.778 51.2-113.778 113.778V668.444c0 62.578 51.2 113.778 113.778 113.778 19.911 0 36.978-17.066 36.978-36.978V691.2c-42.667-11.378-73.956-25.6-73.956-71.111v-577.422c0-51.2 39.823-93.867 93.867-93.867h497.778c51.2 0 93.866 42.667 93.866 93.867V620.089c0 45.511-31.288 59.733-76.8 68.267V742.4c-2.844 22.756 14.223 39.822 34.134 39.822 62.578 0 113.778-51.2 113.778-113.778v-682.666c0-62.578-51.2-113.778-113.778-113.778H199.11z m341.333 304.356H768c19.911 0 36.978-17.067 36.978-36.978S787.91 99.556 768 99.556H540.444c-19.91 0-36.977 17.066-36.977 36.977s17.066 39.823 36.977 39.823z m0 301.51H768c19.911 0 36.978-17.066 36.978-36.977S787.91 403.91 768 403.91H540.444c-19.91 0-36.977 17.067-36.977 36.978s17.066 36.978 36.977 36.978zM312.89 705.423v39.822c0 19.912 17.067 36.978 36.978 36.978h36.977C386.844 844.8 438.044 896 500.622 896S614.4 844.8 614.4 782.222h39.822c19.911 0 36.978-17.066 36.978-36.978v-36.977l-378.311-2.845z m-99.556-233.244c5.69 5.689 17.067 5.689 25.6 0l62.578-62.578 136.533 136.533c8.534 8.534 22.756 8.534 28.445 0 8.533-8.533 8.533-19.91 0-28.444L318.578 369.778c-5.69-2.845-11.378-5.69-17.067-5.69s-8.533 2.845-11.378 5.69l-73.955 73.955c-11.378 11.378-11.378 22.756-2.845 28.445z m207.645-403.911c-8.534-8.534-22.756-8.534-28.445 0L332.8 128l-59.733-59.733c-8.534-8.534-22.756-8.534-28.445 0-8.533 8.533-8.533 22.755 0 28.444l59.734 59.733-59.734 59.734c-8.533 8.533-8.533 22.755 0 28.444 8.534 8.534 19.911 8.534 28.445 0L332.8 184.89l59.733 59.733c8.534 8.534 22.756 8.534 28.445 0 8.533-8.533 8.533-19.91 0-28.444l-59.734-59.734 59.734-59.733c8.533-5.689 8.533-19.911 0-28.444z"  horiz-adv-x="1024" />

    
    <glyph glyph-name="ku" unicode="&#58899;" d="M522.44898 187.642776l60.144326 110.968163a25.913469 25.913469 0 0 0 23.008653 13.897143l269.374694 1.044898c9.404082 0 13.186612-2.695837 22.507102-12.810449L961.306122 187.642776v-309.66596H522.44898V187.642776z m385.650938 0L867.265306 279.510204H626.938776l-51.032817-91.867428h332.193959zM438.857143 707.918367V749.714286h313.469388v-41.795919H438.857143z m0-167.183673v41.795918h313.469388v-41.795918H438.857143zM188.081633 415.346939v41.795918h564.244898v-41.795918H188.081633z m0-165.553633V289.959184h229.877551v-41.795919l-229.877551 1.630041z m0-188.081633v41.795919h271.673469v-41.16898l-271.673469-0.626939zM94.040816-128c-6.896327 0-13.813551 2.654041-18.599183 7.460571a27.167347 27.167347 0 0 0-7.962123 18.661878L62.693878 866.157714C62.693878 873.074939 65.347918 880.013061 70.133551 884.798694c4.785633 4.806531 11.702857 8.003918 18.599184 8.003918L850.087184 896c6.896327 0 13.792653-2.654041 18.599183-7.460571 4.785633-4.806531 9.027918-23.886367 7.962123-18.661878L877.714286 415.346939h-62.693878V833.306122H125.387755v-898.612244h355.265306v-62.693878H94.040816zM229.877551 707.918367v-125.387755h125.387755V707.918367H229.877551zM188.081633 749.714286h208.979591v-208.979592H188.081633V749.714286z m397.061224-626.938776v-188.081632h313.469388v188.081632H585.142857z"  horiz-adv-x="1024" />

    
    <glyph glyph-name="Slide-left" unicode="&#58886;" d="M456.675 419.185c-20.971-21.479-20.971-56.307 0-77.792l382.074-392.279c20.972-21.477 54.975-21.477 75.949 0 20.973 21.484 20.973 56.309 0 77.794l-344.188 353.383 344.188 353.384c20.973 21.484 20.973 56.312 0 77.793-20.972 21.483-54.975 21.482-75.949 0l-382.074-392.284zM583.392 26.908l-344.186 353.383 344.186 353.385c20.973 21.484 20.973 56.312 0 77.793-20.973 21.482-54.975 21.482-75.95 0l-382.075-392.281c-20.967-21.478-20.967-56.307 0-77.792l382.077-392.282c20.973-21.477 54.975-21.477 75.95 0 20.972 21.483 20.972 56.309-0.001 77.793z"  horiz-adv-x="1024" />

    
    <glyph glyph-name="jiaose1" unicode="&#58979;" d="M159.288889 896H807.822222c125.155556 0 204.8-79.644444 204.8-204.8v-51.2c0-22.755556-11.377778-45.511111-39.822222-39.822222-28.444444 0-39.822222 17.066667-34.133333 45.511111 0 28.444444 0 51.2-5.688889 79.644444-11.377778 56.888889-45.511111 91.022222-102.4 91.022223H187.733333c-62.577778 0-108.088889-51.2-108.088889-119.466667V76.8c0-79.644444 45.511111-119.466667 119.466667-119.466667h113.777778c28.444444 0 51.2-17.066667 45.511111-39.822222 0-34.133333-17.066667-45.511111-45.511111-45.511111-56.888889 0-91.022222 5.688889-164.977778 5.688889S0-48.355556 0 25.6V742.4C0 816.355556 73.955556 878.933333 159.288889 896zM750.933333 674.133333c85.333333-5.688889 153.6-51.2 187.733334-136.533333s17.066667-164.977778-45.511111-233.244444c-22.755556-22.755556-17.066667-28.444444 5.688888-45.511112 91.022222-62.577778 147.911111-142.222222 159.288889-256 5.688889-34.133333-5.688889-56.888889-34.133333-62.577777-22.755556-5.688889-39.822222 17.066667-45.511111 51.2-17.066667 130.844444-136.533333 244.622222-256 238.933333-85.333333-5.688889-142.222222-56.888889-193.422222-125.155556-22.755556-34.133333-39.822222-73.955556-45.511111-113.777777 0-34.133333-22.755556-51.2-45.511112-45.511111-22.755556 5.688889-39.822222 28.444444-34.133333 56.888888 11.377778 113.777778 73.955556 193.422222 164.977778 256 22.755556 17.066667 22.755556 22.755556 5.688889 39.822223-56.888889 73.955556-73.955556 153.6-39.822222 238.933333 34.133333 85.333333 113.777778 136.533333 216.177777 136.533333z m-11.377777-358.4c79.644444 0 136.533333 62.577778 136.533333 142.222223s-62.577778 142.222222-142.222222 142.222222c-73.955556 0-136.533333-62.577778-136.533334-142.222222s62.577778-142.222222 142.222223-142.222223zM324.266667 526.222222H193.422222c-34.133333 0-51.2 17.066667-51.2 39.822222 0 22.755556 22.755556 39.822222 51.2 39.822223H455.111111c34.133333 0 51.2-17.066667 51.2-39.822223 0-22.755556-17.066667-39.822222-51.2-39.822222H324.266667zM290.133333 384h102.4c22.755556 0 39.822222-11.377778 39.822223-34.133333 0-28.444444-17.066667-39.822222-39.822223-39.822223H182.044444c-22.755556 0-39.822222 17.066667-39.822222 39.822223 0 22.755556 17.066667 34.133333 39.822222 34.133333h108.088889z"  horiz-adv-x="1063" />

    
    <glyph glyph-name="yonghuguanli" unicode="&#58880;" d="M482.304 614.528m-186.304 0a186.304 186.304 0 1 1 372.608 0 186.304 186.304 0 1 1-372.608 0ZM531.84 160.96000000000004c0 81.472 30.976 155.008 80.576 210.624a423.424 423.424 0 0 1-130.88 21.12 425.472 425.472 0 0 1-425.472-425.472h542.848a315.072 315.072 0 0 0-67.072 193.728zM967.808 126.65599999999995l0.192 70.976s-46.848 9.28-47.616 12.416a215.296 215.296 0 0 1-2.88 10.24c5.504 10.176 31.872 32.512 31.872 32.512l-52.864 70.4s-34.24-28.224-42.752-32.256a130.944 130.944 0 0 1-12.544 4.16c-4.608 1.152-17.344 46.272-17.344 46.272l-71.104 0.576s-7.68-43.712-19.2-46.72c-3.84-1.152-7.68-2.56-11.52-4.352-8.512 4.16-42.752 32.768-42.752 32.768l-52.864-71.552s26.496-26.688 28.288-35.648a137.408 137.408 0 0 1-3.136-8.576 524.48 524.48 0 0 0-43.712-10.368l0.128-70.976s37.632-7.808 44.8-14.144c1.472-4.096 3.2-8.064 4.992-11.968-8.704-10.88-31.872-28.928-31.872-28.928l54.528-70.976s42.816 27.712 49.856 29.312c3.52-1.536 7.04-2.944 10.688-4.224 6.464-2.24 11.008-43.584 11.008-43.584l71.04-0.192s2.368 40.576 7.616 42.176a146.56 146.56 0 0 1 15.104 5.632c5.952-2.304 34.048-30.336 34.048-30.336l70.272 71.552s-26.048 17.984-33.28 27.712c1.984 4.032 3.776 8.192 5.376 12.416 2.24 6.656 45.632 15.68 45.632 15.68m-180.8-53.824a89.664 89.664 0 1 0 0 179.328 89.664 89.664 0 0 0 0-179.328M594.816 310.08000000000004z"  horiz-adv-x="1024" />

    
    <glyph glyph-name="cash" unicode="&#58950;" d="M864 0H32c-19.2 0-32 12.8-32 32V608c0 19.2 12.8 32 32 32h832c19.2 0 32-12.8 32-32v-576c0-19.2-12.8-32-32-32zM64 64h768V576H64v-512zM448 128c-70.4 0-128 51.2-128 112 0 19.2 12.8 32 32 32s32-12.8 32-32c0-25.6 28.8-48 64-48s64 22.4 64 48c0 22.4-25.6 48-64 48-70.4 0-128 48-128 112 0 60.8 57.6 112 128 112s128-51.2 128-112c0-19.2-12.8-32-32-32s-32 12.8-32 32c0 25.6-28.8 48-64 48s-64-22.4-64-48 28.8-48 64-48c70.4 0 128-51.2 128-112S518.4 128 448 128zM448 454.4c-19.2 0-32 12.8-32 32V512c0 19.2 12.8 32 32 32s32-12.8 32-32v-25.6c0-19.2-12.8-32-32-32zM448 96c-19.2 0-32 12.8-32 32v25.6c0 19.2 12.8 32 32 32s32-12.8 32-32v-25.6c0-19.2-12.8-32-32-32zM992 96c-19.2 0-32 12.8-32 32V704H128c-19.2 0-32 12.8-32 32s12.8 32 32 32h864c19.2 0 32-12.8 32-32v-608c0-19.2-12.8-32-32-32z"  horiz-adv-x="1024" />

    
    <glyph glyph-name="export1" unicode="&#59021;" d="M951.466667 311.466667l-96 96c-12.8 12.8-32 12.8-44.8 0-12.8-12.8-12.8-32 0-44.8l40.533333-40.533334H541.866667c-17.066667 0-32-14.933333-32-32s14.933333-32 32-32h309.333333L810.666667 217.6c-12.8-12.8-12.8-32 0-44.8 6.4-6.4 14.933333-8.533333 23.466666-8.533333s17.066667 2.133333 23.466667 8.533333l96 96c8.533333 8.533333 8.533333 29.866667-2.133333 42.666667zM768 96c-17.066667 0-32-14.933333-32-32v-128H128V832h352v-224c0-17.066667 14.933333-32 32-32h224v-64c0-17.066667 14.933333-32 32-32s32 14.933333 32 32v123.733333c0 8.533333-4.266667 17.066667-10.666667 23.466667L535.466667 887.466667c-6.4 4.266667-12.8 8.533333-21.333334 8.533333H96C78.933333 896 64 881.066667 64 864v-960c0-17.066667 14.933333-32 32-32H768c17.066667 0 32 14.933333 32 32V64c0 17.066667-14.933333 32-32 32zM544 793.6l170.666667-153.6h-170.666667V793.6z"  horiz-adv-x="1024" />

    
    <glyph glyph-name="yonghu" unicode="&#58908;" d="M681.472 188.928c-14.336 2.56-14.848 41.472-14.848 41.472s42.496 41.472 51.2 97.28c25.088 0 39.936 59.392 15.36 80.384 1.024 22.016 31.744 172.544-123.904 172.544S483.84 430.08 484.864 408.064c-25.088-20.992-9.216-80.384 15.36-80.384 9.216-55.808 51.2-97.28 51.2-97.28s-0.512-39.424-14.848-41.472c-46.08-7.168-219.136-82.944-219.136-166.4h583.68c0 83.456-173.056 158.72-219.648 166.4z m-296.96-13.312c33.28 20.48 74.24 39.936 107.52 51.2-12.288 16.896-25.088 39.936-33.792 67.584-11.776 9.728-21.504 23.552-27.136 39.936-6.144 16.896-8.704 35.84-6.656 52.736 1.024 12.288 5.12 24.064 10.752 34.304-3.072 35.328-5.632 104.96 39.936 155.648 17.408 19.456 39.936 33.792 66.56 42.496-5.632 49.664-30.72 107.52-127.488 107.52-156.16 0-125.44-150.528-124.416-172.544-25.088-20.992-9.216-80.384 15.36-80.384 9.216-55.808 51.712-97.28 51.712-97.28s-0.512-39.424-14.848-41.472C295.936 327.68 122.88 251.904 122.88 168.96h250.368c3.584 2.048 7.168 4.608 11.264 6.656z"  horiz-adv-x="1024" />

    
    <glyph glyph-name="shuju1" unicode="&#58900;" d="M64 829h896c35.346 0 64-28.654 64-64v-126c0-35.346-28.654-64-64-64H64c-35.346 0-64 28.654-64 64V765c0 35.346 28.654 64 64 64z m0-64v-126h896V765H64z m0-254h896c35.346 0 64-28.654 64-64v-126c0-35.346-28.654-64-64-64H64c-35.346 0-64 28.654-64 64V447c0 35.346 28.654 64 64 64z m0-64v-126h896V447H64z m0-254h896c35.346 0 64-28.654 64-64v-126c0-35.346-28.654-64-64-64H64c-35.346 0-64 28.654-64 64V129c0 35.346 28.654 64 64 64z m0-64v-126h896V129H64z m688 605h89c17.673 0 32-14.327 32-32 0-17.673-14.327-32-32-32h-89c-17.673 0-32 14.327-32 32 0 17.673 14.327 32 32 32zM601 98h240c17.673 0 32-14.327 32-32 0-17.673-14.327-32-32-32H601c-17.673 0-32 14.327-32 32 0 17.673 14.327 32 32 32z"  horiz-adv-x="1024" />

    
    <glyph glyph-name="qudao" unicode="&#59179;" d="M784.317745 423.250387l-238.70327-137.817847v-275.615693L784.317745-128l238.70227 137.816847v275.615693zM0.008 285.43254v-275.615693L238.71127-128l238.70227 137.816847v275.615693L238.71127 423.251387zM750.046281 758.186153L511.34401 896 272.64074 758.184153v-275.615693l238.70327-137.817847 238.702271 137.817847z"  horiz-adv-x="1024" />

    
    <glyph glyph-name="icon-right" unicode="&#58949;" d="M567.32505 348.81464000000005c20.970614 21.479197 20.970614 56.307424 0 77.790714L185.251168 818.884668c-20.971637 21.47715-54.975079 21.47715-75.948763 0-20.973684-21.484314-20.973684-56.30947 0-77.793784l344.188016-353.383446-344.188016-353.384469c-20.973684-21.484314-20.973684-56.311517 0-77.79276 20.971637-21.482267 54.975079-21.482267 75.948763 0l382.072858 392.280337 0.001024 0.004094zM440.60802 741.091908l344.18597-353.383446-344.18597-353.385493c-20.973684-21.484314-20.973684-56.311517 0-77.79276 20.972661-21.482267 54.975079-21.482267 75.949786 0l382.074905 392.281361c20.966521 21.478174 20.966521 56.307424 0 77.790714L516.555759 818.884668c-20.972661 21.47715-54.975079 21.47715-75.949786 0-20.971637-21.48329-20.971637-56.30947 0.002047-77.79276z"  horiz-adv-x="1024" />

    
    <glyph glyph-name="yonghu1" unicode="&#58890;" d="M208.852 593.416a302.584 302.584 0 1 1 605.168 0 302.584 302.584 0 1 1-605.168 0zM803.763 292.54c-23.933 18.806-58.123 17.096-80.347-5.128-54.705-54.704-129.923-88.894-213.69-88.894s-158.985 34.19-213.69 88.894c-22.223 22.224-56.413 25.643-80.346 5.129-92.314-78.638-160.695-179.5-182.918-317.97C24.224-81.843 63.542-128 121.666-128h781.25c56.413 0 97.441 46.157 88.894 102.571-23.933 138.47-92.314 239.332-188.047 317.97z"  horiz-adv-x="1024" />

    
    <glyph glyph-name="rizhi1" unicode="&#58883;" d="M722.489 423.822c28.444 0 56.889-5.689 85.333-17.066v307.2c0 34.133-22.755 56.888-56.889 56.888H637.156V691.2c0-28.444-22.756-51.2-51.2-51.2h-39.823c-28.444 5.689-51.2 28.444-51.2 51.2v79.644H381.156V691.2c0-28.444-22.756-51.2-51.2-51.2h-39.823c-28.444 5.689-51.2 28.444-51.2 51.2v79.644H125.156c-34.134 0-56.89-22.755-56.89-56.888v-682.667c0-34.133 22.756-56.889 56.89-56.889H506.31c-39.822 45.511-62.578 108.089-62.578 170.667 0 153.6 125.156 278.755 278.756 278.755z m-540.445 96.711c0 5.69 5.69 11.378 11.378 11.378h489.245c5.689 0 11.377-5.689 11.377-11.378V486.4c0-5.689-5.688-11.378-11.377-11.378H193.422c-5.689 0-11.378 5.69-11.378 11.378v34.133z m0-170.666c0 5.689 5.69 11.377 11.378 11.377h204.8c5.69 0 11.378-5.688 11.378-11.377v-39.823c0-5.688-5.689-11.377-11.378-11.377h-204.8c-5.689 0-11.378 5.689-11.378 11.377v39.823z m170.667-204.8c0-5.69-5.689-5.69-5.689-5.69H187.733c-5.689 0-5.689 5.69-5.689 5.69v39.822c0 5.689 5.69 5.689 5.69 5.689h153.6c5.688 0 5.688-5.69 5.688-5.69v-39.821zM329.956 856.178h-39.823c-5.689 0-11.377 0-11.377-5.69V691.2c0-5.689 5.688-5.689 5.688-5.689h39.823c5.689 0 5.689 5.689 5.689 5.689V850.489c5.688 5.689 5.688 5.689 0 5.689z m256 0h-39.823c-5.689 0-5.689-5.69-5.689-5.69V691.2c0-5.689 5.69-5.689 5.69-5.689h39.822c5.688 0 5.688 5.689 5.688 5.689V850.489c0 5.689 0 5.689-5.688 5.689z m221.866-494.934c-28.444 11.378-56.889 17.067-85.333 17.067-130.845 0-233.245-108.089-233.245-233.244 0-68.267 28.445-125.156 73.956-170.667 39.822-39.822 96.711-62.578 159.289-62.578 130.844 0 233.244 108.09 233.244 233.245 0 102.4-62.577 182.044-147.91 216.177z m28.445-244.622c0-5.689-5.69-11.378-11.378-11.378H699.733c-5.689 0-11.377 5.69-11.377 11.378V281.6c0 5.689 5.688 17.067 17.066 17.067H716.8c5.689 0 17.067-5.69 17.067-17.067v-136.533h102.4c5.689 0 11.377-5.69 11.377-11.378v-17.067z"  horiz-adv-x="1024" />

    
    <glyph glyph-name="shuju2" unicode="&#58905;" d="M514.053 223.119v-235.531c0-4.143 1.586-8.29 4.742-11.462a16.09 16.09 0 0 1 11.453-4.761h119.11c8.954 0.01 16.208 7.269 16.218 16.223V301.447L544.463 197.199l-30.41 25.92z m-509.065-235.531c0-4.138 1.591-8.306 4.76-11.457a16.105 16.105 0 0 1 11.458-4.761h119.085a16.07 16.07 0 0 1 11.453 4.761 16.155 16.155 0 0 1 4.76 11.457V227.854l-151.516-124.979v-115.287z m254.48 325.246v-325.246c0-4.138 1.591-8.285 4.76-11.457a16.182 16.182 0 0 1 11.458-4.761h119.136c4.166 0 8.309 1.589 11.458 4.761a16.166 16.166 0 0 1 4.758 11.457V310.806l-75.733 64.467-75.837-62.439z m509.118-325.246c-0.036-8.923 7.178-16.188 16.102-16.218H903.94c4.163 0 8.306 1.589 11.452 4.761a16.181 16.181 0 0 1 4.761 11.457V520.633L768.586 390.127v-402.539z m-26.138 809.045c-2.13 0-4.169-1.239-5.009-3.349-0.87-2.087-0.309-4.391 1.185-5.904l113.899-111.962-308.06-265.255-209.158 178.143-331.182-273.19v-118.014L335.31 470.272 544.463 292.18l372.124 320.326 94.09-92.541a5.457 5.457 0 0 1 5.899-1.113 5.38 5.38 0 0 1 3.303 4.958v267.446a5.39 5.39 0 0 1-5.407 5.377H742.448z"  horiz-adv-x="1024" />

    
    <glyph glyph-name="pingtaiguanli" unicode="&#58881;" d="M20.354251 557.970236l486.370694-265.670933c5.861172-3.197003 12.255177-4.795504 18.649183-4.795504 6.713706 0 13.427412 1.705068 19.395151 5.115204l461.007805 265.670934c12.042044 7.033406 19.501717 19.821417 19.501717 33.675096s-7.459673 26.854824-19.501717 33.675096L544.769279 890.778229c-11.82891 6.713706-26.108856 7.033406-37.937767 0.426267L20.354251 626.386096c-12.468311-6.926839-20.247684-19.927984-20.247684-34.20793 0-14.173379 7.779374-27.281091 20.247684-34.20793z m0 0M966.77365 426.573421L524.947861 171.772297 57.652617 427.106255c-18.968883 10.336976-42.520137 3.30357-52.857113-15.452181-10.336976-18.75575-3.30357-42.520137 15.45218-52.750546l486.370695-265.670934c5.861172-3.197003 12.255177-4.795504 18.649183-4.795504 6.820273 0 13.427412 1.705068 19.39515 5.115205l461.007805 265.670933c18.542616 10.763243 25.043189 34.52763 14.386513 53.176814-10.763243 18.542616-34.634197 24.936622-53.28338 14.173379z m0 0M966.77365 210.242897L524.947861-44.558227 57.652617 210.669164c-18.968883 10.336976-42.520137 3.30357-52.857113-15.45218-10.336976-18.75575-3.30357-42.520137 15.45218-52.750546l486.370695-265.670934c5.861172-3.197003 12.255177-4.795504 18.649183-4.795504 6.820273 0 13.427412 1.705068 19.39515 5.115204l461.007805 265.670934c18.542616 10.763243 25.043189 34.52763 14.386513 53.176813-10.763243 18.542616-34.634197 25.043189-53.28338 14.279946z m0 0"  horiz-adv-x="1025" />

    
    <glyph glyph-name="app4" unicode="&#58911;" d="M256 832a192 192 0 0 0 192-192v-192H256a192 192 0 1 0 0 384zM256 320h192v-192a192 192 0 0 0-384 0 192 192 0 0 0 192 192zM768 832a192 192 0 0 0 0-384H576V640a192 192 0 0 0 192 192zM576 320h192a192 192 0 0 0 0-384 192 192 0 0 0-192 192V320z"  horiz-adv-x="1024" />

    
    <glyph glyph-name="shujudaoru1" unicode="&#58910;" d="M855.1-61.4H168.9c-57.4 0-104.2 46.7-104.2 104.2V399.6c0 17.3 14 31.3 31.3 31.3s31.3-14 31.3-31.3v-356.8c0-23 18.7-41.7 41.7-41.7h686.2c23 0 41.7 18.7 41.7 41.7V725.2c0 23-18.7 41.7-41.7 41.7h-267c-17.3 0-31.3 14-31.3 31.3s14 31.3 31.3 31.3h266.9c57.4 0 104.2-46.7 104.2-104.2v-682.4c0-57.5-46.8-104.3-104.2-104.3zM84.9 739.1c147.7 19.9 225.8-42.6 188.9-116.5-5-10-9.4-19.9-20.5-19.8h-54.8c-17.2 0.1-26.8-19.9-16-33.3L348 365c8.2-10.1 23.7-10.1 31.9 0.1l183 203.5c10.7 13.4 1.3 34.2-15.9 34.2h-55.5c-10.4 0-18 7.1-20.3 17.3C409.4 891.5 185.7 805.9 84.9 739.1zM385.9 87.1H234.5c-1 0-1.9 0.8-1.9 1.9V242c0 1 0.8 1.9 1.9 1.9h151.4c1 0 1.9-0.8 1.9-1.9v-153c0-1.1-0.8-1.9-1.9-1.9zM589.4 87.1h-151c-1.1 0-2.1 0.9-2.1 2.1V310.3c0 1.1 0.9 2.1 2.1 2.1h151.1c1.1 0 2.1-0.9 2.1-2.1v-221.2c-0.1-1.1-1-2-2.2-2zM793.1 87.1h-151c-1.1 0-2.1 0.9-2.1 2.1V378.8c0 1.1 0.9 2.1 2.1 2.1h151.1c1.1 0 2.1-0.9 2.1-2.1v-289.6c-0.1-1.2-1-2.1-2.2-2.1z"  horiz-adv-x="1024" />

    
    <glyph glyph-name="total" unicode="&#59127;" d="M933.677161 207.192404V554.154923c17.911044 9.723138 28.657671 28.145927 28.657672 48.615692 0 30.704648-25.075462 55.78011-55.78011 55.78011-7.676162 0-14.84058-1.535232-22.004998-4.605698l-318.304847 183.716142v2.558721c0 30.704648-25.075462 55.78011-55.78011 55.78011S454.684658 870.924538 454.684658 840.21989v-3.582209l-317.28136-182.180909c-6.652674 2.558721-13.305347 4.093953-20.469765 4.093953-30.704648 0-55.78011-25.075462-55.78011-55.78011 0-19.446277 10.234883-37.357321 26.610695-47.08046v-349.521239c-16.375812-10.234883-26.610695-28.145927-26.610695-47.08046 0-30.704648 25.075462-55.78011 55.78011-55.78011 8.69965 0 16.887556 2.046977 24.563718 5.629185L454.684658-71.708146c0-14.84058 5.629185-28.657671 16.375812-39.404298 10.746627-10.746627 24.563718-16.375812 39.404298-16.375812 14.84058 0 28.657671 5.629185 39.404297 16.375812 10.746627 10.746627 16.375812 24.563718 16.375813 39.404298v2.558721l312.163918 180.133933c8.69965-5.117441 17.911044-7.676162 28.145927-7.676162 30.704648 0 55.78011 25.075462 55.78011 55.78011 0 19.958021-11.258371 37.869065-28.657672 48.103948z m-82.902548 395.066467L540.145927 429.801099c-2.046977 1.023488-4.093953 2.558721-6.652674 3.582209V789.045477c2.558721 1.023488 4.605697 2.558721 7.164418 3.582209l311.652174-179.622189c-1.023488-3.582209-1.535232-7.164418-1.535232-10.746626z m-315.234383-269.177412c1.535232 1.023488 3.582209 2.046977 5.117441 3.070465l310.116942-177.575212v-4.605698l-310.628686-179.110444c-1.535232 1.023488-3.070465 2.046977-4.605697 2.55872v355.662169z m30.704648 53.22139L875.338331 556.201899c1.023488-1.023488 2.558721-1.535232 4.093953-2.558721v-346.962518l-4.605697-3.070465-308.581709 176.551724v2.046977c0.511744 1.535232 0 2.558721 0 4.093953zM171.690155 614.54073L481.295352 792.627686c1.023488-0.511744 1.535232-1.023488 2.558721-1.535232v-360.267866c-0.511744-0.511744-1.023488-0.511744-2.046977-1.023489L173.225387 600.211894v2.558721c0 3.582209-0.511744 7.676162-1.535232 11.770115z m283.506247-230.284858v-4.093953l-307.046477-176.03998c-2.046977 1.535232-4.093953 2.558721-6.140929 3.582209V552.61969c1.535232 0.511744 2.558721 1.535232 4.093953 2.046977l309.093453-170.410795z m-282.482759-222.608696l306.022989 175.016492c2.046977-1.535232 4.605697-3.070465 6.652673-4.093953v-355.662169c-1.535232-1.023488-3.070465-1.535232-4.605697-2.55872l-308.581709 178.086956c0 2.046977 0.511744 4.093953 0.511744 5.629186 0.511744 1.535232 0.511744 2.558721 0 3.582208z"  horiz-adv-x="1024" />

    
    <glyph glyph-name="shuju" unicode="&#59169;" d="M941.277-26.61h-26.469V496.97c0 10.323-8.344 18.686-18.685 18.686H715.317c-10.341 0-18.666-8.363-18.666-18.685v-523.582h-52.976V722.931c0 10.322-8.382 18.704-18.704 18.704H444.184c-10.304 0-18.685-8.382-18.685-18.704v-749.542h-52.995V384c0 10.304-8.363 18.685-18.685 18.685h-180.75c-10.322 0-18.704-8.362-18.704-18.685v-410.61h-52.994V813.314C101.37 823.637 93.008 832 82.685 832 72.363 832 64 823.637 64 813.315v-858.611C64-55.637 72.363-64 82.685-64H941.315c10.36 0 18.704 8.363 18.685 18.704-0.019 10.323-8.381 18.685-18.723 18.685z m-606.125 0H191.773V365.295h143.379v-391.907z m271.133 0H462.907V704.226h143.378v-730.838z m271.152 0H734.06V478.284h143.378V-26.61z"  horiz-adv-x="1024" />

    
    <glyph glyph-name="baocuo" unicode="&#58882;" d="M698.796081 817.771222l443.190075-735.903501c62.902017-104.34837 17.30973-188.900048-101.71641-188.900049H130.045968c-119.123139 0-164.666427 84.600678-101.76441 188.900049l443.043078 735.903501c62.756019 104.30037 164.617428 104.30037 227.471445 0zM585.182857 661.930657c-36.961422 0-66.900955-29.939532-66.900955-66.851955v-284.17956a66.851955 66.851955 0 1 1 133.75191 0V595.078702c0 36.912423-29.939532 66.851955-66.899955 66.851955z m0-476.396556c-36.961422 0-66.900955-29.939532-66.900955-66.899955v-33.401478a66.851955 66.851955 0 1 1 133.75191 0v33.401478c0 36.960422-29.939532 66.899955-66.899955 66.899955z"  horiz-adv-x="1170" />

    
    <glyph glyph-name="editorpublish" unicode="&#59077;" d="M697.181916 69.280734H326.818084c-16.598379 0-29.997071 13.398692-29.99707 29.997071s13.398692 29.997071 29.99707 29.997071h370.363832c16.598379 0 29.997071-13.398692 29.99707-29.997071s-13.398692-29.997071-29.99707-29.997071zM697.181916 237.26433H326.818084c-16.598379 0-29.997071 13.398692-29.99707 29.99707s13.398692 29.997071 29.99707 29.997071h370.363832c16.598379 0 29.997071-13.398692 29.99707-29.997071s-13.398692-29.997071-29.99707-29.99707zM660.68548 747.31452L532.797969 875.202031c-11.498877 11.498877-29.997071 11.498877-41.495948 0L362.914559 746.914559c-11.698858-11.698858-11.698858-30.697002 0-42.39586s30.697002-11.698858 42.39586 0l76.69251 76.692511v-297.57094c0-16.298408 12.79875-30.197051 29.197149-30.597013 16.99834-0.499951 30.796992 13.098721 30.796993 29.997071V781.11122l76.69251-76.692511c5.899424-5.899424 13.498682-8.799141 21.19793-8.799141 7.899229 0 15.698467 3.099697 21.697881 9.199102 11.298897 11.998828 10.698955 30.896983-0.899912 42.49585zM827.369202 706.318524H735.978127c-16.598379 0-29.997071-13.398692-29.99707-29.997071s13.398692-29.997071 29.99707-29.997071h91.391075c13.598672 0 24.597598-10.998926 24.597598-24.597598v-665.135045c0-13.598672-10.998926-24.597598-24.597598-24.597598H196.630798c-13.598672 0-24.597598 10.998926-24.597598 24.597598V621.726784c0 13.598672 10.998926 24.597598 24.597598 24.597598H288.021873c16.598379 0 29.997071 13.398692 29.99707 29.997071s-13.398692 29.997071-29.99707 29.997071h-91.391075c-46.69544 0-84.591739-37.896299-84.591739-84.59174v-665.135045c0-46.69544 37.896299-84.591739 84.591739-84.591739h630.738404c46.69544 0 84.591739 37.896299 84.591739 84.591739V621.726784c0 46.79543-37.896299 84.591739-84.591739 84.59174z"  horiz-adv-x="1024" />

    
    <glyph glyph-name="table-data" unicode="&#59022;" d="M880 896A144.32 144.32 0 0 0 1024 752v-736a144.32 144.32 0 0 0-144-144h-736A144.32 144.32 0 0 0 0 16v736A144.32 144.32 0 0 0 144 896h736zM928 16v736A48 48 0 0 1 880 800h-736A48 48 0 0 1 96 752v-736A48 48 0 0 1 144-32h736a48 48 0 0 1 48 48zM244.48 385.92a48 48 0 0 0-48 48v100.16a48 48 0 0 0 96 0v-100.16a48 48 0 0 0-48-48z m179.84 0a48 48 0 0 0-48 48V585.92a48 48 0 0 0 96 0v-152a48 48 0 0 0-48-48z m179.84 0a48 48 0 0 0-48 48V672a48 48 0 0 0 96 0v-238.08a48 48 0 0 0-48-48zM784 592A48 48 0 0 0 832 544v-110.08a48 48 0 0 0-96 0V544a48 48 0 0 0 48 48z m0-272a48 48 0 0 0 0-96H244.48a48 48 0 0 0 0 96H784z m0-160a48 48 0 0 0 0-96H244.48a48 48 0 0 0 0 96H784z"  horiz-adv-x="1024" />

    
    <glyph glyph-name="zhuangtaixiaoyan" unicode="&#58885;" d="M438.016 334.848c19.2 0 32-12.8 32-32s-12.8-32-32-32h-211.2c-19.2 0-32 12.8-32 32s12.8 32 32 32h211.2zM438.016 200.448c19.2 0 32-12.8 32-32s-12.8-32-32-32h-211.2c-19.2 0-32 12.8-32 32s12.8 32 32 32h211.2zM665.024 379.648c76.8 0 140.8-64 140.8-140.8s-57.6-147.2-140.8-147.2-140.8 64-140.8 140.8 64 147.2 140.8 147.2z m0-224c44.8 0 76.8 38.4 76.8 76.8s-32 83.2-76.8 83.2-76.8-38.4-76.8-83.2 38.4-76.8 76.8-76.8zM438.016 661.44c19.2 0 32-12.8 32-32s-12.8-32-32-32h-211.2c-19.2 0-32 12.8-32 32s12.8 32 32 32h211.2zM438.016 533.44c19.2 0 32-12.8 32-32s-12.8-32-32-32h-211.2c-19.2 0-32 12.8-32 32s12.8 32 32 32h211.2zM773.824 665.728c12.8 12.8 32 12.8 44.8 6.4 12.8-12.8 12.8-32 6.4-44.8l-121.6-147.2c-12.8-19.2-32-25.6-51.2-25.6s-38.4 6.4-51.2 19.2l-70.4 83.2c-12.8 12.8-6.4 32 6.4 44.8 12.8 12.8 32 12.8 44.8 0l70.4-83.2 121.6 147.2zM906.24 832H117.76a53.824 53.824 0 0 1-53.76-53.76v-788.48c0-29.632 24.128-53.76 53.76-53.76h788.48c29.632 0 53.76 24.128 53.76 53.76V778.24a53.824 53.824 0 0 1-53.76 53.76z m-5.952-836.288H123.712V772.288h776.512v-776.576z"  horiz-adv-x="1024" />

    
    <glyph glyph-name="errorcorrection" unicode="&#58884;" d="M896 355.008V782.208C896 845.056 838.72 896 768 896H128C57.28 896 0 845.056 0 782.208v-796.416C0-77.056 57.28-128 128-128h644.096v64H128c-36.928 0-64 24.064-64 49.792V782.208C64 807.936 91.072 832 128 832h640c36.928 0 64-24.064 64-49.792v-427.2h64z m0-30.72V782.272C896 845.056 838.72 896 768 896H128C57.28 896 0 845.056 0 782.208v-796.416C0-77.056 57.28-128 128-128h644.096v64H128c-36.928 0-64 24.064-64 49.792V782.208C64 807.936 91.072 832 128 832h640c36.928 0 64-24.064 64-49.792v-427.2l64-30.72zM192 576a32 32 0 0 0 0 64h512a32 32 0 1 0 0-64H192z m0-192a32 32 0 0 0 0 64h384a32 32 0 0 0 0-64H192z m0-192a32 32 0 1 0 0 64h192a32 32 0 1 0 0-64H192z m576-256a192 192 0 1 1 0 384 192 192 0 0 1 0-384z m0-64a256 256 0 1 0 0 512 256 256 0 0 0 0-512zM876.608 55.616a25.6 25.6 0 1 0-36.224-36.224l-180.992 180.992a25.6 25.6 0 1 0 36.224 36.224l180.992-180.992zM695.616 19.392a25.6 25.6 0 1 0-36.224 36.224l180.992 180.992a25.6 25.6 0 1 0 36.224-36.224l-180.992-180.992z"  horiz-adv-x="1024" />

    
    <glyph glyph-name="DataOutline" unicode="&#58985;" d="M853.5 896h-683C76.4 896 0 819.6 0 725.5v-682.9C0-51.6 76.4-128 170.5-128h682.9c94.2 0 170.5 76.4 170.5 170.5v683C1024 819.6 947.6 896 853.5 896z m85.2-853.5c0-47-38.2-85.2-85.2-85.2h-683c-47 0-85.2 38.2-85.2 85.2v683c0 47 38.2 85.2 85.2 85.2h682.9c47 0 85.2-38.2 85.2-85.2v-683zM273.2 477.9c70.7 0 128 57.3 128 128s-57.3 128-128 128-128-57.3-128-128 57.3-128 128-128z m0 170.6c23.5 0 42.7-19.1 42.7-42.7s-19.1-42.7-42.7-42.7c-23.5 0-42.7 19.1-42.7 42.7s19.2 42.7 42.7 42.7zM786.1 652.3L587.8 415.9l-170.5 2.7c-11.9 0.7-25.1-5.5-33.3-15.2l-211.4-252c-15.2-18-12.8-45 5.2-60.1 8-6.7 17.7-10 27.4-10 12.2 0 24.3 5.2 32.7 15.2l198.3 236.4 170.5-2.7c13.6-0.5 25.1 5.4 33.3 15.2l211.4 252c15.2 18 12.8 45-5.2 60.1-18.1 15.2-45 12.8-60.1-5.2zM810.1 123.9H468.7c-23.6 0-42.7-19.1-42.7-42.7s19.1-42.7 42.7-42.7H810c23.6 0 42.7 19.1 42.7 42.7 0 23.7-19.1 42.7-42.6 42.7z"  horiz-adv-x="1024" />

    


  </font>
</defs>
</svg>
